  0
SECTION
  2
HEADER
  9
$ACADVER
  1
AC1003
  9
$INSBASE
 10
0.000000
 20
0.000000
  9
$EXTMIN
 10
0.000000
 20
0.000000
  9
$EXTMAX
 10
514.000000
 20
364.000000
  9
$LIMMIN
 10
0.000000
 20
0.000000
  9
$LIMMAX
 10
514.000000
 20
364.000000
  9
$VIEWCTR
 10
257.000000
 20
182.000000
  9
$VIEWSIZE
 40
364.000000
  9
$PEXTMIN
 10
0.000000
 20
0.000000
 30
0.000000
  9
$PEXTMAX
 10
257.000000
 20
182.000000
 30
0.000000
  9
$SNAPMODE
 70
     0
  9
$SNAPUNIT
 10
1.000000
 20
1.000000
  9
$SNAPBASE
 10
0.000000
 20
0.000000
  9
$SNAPANG
 50
0.000000
  9
$SNAPISOPAIR
 70
     0
  9
$SNAPSTYLE
 70
     0
  9
$GRIDMODE
 70
     0
  9
$GRIDUNIT
 10
0.000000
 20
0.000000
  9
$ORTHOMODE
 70
     0
  9
$REGENMODE
 70
     1
  9
$FILLMODE
 70
     1
  9
$QTEXTMODE
 70
     0
  9
$DRAGMODE
 70
     2
  9
$LTSCALE
 40
0.500000
  9
$OSMODE
 70
     0
  9
$ATTMODE
 70
     1
  9
$TEXTSIZE
 40
10.000000
  9
$TRACEWID
 40
0.050000
  9
$TEXTSTYLE
  7
STANDARD
  9
$CLAYER
  8
0
  9
$CELTYPE
  6
BYLAYER
  9
$CECOLOR
 62
   256
  9
$DIMSCALE
 40
1.000000
  9
$DIMASZ
 40
1.000000
  9
$DIMEXO
 40
0.000000
  9
$DIMDLI
 40
0.500000
  9
$DIMRND
 40
0.000000
  9
$DIMDLE
 40
0.000000
  9
$DIMEXE
 40
0.000000
  9
$DIMTP
 40
0.000000
  9
$DIMTM
 40
0.000000
  9
$DIMTXT
 40
4.000000
  9
$DIMCEN
 40
0.000000
  9
$DIMTSZ
 40
0.000000
  9
$DIMTOL
 70
     0
  9
$DIMLIM
 70
     0
  9
$DIMTIH
 70
     1
  9
$DIMTOH
 70
     1
  9
$DIMSE1
 70
     0
  9
$DIMSE2
 70
     0
  9
$DIMTAD
 70
     0
  9
$DIMZIN
 70
     0
  9
$DIMBLK
  1

  9
$DIMASO
 70
     0
  9
$DIMSHO
 70
     0
  9
$DIMPOST
  1

  9
$DIMAPOST
  1

  9
$DIMALT
 70
     0
  9
$DIMALTD
 70
     0
  9
$DIMALTF
 40
25.400000
  9
$DIMLFAC
 40
1.000000
  9
$DIMTOFL
 70
     0
  9
$DIMTVP
 40
0.000000
  9
$DIMTIX
 70
     0
  9
$DIMSOXD
 70
     0
  9
$DIMSAH
 70
     0
  9
$DIMBLKL
  1

  9
$DIMBLKR
  1

  9
$LUNITS
 70
     2
  9
$LUPREC
 70
     2
  9
$AXISMODE
 70
     0
  9
$AXISUNIT
 10
1.000000
 20
1.000000
  9
$SKETCHINC
 40
0.000000
  9
$FILLETRAD
 40
0.000000
  9
$AUNITS
 70
     1
  9
$AUPREC
 70
     2
  9
$MENU
  1
ACAD
  9
$ELEVATION
 40
0.000000
  9
$THICKNESS
 40
0.000000
  9
$VIEWDIR
 10
0.000000
 20
0.000000
 30
1.000000
  9
$LIMCHECK
 70
     1
  9
$BLIPMODE
 70
     1
  9
$CHAMFERA
 40
0.000000
  9
$CHAMFERB
 40
0.000000
  9
$FASTZOOM
 70
     1
  9
$SKPOLY
 70
     0
  9
$TDCREATE
 40
0.000000
  9
$TDUPDATE
 40
0.000000
  9
$TDINDWG
 40
0.000000
  9
$TDUSRTIMER
 40
0.000000
  9
$USRTIMER
 70
     1
  9
$ANGBASE
 50
0.000000
  9
$ANGDIR
 70
     0
  9
$PDMODE
 70
     0
  9
$PDSIZE
 40
0.000000
  9
$PLINEWID
 40
0.000000
  9
$COORDS
 70
     2
  9
$USERI1
 70
     0
  9
$USERI2
 70
     0
  9
$USERI3
 70
     0
  9
$USERI4
 70
     0
  9
$USERI5
 70
     0
  9
$USERR1
 40
0.000000
  9
$USERR2
 40
0.000000
  9
$USERR3
 40
0.000000
  9
$USERR4
 40
0.000000
  9
$USERR5
 40
0.000000
  0
ENDSEC
  0
SECTION
  2
TABLES
  0
TABLE
  2
LTYPE
 70
     5
  0
LTYPE
  2
CONTINUOUS
 70
    64
  3
Solid line
 72
    65
 73
     0
 40
0.0
  0
LTYPE
  2
HIDDEN
 70
    64
  3
------------------------
 72
    65
 73
     2
 40
12.6
 49
8.4
 49
-4.2
  0
LTYPE
  2
DOT
 70
    64
  3
････････････････････････
 72
    65
 73
     2
 40
8.0
 49
6.0
 49
-2.0
  0
LTYPE
  2
DASHDOT
 70
    64
  3
--･--･--･--･--･--･--･--
 72
    65
 73
     4
 40
50.5
 49
30.0
 49
-9.0
 49
2.5
 49
-9.0
  0
LTYPE
  2
DIVIDE
 70
    64
  3
--･･--･･--･･--･･--･･--
 72
    65
 73
     6
 40
58.0
 49
30.0
 49
-9.0
 49
2.5
 49
-5.0
 49
2.5
 49
-9.0
  0
LTYPE
  2
ACAD_ISO06W100
 70
    64
  3
____ ... ____ ... ____
 72
    65
 73
     8
 40
37.5
 49
24.0
 49
-3.0
 49
0.5
 49
-3.0
 49
0.5
 49
-3.0
 49
0.5
 49
-3.0
  0
LTYPE
  2
ACAD_ISO14W100
 70
    64
  3
__ . . . __ . . . __ . . . 
 72
    65
 73
     8
 40
25.5
 49
12.0
 49
-3.0
 49
0.5
 49
-3.0
 49
0.5
 49
-3.0
 49
0.5
 49
-3.0
  0
ENDTAB
  0
TABLE
  2
LAYER
 70
3
  0
LAYER
  2
1
 70
64
 62
7
  6
CONTINUOUS
  0
LAYER
  2
2
 70
64
 62
7
  6
CONTINUOUS
  0
LAYER
  2
3
 70
64
 62
7
  6
CONTINUOUS
  0
ENDTAB
  0
TABLE
  2
STYLE
 70
     2
  0
STYLE
  2
STANDARD
 70
    64
 40
0.0
 41
1.0
 50
0.0
 71
     0
 42
0.2
  3
TXT
  4

  0
STYLE
  2
KANJI
 70
    64
 40
0.0
 41
1.0
 50
0.0
 71
     0
 42
0.2
  3
TXT
  4
BIGFONT
  0
ENDTAB
  0
TABLE
  2
VIEW
 70
     0
  0
ENDTAB
  0
ENDSEC
  0
SECTION
  2
BLOCKS
  0
BLOCK
  8
3
 62
7
  6
CONTINUOUS
  2
*D1
 70
    65
 10
0.0
 20
0.0
  0
LINE
  8
3
 62
7
  6
CONTINUOUS
 10
247.184053
 20
300.954094
 11
247.184053
 21
172.484617
  0
LINE
  8
3
 62
7
  6
CONTINUOUS
 10
247.684053
 20
300.954094
 11
192.434053
 21
300.954094
  0
LINE
  8
3
 62
7
  6
CONTINUOUS
 10
247.684053
 20
172.484617
 11
213.434053
 21
172.484617
  0
LINE
  8
3
 62
7
  6
CONTINUOUS
 10
247.184053
 20
300.954094
 11
247.960510
 21
298.056316
  0
LINE
  8
3
 62
7
  6
CONTINUOUS
 10
247.184053
 20
300.954094
 11
246.407596
 21
298.056316
  0
LINE
  8
3
 62
7
  6
CONTINUOUS
 10
247.184053
 20
172.484617
 11
246.407596
 21
175.382394
  0
LINE
  8
3
 62
7
  6
CONTINUOUS
 10
247.184053
 20
172.484617
 11
247.960510
 21
175.382394
  0
TEXT
  8
3
 62
7
  6
CONTINUOUS
 10
247.184053
 20
228.625711
 40
4.000000
 41
0.500000
  1
128.5
  7
KANJI
 50
90.000000
 51
0.000000
  0
ENDBLK
  0
BLOCK
  8
3
 62
7
  6
CONTINUOUS
  2
*D2
 70
    65
 10
0.0
 20
0.0
  0
LINE
  8
3
 62
7
  6
CONTINUOUS
 10
235.823920
 20
293.789910
 11
235.823920
 21
175.954094
  0
LINE
  8
3
 62
7
  6
CONTINUOUS
 10
236.323920
 20
293.789910
 11
225.684053
 21
293.789910
  0
LINE
  8
3
 62
7
  6
CONTINUOUS
 10
236.323920
 20
175.954094
 11
225.684053
 21
175.954094
  0
LINE
  8
3
 62
7
  6
CONTINUOUS
 10
235.823920
 20
293.789910
 11
236.600377
 21
290.892132
  0
LINE
  8
3
 62
7
  6
CONTINUOUS
 10
235.823920
 20
293.789910
 11
235.047463
 21
290.892132
  0
LINE
  8
3
 62
7
  6
CONTINUOUS
 10
235.823920
 20
175.954094
 11
235.047463
 21
178.851871
  0
LINE
  8
3
 62
7
  6
CONTINUOUS
 10
235.823920
 20
175.954094
 11
236.600377
 21
178.851871
  0
TEXT
  8
3
 62
7
  6
CONTINUOUS
 10
235.823920
 20
235.137184
 40
4.000000
 41
0.500000
  1
118
  7
KANJI
 50
90.000000
 51
0.000000
  0
ENDBLK
  0
BLOCK
  8
3
 62
7
  6
CONTINUOUS
  2
*D3
 70
    65
 10
0.0
 20
0.0
  0
LINE
  8
3
 62
7
  6
CONTINUOUS
 10
247.184053
 20
300.954094
 11
247.184053
 21
311.454094
  0
LINE
  8
3
 62
7
  6
CONTINUOUS
 10
247.684053
 20
300.954094
 11
192.434053
 21
300.954094
  0
LINE
  8
3
 62
7
  6
CONTINUOUS
 10
247.684053
 20
311.454094
 11
192.434053
 21
311.454094
  0
LINE
  8
3
 62
7
  6
CONTINUOUS
 10
247.184053
 20
300.954094
 11
246.407596
 21
303.851871
  0
LINE
  8
3
 62
7
  6
CONTINUOUS
 10
247.184053
 20
300.954094
 11
247.960510
 21
303.851871
  0
LINE
  8
3
 62
7
  6
CONTINUOUS
 10
247.184053
 20
311.454094
 11
247.960510
 21
308.556316
  0
LINE
  8
3
 62
7
  6
CONTINUOUS
 10
247.184053
 20
311.454094
 11
246.407596
 21
308.556316
  0
TEXT
  8
3
 62
7
  6
CONTINUOUS
 10
244.791299
 20
301.934702
 40
4.000000
 41
0.500000
  1
10.5
  7
KANJI
 50
90.000000
 51
0.000000
  0
ENDBLK
  0
BLOCK
  8
3
 62
7
  6
CONTINUOUS
  2
*D4
 70
    65
 10
0.0
 20
0.0
  0
LINE
  8
3
 62
7
  6
CONTINUOUS
 10
257.587453
 20
166.484617
 11
257.587453
 21
311.454094
  0
LINE
  8
3
 62
7
  6
CONTINUOUS
 10
258.087453
 20
166.484617
 11
192.434053
 21
166.484617
  0
LINE
  8
3
 62
7
  6
CONTINUOUS
 10
258.087453
 20
311.454094
 11
192.434053
 21
311.454094
  0
LINE
  8
3
 62
7
  6
CONTINUOUS
 10
257.587453
 20
166.484617
 11
256.810995
 21
169.382394
  0
LINE
  8
3
 62
7
  6
CONTINUOUS
 10
257.587453
 20
166.484617
 11
258.363910
 21
169.382394
  0
LINE
  8
3
 62
7
  6
CONTINUOUS
 10
257.587453
 20
311.454094
 11
258.363910
 21
308.556316
  0
LINE
  8
3
 62
7
  6
CONTINUOUS
 10
257.587453
 20
311.454094
 11
256.810995
 21
308.556316
  0
TEXT
  8
3
 62
7
  6
CONTINUOUS
 10
257.587453
 20
228.375711
 40
4.000000
 41
0.500000
  1
145
  7
KANJI
 50
90.000000
 51
0.000000
  0
ENDBLK
  0
BLOCK
  8
3
 62
7
  6
CONTINUOUS
  2
*D5
 70
    65
 10
0.0
 20
0.0
  0
LINE
  8
3
 62
7
  6
CONTINUOUS
 10
241.148142
 20
56.193483
 11
241.148142
 21
85.993483
  0
LINE
  8
3
 62
7
  6
CONTINUOUS
 10
241.648142
 20
56.193483
 11
222.561941
 21
56.193483
  0
LINE
  8
3
 62
7
  6
CONTINUOUS
 10
241.648142
 20
85.993483
 11
225.684053
 21
85.993483
  0
LINE
  8
3
 62
7
  6
CONTINUOUS
 10
241.148142
 20
56.193483
 11
240.371685
 21
59.091260
  0
LINE
  8
3
 62
7
  6
CONTINUOUS
 10
241.148142
 20
56.193483
 11
241.924599
 21
59.091260
  0
LINE
  8
3
 62
7
  6
CONTINUOUS
 10
241.148142
 20
85.993483
 11
241.924599
 21
83.095706
  0
LINE
  8
3
 62
7
  6
CONTINUOUS
 10
241.148142
 20
85.993483
 11
240.371685
 21
83.095706
  0
TEXT
  8
3
 62
7
  6
CONTINUOUS
 10
241.148142
 20
67.093483
 40
4.000000
 41
0.500000
  1
28.6
  7
KANJI
 50
90.000000
 51
0.000000
  0
ENDBLK
  0
BLOCK
  8
3
 62
7
  6
CONTINUOUS
  2
*D6
 70
    65
 10
0.0
 20
0.0
  0
LINE
  8
3
 62
7
  6
CONTINUOUS
 10
170.934053
 20
151.484617
 11
212.934053
 21
151.484617
  0
LINE
  8
3
 62
7
  6
CONTINUOUS
 10
170.934053
 20
150.984617
 11
170.934053
 21
171.984617
  0
LINE
  8
3
 62
7
  6
CONTINUOUS
 10
212.934053
 20
150.984617
 11
212.934053
 21
171.984617
  0
LINE
  8
3
 62
7
  6
CONTINUOUS
 10
170.934053
 20
151.484617
 11
173.831830
 21
152.261074
  0
LINE
  8
3
 62
7
  6
CONTINUOUS
 10
170.934053
 20
151.484617
 11
173.831830
 21
150.708160
  0
LINE
  8
3
 62
7
  6
CONTINUOUS
 10
212.934053
 20
151.484617
 11
210.036276
 21
150.708160
  0
LINE
  8
3
 62
7
  6
CONTINUOUS
 10
212.934053
 20
151.484617
 11
210.036276
 21
152.261074
  0
TEXT
  8
3
 62
7
  6
CONTINUOUS
 10
190.018466
 20
151.484617
 40
4.000000
 41
0.500000
  1
42
  7
KANJI
 50
0.000000
 51
0.000000
  0
ENDBLK
  0
BLOCK
  8
3
 62
7
  6
CONTINUOUS
  2
*D7
 70
    65
 10
0.0
 20
0.0
  0
LINE
  8
3
 62
7
  6
CONTINUOUS
 10
191.934053
 20
134.415154
 11
154.734053
 21
134.415154
  0
LINE
  8
3
 62
7
  6
CONTINUOUS
 10
191.934053
 20
134.915154
 11
191.934053
 21
102.790955
  0
LINE
  8
3
 62
7
  6
CONTINUOUS
 10
154.734053
 20
134.915154
 11
154.734053
 21
74.668564
  0
LINE
  8
3
 62
7
  6
CONTINUOUS
 10
191.934053
 20
134.415154
 11
189.036276
 21
133.638696
  0
LINE
  8
3
 62
7
  6
CONTINUOUS
 10
191.934053
 20
134.415154
 11
189.036276
 21
135.191611
  0
LINE
  8
3
 62
7
  6
CONTINUOUS
 10
154.734053
 20
134.415154
 11
157.631830
 21
135.191611
  0
LINE
  8
3
 62
7
  6
CONTINUOUS
 10
154.734053
 20
134.415154
 11
157.631830
 21
133.638696
  0
TEXT
  8
3
 62
7
  6
CONTINUOUS
 10
171.534053
 20
134.415154
 40
4.000000
 41
0.500000
  1
39.2
  7
KANJI
 50
0.000000
 51
0.000000
  0
ENDBLK
  0
BLOCK
  8
3
 62
7
  6
CONTINUOUS
  2
*D8
 70
    65
 10
0.0
 20
0.0
  0
LINE
  8
3
 62
7
  6
CONTINUOUS
 10
130.902292
 20
248.254094
 11
130.902292
 21
189.254094
  0
LINE
  8
3
 62
7
  6
CONTINUOUS
 10
130.402292
 20
248.254094
 11
147.234053
 21
248.254094
  0
LINE
  8
3
 62
7
  6
CONTINUOUS
 10
130.402292
 20
189.254094
 11
147.234053
 21
189.254094
  0
LINE
  8
3
 62
7
  6
CONTINUOUS
 10
130.902292
 20
248.254094
 11
131.678749
 21
245.356316
  0
LINE
  8
3
 62
7
  6
CONTINUOUS
 10
130.902292
 20
248.254094
 11
130.125835
 21
245.356316
  0
LINE
  8
3
 62
7
  6
CONTINUOUS
 10
130.902292
 20
189.254094
 11
130.125835
 21
192.151871
  0
LINE
  8
3
 62
7
  6
CONTINUOUS
 10
130.902292
 20
189.254094
 11
131.678749
 21
192.151871
  0
TEXT
  8
3
 62
7
  6
CONTINUOUS
 10
130.902292
 20
216.754094
 40
4.000000
 41
0.500000
  1
60
  7
KANJI
 50
90.000000
 51
0.000000
  0
ENDBLK
  0
BLOCK
  8
2
 62
7
  6
CONTINUOUS
  2
*D9
 70
    65
 10
0.0
 20
0.0
  0
LINE
  8
2
 62
7
  6
CONTINUOUS
 10
183.647386
 20
93.453552
 11
200.256685
 21
78.573558
  0
LINE
  8
2
 62
7
  6
CONTINUOUS
 10
183.647386
 20
93.453552
 11
186.323805
 21
92.098274
  0
LINE
  8
2
 62
7
  6
CONTINUOUS
 10
183.647386
 20
93.453552
 11
185.287593
 21
90.941637
  0
LINE
  8
2
 62
7
  6
CONTINUOUS
 10
200.256685
 20
78.573558
 11
197.580266
 21
79.928837
  0
LINE
  8
2
 62
7
  6
CONTINUOUS
 10
200.256685
 20
78.573558
 11
198.616477
 21
81.085473
  0
TEXT
  8
2
 62
7
  6
CONTINUOUS
 10
189.553208
 20
88.162625
 40
4.000000
 41
0.500000
  1
 
  7
KANJI
 50
-41.856631
 51
0.000000
  0
ENDBLK
  0
BLOCK
  8
3
 62
7
  6
CONTINUOUS
  2
*D10
 70
    65
 10
0.0
 20
0.0
  0
LINE
  8
3
 62
7
  6
CONTINUOUS
 10
225.184053
 20
139.415154
 11
147.734053
 21
139.415154
  0
LINE
  8
3
 62
7
  6
CONTINUOUS
 10
225.184053
 20
139.915154
 11
225.184053
 21
105.493106
  0
LINE
  8
3
 62
7
  6
CONTINUOUS
 10
147.734053
 20
139.915154
 11
147.734053
 21
72.717293
  0
LINE
  8
3
 62
7
  6
CONTINUOUS
 10
225.184053
 20
139.415154
 11
222.286276
 21
138.638696
  0
LINE
  8
3
 62
7
  6
CONTINUOUS
 10
225.184053
 20
139.415154
 11
222.286276
 21
140.191611
  0
LINE
  8
3
 62
7
  6
CONTINUOUS
 10
147.734053
 20
139.415154
 11
150.631830
 21
140.191611
  0
LINE
  8
3
 62
7
  6
CONTINUOUS
 10
147.734053
 20
139.415154
 11
150.631830
 21
138.638696
  0
TEXT
  8
3
 62
7
  6
CONTINUOUS
 10
194.132675
 20
139.415154
 40
4.000000
 41
0.500000
  1
78.7
  7
KANJI
 50
0.000000
 51
0.000000
  0
ENDBLK
  0
BLOCK
  8
3
 62
7
  6
CONTINUOUS
  2
*D11
 70
    65
 10
0.0
 20
0.0
  0
LINE
  8
3
 62
7
  6
CONTINUOUS
 10
160.734053
 20
50.369301
 11
223.134053
 21
50.369301
  0
LINE
  8
3
 62
7
  6
CONTINUOUS
 10
160.734053
 20
49.869301
 11
160.734053
 21
63.493483
  0
LINE
  8
3
 62
7
  6
CONTINUOUS
 10
223.134053
 20
49.869301
 11
223.134053
 21
63.493483
  0
LINE
  8
3
 62
7
  6
CONTINUOUS
 10
160.734053
 20
50.369301
 11
163.631830
 21
51.145758
  0
LINE
  8
3
 62
7
  6
CONTINUOUS
 10
160.734053
 20
50.369301
 11
163.631830
 21
49.592844
  0
LINE
  8
3
 62
7
  6
CONTINUOUS
 10
223.134053
 20
50.369301
 11
220.236276
 21
49.592844
  0
LINE
  8
3
 62
7
  6
CONTINUOUS
 10
223.134053
 20
50.369301
 11
220.236276
 21
51.145758
  0
TEXT
  8
3
 62
7
  6
CONTINUOUS
 10
187.934053
 20
50.369301
 40
4.000000
 41
0.500000
  1
62.4
  7
KANJI
 50
0.000000
 51
0.000000
  0
ENDBLK
  0
BLOCK
  8
3
 62
7
  6
CONTINUOUS
  2
*D12
 70
    65
 10
0.0
 20
0.0
  0
LINE
  8
3
 62
7
  6
CONTINUOUS
 10
225.184053
 20
129.415154
 11
158.684053
 21
129.415154
  0
LINE
  8
3
 62
7
  6
CONTINUOUS
 10
225.184053
 20
129.915154
 11
225.184053
 21
91.447373
  0
LINE
  8
3
 62
7
  6
CONTINUOUS
 10
158.684053
 20
129.915154
 11
158.684053
 21
93.043823
  0
LINE
  8
3
 62
7
  6
CONTINUOUS
 10
225.184053
 20
129.415154
 11
222.286276
 21
128.638696
  0
LINE
  8
3
 62
7
  6
CONTINUOUS
 10
225.184053
 20
129.415154
 11
222.286276
 21
130.191611
  0
LINE
  8
3
 62
7
  6
CONTINUOUS
 10
158.684053
 20
129.415154
 11
161.581830
 21
130.191611
  0
LINE
  8
3
 62
7
  6
CONTINUOUS
 10
158.684053
 20
129.415154
 11
161.581830
 21
128.638696
  0
TEXT
  8
3
 62
7
  6
CONTINUOUS
 10
166.922902
 20
129.415154
 40
4.000000
 41
0.500000
  1
65.4
  7
KANJI
 50
0.000000
 51
0.000000
  0
ENDBLK
  0
BLOCK
  8
3
 62
7
  6
CONTINUOUS
  2
*D13
 70
    65
 10
0.0
 20
0.0
  0
LINE
  8
3
 62
7
  6
CONTINUOUS
 10
191.934053
 20
134.415154
 11
225.184053
 21
134.415154
  0
LINE
  8
3
 62
7
  6
CONTINUOUS
 10
191.934053
 20
134.915154
 11
191.934053
 21
88.251836
  0
LINE
  8
3
 62
7
  6
CONTINUOUS
 10
225.184053
 20
134.915154
 11
225.184053
 21
94.073238
  0
LINE
  8
3
 62
7
  6
CONTINUOUS
 10
191.934053
 20
134.415154
 11
194.831830
 21
135.191611
  0
LINE
  8
3
 62
7
  6
CONTINUOUS
 10
191.934053
 20
134.415154
 11
194.831830
 21
133.638696
  0
LINE
  8
3
 62
7
  6
CONTINUOUS
 10
225.184053
 20
134.415154
 11
222.286276
 21
133.638696
  0
LINE
  8
3
 62
7
  6
CONTINUOUS
 10
225.184053
 20
134.415154
 11
222.286276
 21
135.191611
  0
TEXT
  8
3
 62
7
  6
CONTINUOUS
 10
206.309053
 20
134.415154
 40
4.000000
 41
0.500000
  1
32.7
  7
KANJI
 50
0.000000
 51
0.000000
  0
ENDBLK
  0
BLOCK
  8
3
 62
7
  6
CONTINUOUS
  2
*D14
 70
    65
 10
0.0
 20
0.0
  0
LINE
  8
3
 62
7
  6
CONTINUOUS
 10
135.950534
 20
72.217293
 11
135.950534
 21
56.193483
  0
LINE
  8
3
 62
7
  6
CONTINUOUS
 10
135.450534
 20
72.217293
 11
151.234053
 21
72.217293
  0
LINE
  8
3
 62
7
  6
CONTINUOUS
 10
135.450534
 20
56.193483
 11
161.561941
 21
56.193483
  0
LINE
  8
3
 62
7
  6
CONTINUOUS
 10
135.950534
 20
72.217293
 11
136.726992
 21
69.319515
  0
LINE
  8
3
 62
7
  6
CONTINUOUS
 10
135.950534
 20
72.217293
 11
135.174077
 21
69.319515
  0
LINE
  8
3
 62
7
  6
CONTINUOUS
 10
135.950534
 20
56.193483
 11
135.174077
 21
59.091260
  0
LINE
  8
3
 62
7
  6
CONTINUOUS
 10
135.950534
 20
56.193483
 11
136.726992
 21
59.091260
  0
TEXT
  8
3
 62
7
  6
CONTINUOUS
 10
135.950534
 20
60.707162
 40
4.000000
 41
0.500000
  1
16.1
  7
KANJI
 50
90.000000
 51
0.000000
  0
ENDBLK
  0
BLOCK
  8
3
 62
7
  6
CONTINUOUS
  2
*D15
 70
    65
 10
0.0
 20
0.0
  0
LINE
  8
3
 62
7
  6
CONTINUOUS
 10
35.839835
 20
150.954094
 11
99.439835
 21
150.954094
  0
LINE
  8
3
 62
7
  6
CONTINUOUS
 10
35.839835
 20
150.454094
 11
35.839835
 21
165.954094
  0
LINE
  8
3
 62
7
  6
CONTINUOUS
 10
99.439835
 20
150.454094
 11
99.439835
 21
175.454094
  0
LINE
  8
3
 62
7
  6
CONTINUOUS
 10
35.839835
 20
150.954094
 11
38.737612
 21
151.730551
  0
LINE
  8
3
 62
7
  6
CONTINUOUS
 10
35.839835
 20
150.954094
 11
38.737612
 21
150.177637
  0
LINE
  8
3
 62
7
  6
CONTINUOUS
 10
99.439835
 20
150.954094
 11
96.542057
 21
150.177637
  0
LINE
  8
3
 62
7
  6
CONTINUOUS
 10
99.439835
 20
150.954094
 11
96.542057
 21
151.730551
  0
TEXT
  8
3
 62
7
  6
CONTINUOUS
 10
66.358963
 20
150.954094
 40
4.000000
 41
0.500000
  1
63.6
  7
KANJI
 50
0.000000
 51
0.000000
  0
ENDBLK
  0
ENDSEC
  0
SECTION
  2
ENTITIES
  0
ARC
  8
1
 62
7
  6
CONTINUOUS
 10
42.939835
 20
291.454094
 40
0.500000
 50
90.000000
 51
180.000000
  0
LINE
  8
1
 62
7
  6
CONTINUOUS
 10
42.439835
 20
291.454094
 11
42.439835
 21
178.454094
  0
ARC
  8
1
 62
7
  6
CONTINUOUS
 10
42.939835
 20
178.454094
 40
0.500000
 50
180.000000
 51
-90.000000
  0
LINE
  8
1
 62
7
  6
CONTINUOUS
 10
49.206564
 20
257.641100
 11
44.893569
 21
251.754094
  0
LINE
  8
1
 62
7
  6
CONTINUOUS
 10
54.580575
 20
257.641100
 11
58.893569
 21
251.754094
  0
ARC
  8
1
 62
7
  6
CONTINUOUS
 10
51.893569
 20
254.954094
 40
3.800000
 50
45.000000
 51
135.000000
  0
LINE
  8
2
 62
7
  6
DASHDOT
 10
49.045376
 20
254.954094
 11
55.259007
 21
254.954094
  0
LINE
  8
2
 62
7
  6
DASHDOT
 10
51.893569
 20
257.717756
 11
51.893569
 21
251.619193
  0
LINE
  8
1
 62
7
  6
CONTINUOUS
 10
44.893569
 20
189.254094
 11
58.893569
 21
189.254094
  0
LINE
  8
1
 62
7
  6
CONTINUOUS
 10
44.893569
 20
251.754094
 11
44.893569
 21
189.254094
  0
LINE
  8
1
 62
7
  6
CONTINUOUS
 10
58.893569
 20
189.254094
 11
58.893569
 21
251.754094
  0
LINE
  8
1
 62
7
  6
CONTINUOUS
 10
51.983569
 20
188.754094
 11
51.803569
 21
188.754094
  0
LINE
  8
1
 62
7
  6
CONTINUOUS
 10
99.439835
 20
293.789910
 11
99.439835
 21
285.882656
  0
ARC
  8
1
 62
7
  6
CONTINUOUS
 10
99.439835
 20
282.882656
 40
3.000000
 50
90.000000
 51
180.000000
  0
LINE
  8
1
 62
7
  6
CONTINUOUS
 10
61.939835
 20
293.789910
 11
99.439835
 21
293.789910
  0
LINE
  8
1
 62
7
  6
CONTINUOUS
 10
96.439835
 20
282.882656
 11
96.439835
 21
250.468269
  0
LINE
  8
1
 62
7
  6
CONTINUOUS
 10
96.439835
 20
250.468269
 11
96.739835
 21
250.468269
  0
LINE
  8
1
 62
7
  6
CONTINUOUS
 10
96.739835
 20
250.468269
 11
96.739835
 21
236.511550
  0
LINE
  8
1
 62
7
  6
CONTINUOUS
 10
96.739835
 20
236.511550
 11
96.439835
 21
236.511550
  0
LINE
  8
1
 62
7
  6
CONTINUOUS
 10
61.939835
 20
293.789910
 11
61.939835
 21
175.789910
  0
LINE
  8
1
 62
7
  6
CONTINUOUS
 10
61.939835
 20
175.789910
 11
99.439835
 21
175.789910
  0
LINE
  8
1
 62
7
  6
CONTINUOUS
 10
99.439835
 20
175.789910
 11
99.439835
 21
182.227440
  0
LINE
  8
1
 62
7
  6
CONTINUOUS
 10
99.439835
 20
176.030922
 11
99.439835
 21
183.938176
  0
ARC
  8
1
 62
7
  6
CONTINUOUS
 10
99.439835
 20
186.938176
 40
3.000000
 50
180.000000
 51
-90.000000
  0
LINE
  8
1
 62
7
  6
CONTINUOUS
 10
96.439835
 20
236.511550
 11
96.439835
 21
220.843967
  0
LINE
  8
1
 62
7
  6
CONTINUOUS
 10
99.439835
 20
206.352380
 11
99.439835
 21
214.822399
  0
LINE
  8
1
 62
7
  6
CONTINUOUS
 10
96.439835
 20
217.822399
 11
96.439835
 21
220.843967
  0
ARC
  8
1
 62
7
  6
CONTINUOUS
 10
99.439835
 20
217.822399
 40
3.000000
 50
180.000000
 51
-90.000000
  0
LINE
  8
1
 62
7
  6
CONTINUOUS
 10
96.439835
 20
203.352380
 11
96.439835
 21
186.938176
  0
ARC
  8
1
 62
7
  6
CONTINUOUS
 10
99.439835
 20
203.352380
 40
3.000000
 50
90.000000
 51
-180.000000
  0
LINE
  8
1
 62
7
  6
CONTINUOUS
 10
61.939835
 20
290.754094
 11
42.858823
 21
290.754094
  0
LINE
  8
1
 62
7
  6
CONTINUOUS
 10
61.939835
 20
291.954094
 11
42.939835
 21
291.954094
  0
LINE
  8
1
 62
7
  6
CONTINUOUS
 10
61.939835
 20
179.154094
 11
43.021779
 21
179.154094
  0
LINE
  8
1
 62
7
  6
CONTINUOUS
 10
42.939835
 20
177.954094
 11
61.939835
 21
177.954094
  0
LINE
  8
2
 62
7
  6
DASHDOT
 10
40.305378
 20
281.954094
 11
47.062871
 21
281.954094
  0
LINE
  8
2
 62
7
  6
DASHDOT
 10
39.081749
 20
190.454094
 11
45.839242
 21
190.454094
  0
LINE
  8
1
 62
7
  6
CONTINUOUS
 10
41.054816
 20
311.454094
 11
41.054816
 21
273.954094
  0
LINE
  8
1
 62
7
  6
CONTINUOUS
 10
41.054816
 20
273.954094
 11
42.254816
 21
273.954094
  0
LINE
  8
1
 62
7
  6
CONTINUOUS
 10
42.254816
 20
273.954094
 11
42.254816
 21
311.454094
  0
LINE
  8
1
 62
7
  6
CONTINUOUS
 10
42.254816
 20
311.454094
 11
41.054816
 21
311.454094
  0
LINE
  8
1
 62
7
  6
CONTINUOUS
 10
41.054816
 20
290.454094
 11
42.254816
 21
290.454094
  0
LINE
  8
1
 62
7
  6
CONTINUOUS
 10
42.254816
 20
294.954094
 11
42.854816
 21
294.954094
  0
LINE
  8
1
 62
7
  6
CONTINUOUS
 10
42.854816
 20
294.954094
 11
42.854816
 21
291.954094
  0
LINE
  8
1
 62
7
  6
CONTINUOUS
 10
42.854816
 20
291.954094
 11
42.254816
 21
291.954094
  0
LINE
  8
1
 62
7
  6
CONTINUOUS
 10
41.054816
 20
304.954094
 11
39.954816
 21
304.954094
  0
LINE
  8
1
 62
7
  6
CONTINUOUS
 10
39.954816
 20
304.954094
 11
39.954816
 21
296.954094
  0
LINE
  8
1
 62
7
  6
CONTINUOUS
 10
39.954816
 20
296.954094
 11
41.054816
 21
296.954094
  0
LINE
  8
2
 62
7
  6
DASHDOT
 10
39.954816
 20
293.454094
 11
43.838634
 21
293.454094
  0
LINE
  8
2
 62
7
  6
DASHDOT
 10
38.467426
 20
281.954094
 11
45.629036
 21
281.954094
  0
LINE
  8
1
 62
7
  6
CONTINUOUS
 10
37.039835
 20
178.454094
 11
37.039835
 21
166.454094
  0
LINE
  8
1
 62
7
  6
CONTINUOUS
 10
37.039835
 20
166.454094
 11
35.839835
 21
166.454094
  0
LINE
  8
1
 62
7
  6
CONTINUOUS
 10
37.039836
 20
178.454094
 11
42.439835
 21
183.854094
  0
LINE
  8
1
 62
7
  6
CONTINUOUS
 10
35.839835
 20
178.951149
 11
41.239835
 21
184.351149
  0
LINE
  8
1
 62
7
  6
CONTINUOUS
 10
35.839835
 20
166.454094
 11
35.839835
 21
178.951149
  0
LINE
  8
1
 62
7
  6
CONTINUOUS
 10
42.439835
 20
183.854093
 11
42.439835
 21
198.454094
  0
LINE
  8
1
 62
7
  6
CONTINUOUS
 10
42.439835
 20
198.454094
 11
41.239835
 21
198.454094
  0
LINE
  8
1
 62
7
  6
CONTINUOUS
 10
41.239835
 20
198.454094
 11
41.239835
 21
184.351149
  0
LINE
  8
2
 62
7
  6
DASHDOT
 10
32.491313
 20
172.454094
 11
41.889273
 21
172.454094
  0
ARC
  8
1
 62
7
  6
CONTINUOUS
 10
47.687660
 20
304.722507
 40
5.350555
 50
166.031260
 51
-166.031260
  0
ARC
  8
1
 62
7
  6
CONTINUOUS
 10
61.801743
 20
300.954090
 40
19.464638
 50
172.689417
 51
-172.689417
  0
LINE
  8
1
 62
7
  6
CONTINUOUS
 10
42.337105
 20
303.430923
 11
42.337105
 21
298.477258
  0
ARC
  8
1
 62
7
  6
CONTINUOUS
 10
47.687660
 20
297.185674
 40
5.350555
 50
166.031260
 51
-166.031260
  0
LINE
  8
1
 62
7
  6
CONTINUOUS
 10
42.337105
 20
303.430923
 11
42.337105
 21
305.904090
  0
LINE
  8
1
 62
7
  6
CONTINUOUS
 10
42.337105
 20
305.904090
 11
42.447105
 21
306.014090
  0
LINE
  8
1
 62
7
  6
CONTINUOUS
 10
44.097105
 20
306.014090
 11
42.447105
 21
306.014090
  0
LINE
  8
1
 62
7
  6
CONTINUOUS
 10
42.337105
 20
303.430923
 11
44.097105
 21
303.430923
  0
LINE
  8
1
 62
7
  6
CONTINUOUS
 10
44.337105
 20
303.430923
 11
44.337105
 21
303.565554
  0
ARC
  8
1
 62
7
  6
CONTINUOUS
 10
38.986550
 20
304.722507
 40
5.350555
 50
-13.968740
 51
13.968740
  0
LINE
  8
1
 62
7
  6
CONTINUOUS
 10
44.337105
 20
303.430923
 11
44.337105
 21
305.904090
  0
LINE
  8
1
 62
7
  6
CONTINUOUS
 10
44.337105
 20
305.904090
 11
44.227105
 21
306.014090
  0
LINE
  8
1
 62
7
  6
CONTINUOUS
 10
44.097105
 20
306.014090
 11
44.227105
 21
306.014090
  0
LINE
  8
1
 62
7
  6
CONTINUOUS
 10
44.337105
 20
303.430923
 11
44.097105
 21
303.430923
  0
LINE
  8
1
 62
7
  6
CONTINUOUS
 10
42.337105
 20
303.430923
 11
42.337105
 21
303.565554
  0
LINE
  8
1
 62
7
  6
CONTINUOUS
 10
44.337105
 20
303.430923
 11
44.337105
 21
298.477258
  0
ARC
  8
1
 62
7
  6
CONTINUOUS
 10
24.872467
 20
300.954090
 40
19.464638
 50
-7.310583
 51
7.310583
  0
LINE
  8
1
 62
7
  6
CONTINUOUS
 10
42.337105
 20
298.477258
 11
42.337105
 21
296.004090
  0
LINE
  8
1
 62
7
  6
CONTINUOUS
 10
42.337105
 20
296.004090
 11
42.447105
 21
295.894090
  0
LINE
  8
1
 62
7
  6
CONTINUOUS
 10
44.097105
 20
295.894090
 11
42.447105
 21
295.894090
  0
LINE
  8
1
 62
7
  6
CONTINUOUS
 10
42.337105
 20
298.477258
 11
44.097105
 21
298.477258
  0
LINE
  8
1
 62
7
  6
CONTINUOUS
 10
44.337105
 20
298.477258
 11
44.337105
 21
298.342626
  0
ARC
  8
1
 62
7
  6
CONTINUOUS
 10
38.986550
 20
297.185674
 40
5.350555
 50
-13.968740
 51
13.968740
  0
LINE
  8
1
 62
7
  6
CONTINUOUS
 10
44.337105
 20
298.477258
 11
44.337105
 21
296.004090
  0
LINE
  8
1
 62
7
  6
CONTINUOUS
 10
44.337105
 20
296.004090
 11
44.227105
 21
295.894090
  0
LINE
  8
1
 62
7
  6
CONTINUOUS
 10
44.097105
 20
295.894090
 11
44.227105
 21
295.894090
  0
LINE
  8
1
 62
7
  6
CONTINUOUS
 10
44.337105
 20
298.477258
 11
44.097105
 21
298.477258
  0
LINE
  8
1
 62
7
  6
CONTINUOUS
 10
42.337105
 20
298.477258
 11
42.337105
 21
298.342626
  0
LINE
  8
1
 62
7
  6
CONTINUOUS
 10
47.738993
 20
294.954094
 11
47.738993
 21
306.954094
  0
LINE
  8
1
 62
7
  6
CONTINUOUS
 10
47.738993
 20
306.954094
 11
52.238993
 21
306.954094
  0
LINE
  8
1
 62
7
  6
CONTINUOUS
 10
52.738993
 20
306.454094
 11
52.238993
 21
306.954094
  0
LINE
  8
1
 62
7
  6
CONTINUOUS
 10
52.738993
 20
306.454094
 11
52.738993
 21
295.454094
  0
LINE
  8
1
 62
7
  6
CONTINUOUS
 10
47.738993
 20
294.954094
 11
52.238993
 21
294.954094
  0
LINE
  8
1
 62
7
  6
CONTINUOUS
 10
52.738993
 20
295.454094
 11
52.238993
 21
294.954094
  0
LINE
  8
1
 62
7
  6
CONTINUOUS
 10
52.238993
 20
306.954094
 11
52.238993
 21
294.954094
  0
LINE
  8
1
 62
7
  6
CONTINUOUS
 10
52.238993
 20
305.954094
 11
47.738993
 21
305.954094
  0
LINE
  8
1
 62
7
  6
CONTINUOUS
 10
52.238993
 20
304.954094
 11
47.738993
 21
304.954094
  0
LINE
  8
1
 62
7
  6
CONTINUOUS
 10
52.238993
 20
303.954094
 11
47.738993
 21
303.954094
  0
LINE
  8
1
 62
7
  6
CONTINUOUS
 10
52.238993
 20
302.954094
 11
47.738993
 21
302.954094
  0
LINE
  8
1
 62
7
  6
CONTINUOUS
 10
52.238993
 20
301.954094
 11
47.738993
 21
301.954094
  0
LINE
  8
1
 62
7
  6
CONTINUOUS
 10
52.238993
 20
300.954094
 11
47.738993
 21
300.954094
  0
LINE
  8
1
 62
7
  6
CONTINUOUS
 10
52.238993
 20
299.954094
 11
47.738993
 21
299.954094
  0
LINE
  8
1
 62
7
  6
CONTINUOUS
 10
52.238993
 20
298.954094
 11
47.738993
 21
298.954094
  0
LINE
  8
1
 62
7
  6
CONTINUOUS
 10
52.238993
 20
297.954094
 11
47.738993
 21
297.954094
  0
LINE
  8
1
 62
7
  6
CONTINUOUS
 10
52.238993
 20
296.954094
 11
47.738993
 21
296.954094
  0
LINE
  8
1
 62
7
  6
CONTINUOUS
 10
52.238993
 20
295.954094
 11
47.738993
 21
295.954094
  0
LINE
  8
1
 62
7
  6
CONTINUOUS
 10
34.738993
 20
296.954094
 11
34.738993
 21
300.954094
  0
LINE
  8
1
 62
7
  6
CONTINUOUS
 10
34.738993
 20
304.954094
 11
34.738993
 21
300.954094
  0
LINE
  8
2
 62
7
  6
CONTINUOUS
 10
47.738993
 20
304.954094
 11
44.332091
 21
304.954094
  0
LINE
  8
2
 62
7
  6
CONTINUOUS
 10
39.954816
 20
304.954094
 11
34.738993
 21
304.954094
  0
LINE
  8
1
 62
7
  6
CONTINUOUS
 10
47.738993
 20
304.454094
 11
44.330368
 21
304.454094
  0
LINE
  8
1
 62
7
  6
CONTINUOUS
 10
39.954816
 20
304.454094
 11
34.738993
 21
304.454094
  0
LINE
  8
1
 62
7
  6
CONTINUOUS
 10
47.738993
 20
297.454094
 11
44.337105
 21
297.454094
  0
LINE
  8
1
 62
7
  6
CONTINUOUS
 10
39.954816
 20
297.454094
 11
34.738993
 21
297.454094
  0
LINE
  8
2
 62
7
  6
CONTINUOUS
 10
47.738993
 20
296.954094
 11
44.337105
 21
296.954094
  0
LINE
  8
2
 62
7
  6
CONTINUOUS
 10
39.954816
 20
296.954094
 11
34.738993
 21
296.954094
  0
LINE
  8
2
 62
7
  6
DASHDOT
 10
33.671958
 20
300.954094
 11
54.342296
 21
300.954094
  0
ARC
  8
1
 62
7
  6
CONTINUOUS
 10
182.434053
 20
308.454094
 40
3.000000
 50
90.000000
 51
180.000000
  0
LINE
  8
1
 62
7
  6
CONTINUOUS
 10
182.434053
 20
311.454094
 11
201.434053
 21
311.454094
  0
ARC
  8
1
 62
7
  6
CONTINUOUS
 10
201.434053
 20
308.454094
 40
3.000000
 50
0.000000
 51
90.000000
  0
LINE
  8
1
 62
7
  6
CONTINUOUS
 10
158.684053
 20
293.789910
 11
158.684053
 21
175.789910
  0
LINE
  8
1
 62
7
  6
CONTINUOUS
 10
158.684053
 20
175.789910
 11
225.184053
 21
175.789910
  0
LINE
  8
1
 62
7
  6
CONTINUOUS
 10
225.184053
 20
175.789910
 11
225.184053
 21
293.789910
  0
LINE
  8
1
 62
7
  6
CONTINUOUS
 10
225.184053
 20
293.789910
 11
158.684053
 21
293.789910
  0
CIRCLE
  8
1
 62
7
  6
CONTINUOUS
 10
179.684053
 20
267.789910
 40
8.500000
  0
ARC
  8
1
 62
7
  6
CONTINUOUS
 10
196.184053
 20
259.289910
 40
0.500000
 50
90.000000
 51
180.000000
  0
LINE
  8
1
 62
7
  6
CONTINUOUS
 10
205.684053
 20
259.789910
 11
196.184053
 21
259.789910
  0
ARC
  8
1
 62
7
  6
CONTINUOUS
 10
205.684053
 20
259.289910
 40
0.500000
 50
0.000000
 51
90.000000
  0
LINE
  8
1
 62
7
  6
CONTINUOUS
 10
206.184053
 20
244.289910
 11
206.184053
 21
259.289910
  0
ARC
  8
1
 62
7
  6
CONTINUOUS
 10
205.684053
 20
244.289910
 40
0.500000
 50
-90.000000
 51
0.000000
  0
LINE
  8
1
 62
7
  6
CONTINUOUS
 10
195.684053
 20
259.289910
 11
195.684053
 21
244.289910
  0
LINE
  8
1
 62
7
  6
CONTINUOUS
 10
196.184053
 20
243.789910
 11
205.684053
 21
243.789910
  0
ARC
  8
1
 62
7
  6
CONTINUOUS
 10
196.184053
 20
244.289910
 40
0.500000
 50
180.000000
 51
-90.000000
  0
ARC
  8
1
 62
7
  6
CONTINUOUS
 10
194.684053
 20
260.789910
 40
0.500000
 50
90.000000
 51
180.000000
  0
LINE
  8
1
 62
7
  6
CONTINUOUS
 10
207.184053
 20
261.289910
 11
194.684053
 21
261.289910
  0
ARC
  8
1
 62
7
  6
CONTINUOUS
 10
207.184053
 20
260.789910
 40
0.500000
 50
0.000000
 51
90.000000
  0
LINE
  8
1
 62
7
  6
CONTINUOUS
 10
207.684053
 20
242.789910
 11
207.684053
 21
260.789910
  0
ARC
  8
1
 62
7
  6
CONTINUOUS
 10
207.184053
 20
242.789910
 40
0.500000
 50
-90.000000
 51
0.000000
  0
LINE
  8
1
 62
7
  6
CONTINUOUS
 10
194.184053
 20
260.789910
 11
194.184053
 21
242.789910
  0
LINE
  8
1
 62
7
  6
CONTINUOUS
 10
194.684053
 20
242.289910
 11
207.184053
 21
242.289910
  0
ARC
  8
1
 62
7
  6
CONTINUOUS
 10
194.684053
 20
242.789910
 40
0.500000
 50
180.000000
 51
-90.000000
  0
LINE
  8
1
 62
7
  6
CONTINUOUS
 10
211.434053
 20
242.289910
 11
212.434053
 21
242.289910
  0
LINE
  8
1
 62
7
  6
CONTINUOUS
 10
211.434053
 20
251.789910
 11
211.434053
 21
242.289910
  0
LINE
  8
1
 62
7
  6
CONTINUOUS
 10
212.434053
 20
242.289910
 11
212.434053
 21
251.789910
  0
LINE
  8
1
 62
7
  6
CONTINUOUS
 10
213.252470
 20
251.789910
 11
212.434053
 21
251.789910
  0
LINE
  8
1
 62
7
  6
CONTINUOUS
 10
211.934053
 20
255.789910
 11
213.252470
 21
251.789910
  0
LINE
  8
1
 62
7
  6
CONTINUOUS
 10
210.615636
 20
251.789910
 11
211.434053
 21
251.789910
  0
LINE
  8
1
 62
7
  6
CONTINUOUS
 10
211.934053
 20
255.789910
 11
210.615636
 21
251.789910
  0
LINE
  8
1
 62
7
  6
CONTINUOUS
 10
174.934053
 20
225.689910
 11
208.934053
 21
225.689910
  0
LINE
  8
1
 62
7
  6
CONTINUOUS
 10
174.934053
 20
220.789910
 11
208.934053
 21
220.789910
  0
LINE
  8
1
 62
7
  6
CONTINUOUS
 10
169.934053
 20
201.789910
 11
169.934053
 21
186.789910
  0
LINE
  8
1
 62
7
  6
CONTINUOUS
 10
169.934053
 20
186.789910
 11
213.434053
 21
186.789910
  0
LINE
  8
1
 62
7
  6
CONTINUOUS
 10
213.434053
 20
186.789910
 11
213.434053
 21
201.789910
  0
LINE
  8
1
 62
7
  6
CONTINUOUS
 10
213.434053
 20
201.789910
 11
169.934053
 21
201.789910
  0
LINE
  8
1
 62
7
  6
CONTINUOUS
 10
170.434053
 20
201.289910
 11
170.434053
 21
187.289910
  0
LINE
  8
1
 62
7
  6
CONTINUOUS
 10
170.434053
 20
187.289910
 11
212.934053
 21
187.289910
  0
LINE
  8
1
 62
7
  6
CONTINUOUS
 10
212.934053
 20
187.289910
 11
212.934053
 21
201.289910
  0
LINE
  8
1
 62
7
  6
CONTINUOUS
 10
212.934053
 20
201.289910
 11
170.434053
 21
201.289910
  0
ARC
  8
1
 62
7
  6
CONTINUOUS
 10
191.848267
 20
38.114834
 40
168.237568
 50
89.970784
 51
97.814870
  0
ARC
  8
1
 62
7
  6
CONTINUOUS
 10
192.019839
 20
38.114834
 40
168.237568
 50
82.185130
 51
90.029216
  0
ARC
  8
1
 62
7
  6
CONTINUOUS
 10
214.884053
 20
201.789910
 40
3.000000
 50
0.000000
 51
90.000000
  0
ARC
  8
1
 62
7
  6
CONTINUOUS
 10
168.984053
 20
201.789910
 40
3.000000
 50
90.000000
 51
180.000000
  0
LINE
  8
1
 62
7
  6
CONTINUOUS
 10
165.984053
 20
201.789910
 11
165.984053
 21
194.289910
  0
LINE
  8
1
 62
7
  6
CONTINUOUS
 10
217.884053
 20
194.289910
 11
217.884053
 21
201.789910
  0
ARC
  8
1
 62
7
  6
CONTINUOUS
 10
191.848267
 20
350.464986
 40
168.237568
 50
-97.814870
 51
-89.970784
  0
ARC
  8
1
 62
7
  6
CONTINUOUS
 10
192.019839
 20
350.464986
 40
168.237568
 50
-90.029216
 51
-82.185130
  0
ARC
  8
1
 62
7
  6
CONTINUOUS
 10
214.884053
 20
186.789910
 40
3.000000
 50
-90.000000
 51
0.000000
  0
ARC
  8
1
 62
7
  6
CONTINUOUS
 10
168.984053
 20
186.789910
 40
3.000000
 50
180.000000
 51
-90.000000
  0
LINE
  8
1
 62
7
  6
CONTINUOUS
 10
165.984053
 20
186.789910
 11
165.984053
 21
194.289910
  0
LINE
  8
1
 62
7
  6
CONTINUOUS
 10
217.884053
 20
194.289910
 11
217.884053
 21
186.789910
  0
LINE
  8
1
 62
7
  6
CONTINUOUS
 10
162.234053
 20
221.789910
 11
162.234053
 21
249.789910
  0
LINE
  8
1
 62
7
  6
CONTINUOUS
 10
221.634053
 20
249.789910
 11
221.634053
 21
221.789910
  0
ARC
  8
1
 62
7
  6
CONTINUOUS
 10
167.234053
 20
221.789910
 40
5.000000
 50
180.000000
 51
-103.851465
  0
ARC
  8
1
 62
7
  6
CONTINUOUS
 10
216.634053
 20
221.789910
 40
5.000000
 50
-76.148535
 51
0.000000
  0
ARC
  8
1
 62
7
  6
CONTINUOUS
 10
191.934053
 20
321.961786
 40
108.171876
 50
-103.880402
 51
-76.119598
  0
LINE
  8
1
 62
7
  6
CONTINUOUS
 10
162.234053
 20
277.789910
 11
162.234053
 21
249.789910
  0
LINE
  8
1
 62
7
  6
CONTINUOUS
 10
221.634053
 20
249.789910
 11
221.634053
 21
277.789910
  0
ARC
  8
1
 62
7
  6
CONTINUOUS
 10
167.234053
 20
277.882656
 40
5.000000
 50
103.851465
 51
180.000000
  0
ARC
  8
1
 62
7
  6
CONTINUOUS
 10
216.634053
 20
277.882656
 40
5.000000
 50
-0.000000
 51
76.148535
  0
ARC
  8
1
 62
7
  6
CONTINUOUS
 10
191.934053
 20
177.710779
 40
108.171876
 50
76.119598
 51
103.880402
  0
LINE
  8
1
 62
7
  6
CONTINUOUS
 10
191.934053
 20
197.289910
 11
174.434053
 21
196.289910
  0
LINE
  8
1
 62
7
  6
CONTINUOUS
 10
191.934053
 20
191.289910
 11
209.434053
 21
192.289910
  0
LINE
  8
1
 62
7
  6
CONTINUOUS
 10
174.434053
 20
196.289910
 11
174.434053
 21
194.289910
  0
LINE
  8
1
 62
7
  6
CONTINUOUS
 10
209.434053
 20
192.289910
 11
209.434053
 21
194.289910
  0
LINE
  8
1
 62
7
  6
CONTINUOUS
 10
191.934053
 20
197.289910
 11
209.434053
 21
196.289910
  0
LINE
  8
1
 62
7
  6
CONTINUOUS
 10
209.434053
 20
196.289910
 11
209.434053
 21
194.289910
  0
LINE
  8
1
 62
7
  6
CONTINUOUS
 10
191.934053
 20
191.289910
 11
174.434053
 21
192.289910
  0
LINE
  8
1
 62
7
  6
CONTINUOUS
 10
174.434053
 20
192.289910
 11
174.434053
 21
194.289910
  0
LINE
  8
1
 62
7
  6
CONTINUOUS
 10
182.881809
 20
229.402066
 11
183.553560
 21
230.073818
  0
ARC
  8
1
 62
7
  6
CONTINUOUS
 10
181.874182
 20
229.737942
 40
0.475000
 50
45.000000
 51
135.000000
  0
ARC
  8
1
 62
7
  6
CONTINUOUS
 10
183.217685
 20
231.081445
 40
0.475000
 50
135.000000
 51
-135.000000
  0
LINE
  8
1
 62
7
  6
CONTINUOUS
 10
184.287334
 20
232.822846
 11
182.881809
 21
231.417321
  0
ARC
  8
1
 62
7
  6
CONTINUOUS
 10
184.623210
 20
232.486970
 40
0.475000
 50
27.079787
 51
135.000000
  0
CIRCLE
  8
1
 62
7
  6
CONTINUOUS
 10
181.874182
 20
231.081445
 40
3.562500
  0
LINE
  8
1
 62
7
  6
CONTINUOUS
 10
180.132781
 20
228.668293
 11
181.538306
 21
230.073818
  0
ARC
  8
1
 62
7
  6
CONTINUOUS
 10
180.468657
 20
228.332417
 40
0.475000
 50
135.000000
 51
-117.079787
  0
LINE
  8
1
 62
7
  6
CONTINUOUS
 10
182.210057
 20
230.073818
 11
182.881809
 21
229.402066
  0
LINE
  8
1
 62
7
  6
CONTINUOUS
 10
182.881809
 20
230.745569
 11
183.553560
 21
230.073818
  0
LINE
  8
1
 62
7
  6
CONTINUOUS
 10
180.194803
 20
232.089072
 11
180.866555
 21
232.760824
  0
ARC
  8
1
 62
7
  6
CONTINUOUS
 10
180.530679
 20
231.081445
 40
0.475000
 50
-45.000000
 51
45.000000
  0
ARC
  8
1
 62
7
  6
CONTINUOUS
 10
181.874182
 20
232.424948
 40
0.475000
 50
-135.000000
 51
-45.000000
  0
LINE
  8
1
 62
7
  6
CONTINUOUS
 10
183.615583
 20
233.494597
 11
182.210057
 21
232.089072
  0
ARC
  8
1
 62
7
  6
CONTINUOUS
 10
183.279707
 20
233.830473
 40
0.475000
 50
-45.000000
 51
62.920213
  0
LINE
  8
1
 62
7
  6
CONTINUOUS
 10
179.461029
 20
229.340044
 11
180.866555
 21
230.745569
  0
ARC
  8
1
 62
7
  6
CONTINUOUS
 10
179.125154
 20
229.675920
 40
0.475000
 50
-152.920213
 51
-45.000000
  0
LINE
  8
1
 62
7
  6
CONTINUOUS
 10
180.866555
 20
231.417321
 11
180.194803
 21
232.089072
  0
LINE
  8
1
 62
7
  6
CONTINUOUS
 10
181.538306
 20
232.089072
 11
180.866555
 21
232.760824
  0
LINE
  8
2
 62
7
  6
DASHDOT
 10
181.874182
 20
235.458507
 11
181.874182
 21
226.164954
  0
LINE
  8
2
 62
7
  6
DASHDOT
 10
177.694293
 20
231.081445
 11
185.913447
 21
231.081445
  0
ARC
  8
1
 62
7
  6
CONTINUOUS
 10
191.934053
 20
293.454094
 40
1.500000
 50
12.936868
 51
167.063132
  0
LINE
  8
1
 62
7
  6
CONTINUOUS
 10
147.734053
 20
248.254094
 11
147.734053
 21
189.254094
  0
LINE
  8
1
 62
7
  6
CONTINUOUS
 10
158.684053
 20
248.254094
 11
147.734053
 21
248.254094
  0
LINE
  8
1
 62
7
  6
CONTINUOUS
 10
147.734053
 20
189.254094
 11
158.684053
 21
189.254094
  0
CIRCLE
  8
1
 62
7
  6
CONTINUOUS
 10
191.934053
 20
300.954094
 40
2.100000
  0
CIRCLE
  8
1
 62
7
  6
CONTINUOUS
 10
191.934053
 20
300.954094
 40
4.500000
  0
CIRCLE
  8
2
 62
7
  6
CONTINUOUS
 10
191.934053
 20
300.954094
 40
6.000000
  0
CIRCLE
  8
1
 62
7
  6
CONTINUOUS
 10
191.934053
 20
300.954094
 40
5.695355
  0
LINE
  8
1
 62
7
  6
CONTINUOUS
 10
196.434053
 20
249.848730
 11
205.434053
 21
249.848730
  0
LINE
  8
1
 62
7
  6
CONTINUOUS
 10
197.834053
 20
249.598730
 11
204.034053
 21
249.598730
  0
LINE
  8
1
 62
7
  6
CONTINUOUS
 10
197.834053
 20
249.598730
 11
197.334053
 21
248.001280
  0
LINE
  8
1
 62
7
  6
CONTINUOUS
 10
204.534053
 20
248.001280
 11
204.034053
 21
249.598730
  0
LINE
  8
1
 62
7
  6
CONTINUOUS
 10
197.334053
 20
248.001280
 11
197.334053
 21
246.001280
  0
ARC
  8
1
 62
7
  6
CONTINUOUS
 10
198.934053
 20
246.001280
 40
1.600000
 50
180.000000
 51
-90.000000
  0
LINE
  8
1
 62
7
  6
CONTINUOUS
 10
204.534053
 20
246.001280
 11
204.534053
 21
248.001280
  0
LINE
  8
1
 62
7
  6
CONTINUOUS
 10
198.934053
 20
244.401280
 11
202.934053
 21
244.401280
  0
ARC
  8
1
 62
7
  6
CONTINUOUS
 10
202.934053
 20
246.001280
 40
1.600000
 50
-90.000000
 51
0.000000
  0
ARC
  8
2
 62
7
  6
CONTINUOUS
 10
199.192825
 20
246.270638
 40
1.600000
 50
180.000000
 51
-90.000000
  0
LINE
  8
2
 62
7
  6
CONTINUOUS
 10
199.192825
 20
244.670638
 11
200.934053
 21
244.670638
  0
ARC
  8
2
 62
7
  6
CONTINUOUS
 10
202.675281
 20
246.270638
 40
1.600000
 50
-90.000000
 51
0.000000
  0
LINE
  8
2
 62
7
  6
CONTINUOUS
 10
202.675281
 20
244.670638
 11
200.934053
 21
244.670638
  0
LINE
  8
1
 62
7
  6
CONTINUOUS
 10
196.434053
 20
249.348730
 11
197.755803
 21
249.348730
  0
LINE
  8
1
 62
7
  6
CONTINUOUS
 10
204.112303
 20
249.348730
 11
205.434053
 21
249.348730
  0
LINE
  8
1
 62
7
  6
CONTINUOUS
 10
196.434053
 20
252.098730
 11
196.434053
 21
247.098730
  0
LINE
  8
1
 62
7
  6
CONTINUOUS
 10
205.434053
 20
247.098730
 11
205.434053
 21
252.098730
  0
LINE
  8
1
 62
7
  6
CONTINUOUS
 10
205.434053
 20
252.098730
 11
196.434053
 21
252.098730
  0
LINE
  8
1
 62
7
  6
CONTINUOUS
 10
196.434053
 20
247.098730
 11
197.334053
 21
247.098730
  0
LINE
  8
1
 62
7
  6
CONTINUOUS
 10
204.534053
 20
247.098730
 11
205.434053
 21
247.098730
  0
LINE
  8
1
 62
7
  6
CONTINUOUS
 10
197.834053
 20
249.598730
 11
197.826000
 21
249.598730
  0
LINE
  8
1
 62
7
  6
CONTINUOUS
 10
197.826000
 20
249.848730
 11
197.826000
 21
249.598730
  0
LINE
  8
1
 62
7
  6
CONTINUOUS
 10
204.034053
 20
249.598730
 11
204.034053
 21
249.848730
  0
CIRCLE
  8
2
 62
7
  6
CONTINUOUS
 10
181.884053
 20
243.581445
 40
3.500000
  0
CIRCLE
  8
1
 62
7
  6
CONTINUOUS
 10
181.898034
 20
243.489910
 40
5.500000
  0
CIRCLE
  8
1
 62
7
  6
CONTINUOUS
 10
181.898034
 20
243.489910
 40
7.000000
  0
CIRCLE
  8
1
 62
7
  6
CONTINUOUS
 10
181.884053
 20
243.581445
 40
5.000000
  0
CIRCLE
  8
1
 62
7
  6
CONTINUOUS
 10
179.690837
 20
267.789910
 40
7.000000
  0
LINE
  8
2
 62
7
  6
CONTINUOUS
 10
179.290837
 20
270.285029
 11
179.290837
 21
270.966544
  0
LINE
  8
2
 62
7
  6
CONTINUOUS
 10
179.290837
 20
270.966544
 11
179.690837
 21
271.197484
  0
LINE
  8
2
 62
7
  6
CONTINUOUS
 10
179.690837
 20
271.197484
 11
180.090837
 21
270.966544
  0
LINE
  8
2
 62
7
  6
CONTINUOUS
 10
180.090837
 20
270.966544
 11
180.090837
 21
270.285029
  0
LINE
  8
2
 62
7
  6
CONTINUOUS
 10
179.290837
 20
270.285029
 11
178.490837
 21
270.504664
  0
LINE
  8
2
 62
7
  6
CONTINUOUS
 10
178.490837
 20
270.504664
 11
178.490837
 21
269.823149
  0
LINE
  8
2
 62
7
  6
CONTINUOUS
 10
178.490837
 20
269.823149
 11
177.690837
 21
270.042783
  0
LINE
  8
2
 62
7
  6
CONTINUOUS
 10
177.690837
 20
270.042783
 11
177.690837
 21
269.361269
  0
LINE
  8
2
 62
7
  6
CONTINUOUS
 10
177.324985
 20
268.691087
 11
176.738511
 21
269.038234
  0
LINE
  8
2
 62
7
  6
CONTINUOUS
 10
176.738511
 20
269.038234
 11
176.743527
 21
269.500087
  0
LINE
  8
2
 62
7
  6
CONTINUOUS
 10
176.743527
 20
269.500087
 11
177.146012
 21
269.726669
  0
LINE
  8
2
 62
7
  6
CONTINUOUS
 10
177.146012
 20
269.726669
 11
177.695791
 21
269.358336
  0
LINE
  8
2
 62
7
  6
CONTINUOUS
 10
180.090837
 20
270.285029
 11
180.090837
 21
270.966544
  0
LINE
  8
2
 62
7
  6
CONTINUOUS
 10
180.090837
 20
270.966544
 11
179.690837
 21
271.197484
  0
LINE
  8
2
 62
7
  6
CONTINUOUS
 10
179.290837
 20
270.966544
 11
179.290837
 21
270.285029
  0
LINE
  8
2
 62
7
  6
CONTINUOUS
 10
180.090837
 20
270.285029
 11
180.890837
 21
270.504664
  0
LINE
  8
2
 62
7
  6
CONTINUOUS
 10
180.890837
 20
270.504664
 11
180.890837
 21
269.823149
  0
LINE
  8
2
 62
7
  6
CONTINUOUS
 10
180.890837
 20
269.823149
 11
181.690837
 21
270.042783
  0
LINE
  8
2
 62
7
  6
CONTINUOUS
 10
181.690837
 20
270.042783
 11
181.690837
 21
269.361269
  0
LINE
  8
2
 62
7
  6
CONTINUOUS
 10
182.056690
 20
268.691087
 11
182.643164
 21
269.038234
  0
LINE
  8
2
 62
7
  6
CONTINUOUS
 10
182.638147
 20
269.500087
 11
182.235663
 21
269.726669
  0
LINE
  8
2
 62
7
  6
CONTINUOUS
 10
182.235663
 20
269.726669
 11
181.685884
 21
269.358336
  0
LINE
  8
2
 62
7
  6
CONTINUOUS
 10
179.290837
 20
265.294791
 11
179.290837
 21
264.613276
  0
LINE
  8
2
 62
7
  6
CONTINUOUS
 10
179.290837
 20
264.613276
 11
179.690837
 21
264.382336
  0
LINE
  8
2
 62
7
  6
CONTINUOUS
 10
179.690837
 20
264.382336
 11
180.090837
 21
264.613276
  0
LINE
  8
2
 62
7
  6
CONTINUOUS
 10
180.090837
 20
264.613276
 11
180.090837
 21
265.294791
  0
LINE
  8
2
 62
7
  6
CONTINUOUS
 10
179.290837
 20
265.294791
 11
178.490837
 21
265.075156
  0
LINE
  8
2
 62
7
  6
CONTINUOUS
 10
178.490837
 20
265.075156
 11
178.490837
 21
265.756671
  0
LINE
  8
2
 62
7
  6
CONTINUOUS
 10
178.490837
 20
265.756671
 11
177.690837
 21
265.537036
  0
LINE
  8
2
 62
7
  6
CONTINUOUS
 10
177.690837
 20
265.537036
 11
177.690837
 21
266.218551
  0
LINE
  8
2
 62
7
  6
CONTINUOUS
 10
176.743527
 20
266.079733
 11
177.146012
 21
265.853151
  0
LINE
  8
2
 62
7
  6
CONTINUOUS
 10
177.146012
 20
265.853151
 11
177.695791
 21
266.221483
  0
LINE
  8
2
 62
7
  6
CONTINUOUS
 10
180.090837
 20
265.294791
 11
180.090837
 21
264.613276
  0
LINE
  8
2
 62
7
  6
CONTINUOUS
 10
180.090837
 20
264.613276
 11
179.690837
 21
264.382336
  0
LINE
  8
2
 62
7
  6
CONTINUOUS
 10
179.290837
 20
264.613276
 11
179.290837
 21
265.294791
  0
LINE
  8
2
 62
7
  6
CONTINUOUS
 10
180.090837
 20
265.294791
 11
180.890837
 21
265.075156
  0
LINE
  8
2
 62
7
  6
CONTINUOUS
 10
180.890837
 20
265.075156
 11
180.890837
 21
265.756671
  0
LINE
  8
2
 62
7
  6
CONTINUOUS
 10
180.890837
 20
265.756671
 11
181.690837
 21
265.537036
  0
LINE
  8
2
 62
7
  6
CONTINUOUS
 10
181.690837
 20
265.537036
 11
181.690837
 21
266.218551
  0
LINE
  8
2
 62
7
  6
CONTINUOUS
 10
182.056690
 20
266.888733
 11
182.643164
 21
266.541586
  0
LINE
  8
2
 62
7
  6
CONTINUOUS
 10
182.638147
 20
266.079733
 11
182.235663
 21
265.853151
  0
LINE
  8
2
 62
7
  6
CONTINUOUS
 10
182.235663
 20
265.853151
 11
181.685884
 21
266.221483
  0
LINE
  8
2
 62
7
  6
CONTINUOUS
 10
177.324985
 20
268.691087
 11
176.733306
 21
268.109575
  0
LINE
  8
2
 62
7
  6
CONTINUOUS
 10
177.312830
 20
267.773034
 11
176.738322
 21
267.208398
  0
LINE
  8
2
 62
7
  6
CONTINUOUS
 10
176.738322
 20
267.208398
 11
177.307058
 21
266.878122
  0
LINE
  8
2
 62
7
  6
CONTINUOUS
 10
177.307058
 20
266.878122
 11
176.738511
 21
266.541586
  0
LINE
  8
2
 62
7
  6
CONTINUOUS
 10
176.733306
 20
268.109575
 11
177.312830
 21
267.773034
  0
LINE
  8
2
 62
7
  6
CONTINUOUS
 10
176.743527
 20
266.079733
 11
176.738511
 21
266.541586
  0
LINE
  8
2
 62
7
  6
CONTINUOUS
 10
182.643164
 20
269.038234
 11
182.638147
 21
269.500087
  0
LINE
  8
2
 62
7
  6
CONTINUOUS
 10
182.056690
 20
268.691087
 11
182.648369
 21
268.109575
  0
LINE
  8
2
 62
7
  6
CONTINUOUS
 10
182.068845
 20
267.773034
 11
182.643353
 21
267.208398
  0
LINE
  8
2
 62
7
  6
CONTINUOUS
 10
182.643353
 20
267.208398
 11
182.074617
 21
266.878122
  0
LINE
  8
2
 62
7
  6
CONTINUOUS
 10
182.648369
 20
268.109575
 11
182.068845
 21
267.773034
  0
LINE
  8
2
 62
7
  6
CONTINUOUS
 10
182.638147
 20
266.079733
 11
182.643164
 21
266.541586
  0
LINE
  8
1
 62
7
  6
CONTINUOUS
 10
153.934053
 20
187.254094
 11
155.534053
 21
187.254094
  0
LINE
  8
1
 62
7
  6
CONTINUOUS
 10
155.534053
 20
187.254094
 11
157.734053
 21
188.754094
  0
LINE
  8
1
 62
7
  6
CONTINUOUS
 10
151.734053
 20
188.754094
 11
153.934053
 21
187.254094
  0
LINE
  8
1
 62
7
  6
CONTINUOUS
 10
151.734053
 20
188.754094
 11
157.734053
 21
188.754094
  0
LINE
  8
1
 62
7
  6
CONTINUOUS
 10
51.091154
 20
187.254094
 11
52.691154
 21
187.254094
  0
LINE
  8
1
 62
7
  6
CONTINUOUS
 10
52.691154
 20
187.254094
 11
54.891154
 21
188.754094
  0
LINE
  8
1
 62
7
  6
CONTINUOUS
 10
48.891154
 20
188.754094
 11
51.091154
 21
187.254094
  0
LINE
  8
1
 62
7
  6
CONTINUOUS
 10
48.891154
 20
188.754094
 11
54.891154
 21
188.754094
  0
LINE
  8
1
 62
7
  6
CONTINUOUS
 10
204.434053
 20
308.454094
 11
204.434053
 21
293.789910
  0
LINE
  8
1
 62
7
  6
CONTINUOUS
 10
179.434053
 20
293.789910
 11
179.434053
 21
308.454094
  0
LINE
  8
2
 62
7
  6
DASHDOT
 10
191.934053
 20
315.887373
 11
191.934053
 21
159.643549
  0
LINE
  8
1
 62
7
  6
CONTINUOUS
 10
53.289835
 20
177.954094
 11
53.289835
 21
176.454094
  0
LINE
  8
1
 62
7
  6
CONTINUOUS
 10
53.789835
 20
175.954094
 11
61.939835
 21
175.954094
  0
ARC
  8
1
 62
7
  6
CONTINUOUS
 10
53.789835
 20
176.454094
 40
0.500000
 50
180.000000
 51
-90.000000
  0
LINE
  8
2
 62
7
  6
CONTINUOUS
 10
215.134053
 20
86.642413
 11
215.134053
 21
84.837779
  0
LINE
  8
2
 62
7
  6
CONTINUOUS
 10
212.884053
 20
84.857610
 11
217.384053
 21
84.857610
  0
LINE
  8
2
 62
7
  6
CONTINUOUS
 10
214.002891
 20
83.885884
 11
216.342966
 21
83.885884
  0
LINE
  8
2
 62
7
  6
CONTINUOUS
 10
214.459007
 20
82.993483
 11
215.906680
 21
82.993483
  0
ARC
  8
1
 62
7
  6
CONTINUOUS
 10
191.934053
 20
99.415154
 40
20.000000
 50
84.844416
 51
95.155584
  0
LINE
  8
1
 62
7
  6
CONTINUOUS
 10
163.234750
 20
116.906984
 11
190.136842
 21
119.334241
  0
ARC
  8
1
 62
7
  6
CONTINUOUS
 10
163.684053
 20
111.927213
 40
5.000000
 50
95.155584
 51
180.000000
  0
LINE
  8
1
 62
7
  6
CONTINUOUS
 10
220.633356
 20
116.906984
 11
193.731264
 21
119.334241
  0
ARC
  8
1
 62
7
  6
CONTINUOUS
 10
220.184053
 20
111.927213
 40
5.000000
 50
0.000000
 51
84.844416
  0
ARC
  8
1
 62
7
  6
CONTINUOUS
 10
191.934055
 20
93.472023
 40
20.000000
 50
84.844416
 51
95.155584
  0
LINE
  8
1
 62
7
  6
CONTINUOUS
 10
167.414471
 20
111.340971
 11
190.136844
 21
113.391110
  0
ARC
  8
1
 62
7
  6
CONTINUOUS
 10
167.684053
 20
108.353108
 40
3.000000
 50
95.155584
 51
180.000000
  0
LINE
  8
1
 62
7
  6
CONTINUOUS
 10
216.453635
 20
111.340971
 11
193.731266
 21
113.391110
  0
ARC
  8
1
 62
7
  6
CONTINUOUS
 10
216.184053
 20
108.353108
 40
3.000000
 50
0.000000
 51
84.844416
  0
LINE
  8
1
 62
7
  6
CONTINUOUS
 10
158.684053
 20
81.996395
 11
158.684053
 21
111.927213
  0
LINE
  8
1
 62
7
  6
CONTINUOUS
 10
164.684053
 20
108.353108
 11
164.684053
 21
81.996395
  0
LINE
  8
1
 62
7
  6
CONTINUOUS
 10
225.184053
 20
81.996395
 11
225.184053
 21
111.927213
  0
LINE
  8
1
 62
7
  6
CONTINUOUS
 10
219.184053
 20
108.353108
 11
219.184053
 21
81.996395
  0
LINE
  8
1
 62
7
  6
CONTINUOUS
 10
158.684053
 20
81.996395
 11
164.684053
 21
81.996395
  0
LINE
  8
1
 62
7
  6
CONTINUOUS
 10
219.184053
 20
81.996395
 11
225.184053
 21
81.996395
  0
LINE
  8
1
 62
7
  6
CONTINUOUS
 10
160.734053
 20
63.993483
 11
223.134053
 21
63.993483
  0
LINE
  8
1
 62
7
  6
CONTINUOUS
 10
160.734053
 20
81.996395
 11
160.734053
 21
63.993483
  0
LINE
  8
1
 62
7
  6
CONTINUOUS
 10
223.134053
 20
63.993483
 11
223.134053
 21
81.996395
  0
LINE
  8
1
 62
7
  6
CONTINUOUS
 10
216.194713
 20
75.225716
 11
216.901820
 21
75.932823
  0
ARC
  8
1
 62
7
  6
CONTINUOUS
 10
215.134053
 20
75.579269
 40
0.500000
 50
45.000000
 51
135.000000
  0
ARC
  8
1
 62
7
  6
CONTINUOUS
 10
216.548267
 20
76.993483
 40
0.500000
 50
135.000000
 51
-135.000000
  0
LINE
  8
1
 62
7
  6
CONTINUOUS
 10
217.674213
 20
78.826537
 11
216.194713
 21
77.347036
  0
ARC
  8
1
 62
7
  6
CONTINUOUS
 10
218.027767
 20
78.472983
 40
0.500000
 50
27.079787
 51
135.000000
  0
CIRCLE
  8
1
 62
7
  6
CONTINUOUS
 10
215.134053
 20
76.993483
 40
3.750000
  0
LINE
  8
1
 62
7
  6
CONTINUOUS
 10
213.300999
 20
74.453323
 11
214.780500
 21
75.932823
  0
ARC
  8
1
 62
7
  6
CONTINUOUS
 10
213.654553
 20
74.099769
 40
0.500000
 50
135.000000
 51
-117.079787
  0
LINE
  8
1
 62
7
  6
CONTINUOUS
 10
215.487606
 20
75.932823
 11
216.194713
 21
75.225716
  0
LINE
  8
1
 62
7
  6
CONTINUOUS
 10
216.194713
 20
76.639930
 11
216.901820
 21
75.932823
  0
LINE
  8
1
 62
7
  6
CONTINUOUS
 10
213.366286
 20
78.054143
 11
214.073393
 21
78.761250
  0
ARC
  8
1
 62
7
  6
CONTINUOUS
 10
213.719839
 20
76.993483
 40
0.500000
 50
-45.000000
 51
45.000000
  0
ARC
  8
1
 62
7
  6
CONTINUOUS
 10
215.134053
 20
78.407697
 40
0.500000
 50
-135.000000
 51
-45.000000
  0
LINE
  8
1
 62
7
  6
CONTINUOUS
 10
216.967107
 20
79.533643
 11
215.487606
 21
78.054143
  0
ARC
  8
1
 62
7
  6
CONTINUOUS
 10
216.613553
 20
79.887197
 40
0.500000
 50
-45.000000
 51
62.920213
  0
LINE
  8
1
 62
7
  6
CONTINUOUS
 10
212.593893
 20
75.160429
 11
214.073393
 21
76.639930
  0
ARC
  8
1
 62
7
  6
CONTINUOUS
 10
212.240339
 20
75.513983
 40
0.500000
 50
-152.920213
 51
-45.000000
  0
LINE
  8
1
 62
7
  6
CONTINUOUS
 10
214.073393
 20
77.347036
 11
213.366286
 21
78.054143
  0
LINE
  8
1
 62
7
  6
CONTINUOUS
 10
214.780500
 20
78.054143
 11
214.073393
 21
78.761250
  0
LINE
  8
2
 62
7
  6
DASHDOT
 10
215.134053
 20
81.600917
 11
215.134053
 21
71.818230
  0
LINE
  8
2
 62
7
  6
DASHDOT
 10
210.734170
 20
76.993483
 11
219.385911
 21
76.993483
  0
CIRCLE
  8
1
 62
7
  6
CONTINUOUS
 10
154.734053
 20
72.217293
 40
3.750000
  0
CIRCLE
  8
2
 62
7
  6
CONTINUOUS
 10
154.734053
 20
72.217293
 40
3.506625
  0
LINE
  8
1
 62
7
  6
CONTINUOUS
 10
160.734053
 20
65.217293
 11
160.734053
 21
79.217293
  0
LINE
  8
1
 62
7
  6
CONTINUOUS
 10
160.734053
 20
79.217293
 11
153.734053
 21
79.217293
  0
ARC
  8
1
 62
7
  6
CONTINUOUS
 10
153.734053
 20
73.217293
 40
6.000000
 50
90.000000
 51
180.000000
  0
LINE
  8
1
 62
7
  6
CONTINUOUS
 10
153.734053
 20
65.217293
 11
160.734053
 21
65.217293
  0
LINE
  8
1
 62
7
  6
CONTINUOUS
 10
147.734053
 20
73.217293
 11
147.734053
 21
71.217293
  0
ARC
  8
1
 62
7
  6
CONTINUOUS
 10
153.734053
 20
71.217293
 40
6.000000
 50
180.000000
 51
-90.000000
  0
LINE
  8
2
 62
7
  6
DASHDOT
 10
154.734053
 20
77.115112
 11
154.734053
 21
68.467293
  0
LINE
  8
2
 62
7
  6
DASHDOT
 10
159.693565
 20
72.217293
 11
149.095840
 21
72.217293
  0
LINE
  8
1
 62
7
  6
CONTINUOUS
 10
162.061941
 20
63.993483
 11
162.061941
 21
57.393483
  0
LINE
  8
1
 62
7
  6
CONTINUOUS
 10
162.061941
 20
57.393483
 11
222.061941
 21
57.393483
  0
LINE
  8
1
 62
7
  6
CONTINUOUS
 10
222.061941
 20
57.393483
 11
222.061941
 21
63.993483
  0
LINE
  8
1
 62
7
  6
CONTINUOUS
 10
222.061941
 20
63.993483
 11
162.061941
 21
63.993483
  0
LINE
  8
1
 62
7
  6
CONTINUOUS
 10
162.061941
 20
57.393483
 11
162.061941
 21
56.193483
  0
LINE
  8
1
 62
7
  6
CONTINUOUS
 10
162.061941
 20
56.193483
 11
222.061941
 21
56.193483
  0
LINE
  8
1
 62
7
  6
CONTINUOUS
 10
222.061941
 20
56.193483
 11
222.061941
 21
57.393483
  0
LINE
  8
1
 62
7
  6
CONTINUOUS
 10
222.061941
 20
57.393483
 11
162.061941
 21
57.393483
  0
CIRCLE
  8
1
 62
7
  6
CONTINUOUS
 10
154.734053
 20
72.217293
 40
0.800000
  0
CIRCLE
  8
1
 62
7
  6
CONTINUOUS
 10
154.734053
 20
72.217293
 40
3.000000
  0
LINE
  8
2
 62
7
  6
DASHDOT
 10
191.934053
 20
126.059241
 11
191.934053
 21
39.956328
  0
LINE
  8
2
 62
7
  6
DASHDOT
 10
156.732734
 20
85.993483
 11
229.991963
 21
85.993483
  0
CIRCLE
  8
1
 62
7
  6
CONTINUOUS
 10
192.017348
 20
85.993483
 40
13.000000
  0
CIRCLE
  8
2
 62
7
  6
DASHDOT
 10
191.934053
 20
85.993483
 40
11.150000
  0
CIRCLE
  8
1
 62
7
  6
CONTINUOUS
 10
191.934053
 20
85.993483
 40
10.000000
  0
LINE
  8
2
 62
7
  6
DASHDOT
 10
185.182341
 20
300.954094
 11
197.370851
 21
300.954094
  0
LINE
  8
1
 62
7
  6
CONTINUOUS
 10
96.739835
 20
249.848730
 11
99.331039
 21
246.635001
  0
ARC
  8
1
 62
7
  6
CONTINUOUS
 10
98.573899
 20
245.981748
 40
1.000000
 50
-36.525706
 51
40.787260
  0
LINE
  8
1
 62
7
  6
CONTINUOUS
 10
99.377489
 20
245.386565
 11
99.377490
 21
245.386566
  0
ARC
  8
1
 62
7
  6
CONTINUOUS
 10
98.573900
 20
245.981749
 40
1.000000
 50
-139.212736
 51
-36.525706
  0
LINE
  8
1
 62
7
  6
CONTINUOUS
 10
97.816759
 20
245.328497
 11
96.739835
 21
246.358330
  0
ARC
  8
1
 62
7
  6
CONTINUOUS
 10
96.786890
 20
234.193284
 40
0.450661
 50
0.000000
 51
90.000000
  0
LINE
  8
1
 62
7
  6
CONTINUOUS
 10
96.786890
 20
234.643945
 11
96.439835
 21
234.643945
  0
ARC
  8
1
 62
7
  6
CONTINUOUS
 10
96.786890
 20
227.969606
 40
0.450661
 50
-90.000000
 51
0.000000
  0
LINE
  8
1
 62
7
  6
CONTINUOUS
 10
96.458489
 20
227.518945
 11
96.786890
 21
227.518945
  0
LINE
  8
1
 62
7
  6
CONTINUOUS
 10
96.439835
 20
231.532106
 11
97.237551
 21
231.532106
  0
LINE
  8
1
 62
7
  6
CONTINUOUS
 10
97.237551
 20
230.630784
 11
96.439835
 21
230.630784
  0
LINE
  8
1
 62
7
  6
CONTINUOUS
 10
97.237551
 20
231.532106
 11
97.237551
 21
234.193284
  0
LINE
  8
1
 62
7
  6
CONTINUOUS
 10
97.237551
 20
230.630784
 11
97.237551
 21
227.969606
  0
LINE
  8
1
 62
7
  6
CONTINUOUS
 10
180.838245
 20
194.312209
 11
180.838245
 21
194.364618
  0
ARC
  8
1
 62
7
  6
CONTINUOUS
 10
180.438245
 20
194.312209
 40
0.400000
 50
0.000000
 51
90.000000
  0
LINE
  8
1
 62
7
  6
CONTINUOUS
 10
180.184183
 20
193.712209
 11
180.203095
 21
193.714531
  0
LINE
  8
1
 62
7
  6
CONTINUOUS
 10
180.203095
 20
193.714531
 11
180.221892
 21
193.717397
  0
LINE
  8
1
 62
7
  6
CONTINUOUS
 10
180.221892
 20
193.717397
 11
180.240539
 21
193.720803
  0
LINE
  8
1
 62
7
  6
CONTINUOUS
 10
180.240539
 20
193.720803
 11
180.259001
 21
193.724742
  0
LINE
  8
1
 62
7
  6
CONTINUOUS
 10
180.259001
 20
193.724742
 11
180.277245
 21
193.729206
  0
LINE
  8
1
 62
7
  6
CONTINUOUS
 10
180.277245
 20
193.729206
 11
180.295236
 21
193.734189
  0
LINE
  8
1
 62
7
  6
CONTINUOUS
 10
180.295236
 20
193.734189
 11
180.312942
 21
193.739679
  0
LINE
  8
1
 62
7
  6
CONTINUOUS
 10
180.312942
 20
193.739679
 11
180.330330
 21
193.745668
  0
LINE
  8
1
 62
7
  6
CONTINUOUS
 10
180.330330
 20
193.745668
 11
180.347367
 21
193.752144
  0
LINE
  8
1
 62
7
  6
CONTINUOUS
 10
180.347367
 20
193.752144
 11
180.364023
 21
193.759095
  0
LINE
  8
1
 62
7
  6
CONTINUOUS
 10
180.364023
 20
193.759095
 11
180.380266
 21
193.766508
  0
LINE
  8
1
 62
7
  6
CONTINUOUS
 10
180.380266
 20
193.766508
 11
180.396066
 21
193.774371
  0
LINE
  8
1
 62
7
  6
CONTINUOUS
 10
180.396066
 20
193.774371
 11
180.411395
 21
193.782667
  0
LINE
  8
1
 62
7
  6
CONTINUOUS
 10
180.411395
 20
193.782667
 11
180.426224
 21
193.791382
  0
LINE
  8
1
 62
7
  6
CONTINUOUS
 10
180.426224
 20
193.791382
 11
180.440525
 21
193.800500
  0
LINE
  8
1
 62
7
  6
CONTINUOUS
 10
180.440525
 20
193.800500
 11
180.454272
 21
193.810003
  0
LINE
  8
1
 62
7
  6
CONTINUOUS
 10
180.454272
 20
193.810003
 11
180.467441
 21
193.819875
  0
LINE
  8
1
 62
7
  6
CONTINUOUS
 10
180.467441
 20
193.819875
 11
180.480005
 21
193.830097
  0
LINE
  8
1
 62
7
  6
CONTINUOUS
 10
180.480005
 20
193.830097
 11
180.491943
 21
193.840650
  0
LINE
  8
1
 62
7
  6
CONTINUOUS
 10
180.491943
 20
193.840650
 11
180.503232
 21
193.851515
  0
LINE
  8
1
 62
7
  6
CONTINUOUS
 10
180.503232
 20
193.851515
 11
180.513852
 21
193.862672
  0
LINE
  8
1
 62
7
  6
CONTINUOUS
 10
180.513852
 20
193.862672
 11
180.523782
 21
193.874100
  0
LINE
  8
1
 62
7
  6
CONTINUOUS
 10
180.523782
 20
193.874100
 11
180.533005
 21
193.885777
  0
LINE
  8
1
 62
7
  6
CONTINUOUS
 10
180.533005
 20
193.885777
 11
180.541503
 21
193.897683
  0
LINE
  8
1
 62
7
  6
CONTINUOUS
 10
180.541503
 20
193.897683
 11
180.549261
 21
193.909796
  0
LINE
  8
1
 62
7
  6
CONTINUOUS
 10
180.549261
 20
193.909796
 11
180.556264
 21
193.922092
  0
LINE
  8
1
 62
7
  6
CONTINUOUS
 10
180.556264
 20
193.922092
 11
180.562499
 21
193.934550
  0
LINE
  8
1
 62
7
  6
CONTINUOUS
 10
180.562499
 20
193.934550
 11
180.567956
 21
193.947146
  0
LINE
  8
1
 62
7
  6
CONTINUOUS
 10
180.567956
 20
193.947146
 11
180.572623
 21
193.959857
  0
LINE
  8
1
 62
7
  6
CONTINUOUS
 10
180.572623
 20
193.959857
 11
180.576492
 21
193.972660
  0
LINE
  8
1
 62
7
  6
CONTINUOUS
 10
180.576492
 20
193.972660
 11
180.579557
 21
193.985530
  0
LINE
  8
1
 62
7
  6
CONTINUOUS
 10
180.579557
 20
193.985530
 11
180.581810
 21
193.998445
  0
LINE
  8
1
 62
7
  6
CONTINUOUS
 10
180.581810
 20
193.998445
 11
180.583249
 21
194.011380
  0
LINE
  8
1
 62
7
  6
CONTINUOUS
 10
180.583249
 20
194.011380
 11
180.583871
 21
194.024311
  0
LINE
  8
1
 62
7
  6
CONTINUOUS
 10
180.583871
 20
194.024311
 11
180.583674
 21
194.037215
  0
LINE
  8
1
 62
7
  6
CONTINUOUS
 10
180.583674
 20
194.037215
 11
180.582659
 21
194.050068
  0
LINE
  8
1
 62
7
  6
CONTINUOUS
 10
180.582659
 20
194.050068
 11
180.580828
 21
194.062845
  0
LINE
  8
1
 62
7
  6
CONTINUOUS
 10
180.580828
 20
194.062845
 11
180.578183
 21
194.075524
  0
LINE
  8
1
 62
7
  6
CONTINUOUS
 10
180.578183
 20
194.075524
 11
180.574731
 21
194.088081
  0
LINE
  8
1
 62
7
  6
CONTINUOUS
 10
180.574731
 20
194.088081
 11
180.570476
 21
194.100492
  0
LINE
  8
1
 62
7
  6
CONTINUOUS
 10
180.570476
 20
194.100492
 11
180.565428
 21
194.112736
  0
LINE
  8
1
 62
7
  6
CONTINUOUS
 10
180.565428
 20
194.112736
 11
180.559596
 21
194.124788
  0
LINE
  8
1
 62
7
  6
CONTINUOUS
 10
180.559596
 20
194.124788
 11
180.552990
 21
194.136628
  0
LINE
  8
1
 62
7
  6
CONTINUOUS
 10
180.552990
 20
194.136628
 11
180.545622
 21
194.148233
  0
LINE
  8
1
 62
7
  6
CONTINUOUS
 10
180.545622
 20
194.148233
 11
180.537506
 21
194.159581
  0
LINE
  8
1
 62
7
  6
CONTINUOUS
 10
180.537506
 20
194.159581
 11
180.528657
 21
194.170652
  0
LINE
  8
1
 62
7
  6
CONTINUOUS
 10
180.528657
 20
194.170652
 11
180.519092
 21
194.181425
  0
LINE
  8
1
 62
7
  6
CONTINUOUS
 10
180.519092
 20
194.181425
 11
180.508828
 21
194.191881
  0
LINE
  8
1
 62
7
  6
CONTINUOUS
 10
180.508828
 20
194.191881
 11
180.497883
 21
194.202000
  0
LINE
  8
1
 62
7
  6
CONTINUOUS
 10
180.497883
 20
194.202000
 11
180.486279
 21
194.211763
  0
LINE
  8
1
 62
7
  6
CONTINUOUS
 10
180.486279
 20
194.211763
 11
180.474037
 21
194.221152
  0
LINE
  8
1
 62
7
  6
CONTINUOUS
 10
180.474037
 20
194.221152
 11
180.461179
 21
194.230150
  0
LINE
  8
1
 62
7
  6
CONTINUOUS
 10
180.461179
 20
194.230150
 11
180.447729
 21
194.238741
  0
LINE
  8
1
 62
7
  6
CONTINUOUS
 10
180.447729
 20
194.238741
 11
180.433712
 21
194.246908
  0
LINE
  8
1
 62
7
  6
CONTINUOUS
 10
180.433712
 20
194.246908
 11
180.419153
 21
194.254637
  0
LINE
  8
1
 62
7
  6
CONTINUOUS
 10
180.419153
 20
194.254637
 11
180.404081
 21
194.261912
  0
LINE
  8
1
 62
7
  6
CONTINUOUS
 10
180.404081
 20
194.261912
 11
180.388521
 21
194.268722
  0
LINE
  8
1
 62
7
  6
CONTINUOUS
 10
180.388521
 20
194.268722
 11
180.372504
 21
194.275053
  0
LINE
  8
1
 62
7
  6
CONTINUOUS
 10
180.372504
 20
194.275053
 11
180.356059
 21
194.280893
  0
LINE
  8
1
 62
7
  6
CONTINUOUS
 10
180.356059
 20
194.280893
 11
180.339216
 21
194.286231
  0
LINE
  8
1
 62
7
  6
CONTINUOUS
 10
180.339216
 20
194.286231
 11
180.322006
 21
194.291059
  0
LINE
  8
1
 62
7
  6
CONTINUOUS
 10
180.322006
 20
194.291059
 11
180.304461
 21
194.295366
  0
LINE
  8
1
 62
7
  6
CONTINUOUS
 10
180.304461
 20
194.295366
 11
180.286614
 21
194.299145
  0
LINE
  8
1
 62
7
  6
CONTINUOUS
 10
180.286614
 20
194.299145
 11
180.268497
 21
194.302389
  0
LINE
  8
1
 62
7
  6
CONTINUOUS
 10
180.268497
 20
194.302389
 11
180.250144
 21
194.305092
  0
LINE
  8
1
 62
7
  6
CONTINUOUS
 10
180.250144
 20
194.305092
 11
180.231589
 21
194.307249
  0
LINE
  8
1
 62
7
  6
CONTINUOUS
 10
180.231589
 20
194.307249
 11
180.212866
 21
194.308857
  0
LINE
  8
1
 62
7
  6
CONTINUOUS
 10
180.212866
 20
194.308857
 11
180.194009
 21
194.309911
  0
LINE
  8
1
 62
7
  6
CONTINUOUS
 10
180.194009
 20
194.309911
 11
180.175054
 21
194.310410
  0
LINE
  8
1
 62
7
  6
CONTINUOUS
 10
180.175054
 20
194.310410
 11
180.156035
 21
194.310353
  0
LINE
  8
1
 62
7
  6
CONTINUOUS
 10
180.156035
 20
194.310353
 11
180.136988
 21
194.309740
  0
LINE
  8
1
 62
7
  6
CONTINUOUS
 10
180.136988
 20
194.309740
 11
180.117948
 21
194.308573
  0
LINE
  8
1
 62
7
  6
CONTINUOUS
 10
180.184183
 20
193.712209
 11
176.838245
 21
193.712209
  0
LINE
  8
1
 62
7
  6
CONTINUOUS
 10
178.438651
 20
195.309433
 11
178.419739
 21
195.307112
  0
LINE
  8
1
 62
7
  6
CONTINUOUS
 10
178.419739
 20
195.307112
 11
178.400942
 21
195.304245
  0
LINE
  8
1
 62
7
  6
CONTINUOUS
 10
178.400942
 20
195.304245
 11
178.382296
 21
195.300839
  0
LINE
  8
1
 62
7
  6
CONTINUOUS
 10
178.382296
 20
195.300839
 11
178.363833
 21
195.296900
  0
LINE
  8
1
 62
7
  6
CONTINUOUS
 10
178.363833
 20
195.296900
 11
178.345590
 21
195.292436
  0
LINE
  8
1
 62
7
  6
CONTINUOUS
 10
178.345590
 20
195.292436
 11
178.327598
 21
195.287453
  0
LINE
  8
1
 62
7
  6
CONTINUOUS
 10
178.327598
 20
195.287453
 11
178.309893
 21
195.281963
  0
LINE
  8
1
 62
7
  6
CONTINUOUS
 10
178.309893
 20
195.281963
 11
178.292505
 21
195.275974
  0
LINE
  8
1
 62
7
  6
CONTINUOUS
 10
178.292505
 20
195.275974
 11
178.275468
 21
195.269498
  0
LINE
  8
1
 62
7
  6
CONTINUOUS
 10
178.275468
 20
195.269498
 11
178.258812
 21
195.262547
  0
LINE
  8
1
 62
7
  6
CONTINUOUS
 10
178.258812
 20
195.262547
 11
178.242569
 21
195.255134
  0
LINE
  8
1
 62
7
  6
CONTINUOUS
 10
178.242569
 20
195.255134
 11
178.226768
 21
195.247272
  0
LINE
  8
1
 62
7
  6
CONTINUOUS
 10
178.226768
 20
195.247272
 11
178.211440
 21
195.238975
  0
LINE
  8
1
 62
7
  6
CONTINUOUS
 10
178.211440
 20
195.238975
 11
178.196611
 21
195.230260
  0
LINE
  8
1
 62
7
  6
CONTINUOUS
 10
178.196611
 20
195.230260
 11
178.182310
 21
195.221143
  0
LINE
  8
1
 62
7
  6
CONTINUOUS
 10
178.182310
 20
195.221143
 11
178.168562
 21
195.211639
  0
LINE
  8
1
 62
7
  6
CONTINUOUS
 10
178.168562
 20
195.211639
 11
178.155394
 21
195.201767
  0
LINE
  8
1
 62
7
  6
CONTINUOUS
 10
178.155394
 20
195.201767
 11
178.142829
 21
195.191545
  0
LINE
  8
1
 62
7
  6
CONTINUOUS
 10
178.142829
 20
195.191545
 11
178.130891
 21
195.180992
  0
LINE
  8
1
 62
7
  6
CONTINUOUS
 10
178.130891
 20
195.180992
 11
178.119602
 21
195.170127
  0
LINE
  8
1
 62
7
  6
CONTINUOUS
 10
178.119602
 20
195.170127
 11
178.108983
 21
195.158970
  0
LINE
  8
1
 62
7
  6
CONTINUOUS
 10
178.108983
 20
195.158970
 11
178.099052
 21
195.147542
  0
LINE
  8
1
 62
7
  6
CONTINUOUS
 10
178.099052
 20
195.147542
 11
178.089830
 21
195.135865
  0
LINE
  8
1
 62
7
  6
CONTINUOUS
 10
178.089830
 20
195.135865
 11
178.081332
 21
195.123959
  0
LINE
  8
1
 62
7
  6
CONTINUOUS
 10
178.081332
 20
195.123959
 11
178.073574
 21
195.111846
  0
LINE
  8
1
 62
7
  6
CONTINUOUS
 10
178.073574
 20
195.111846
 11
178.066571
 21
195.099550
  0
LINE
  8
1
 62
7
  6
CONTINUOUS
 10
178.066571
 20
195.099550
 11
178.060335
 21
195.087092
  0
LINE
  8
1
 62
7
  6
CONTINUOUS
 10
178.060335
 20
195.087092
 11
178.054879
 21
195.074496
  0
LINE
  8
1
 62
7
  6
CONTINUOUS
 10
178.054879
 20
195.074496
 11
178.050212
 21
195.061785
  0
LINE
  8
1
 62
7
  6
CONTINUOUS
 10
178.050212
 20
195.061785
 11
178.046342
 21
195.048983
  0
LINE
  8
1
 62
7
  6
CONTINUOUS
 10
178.046342
 20
195.048983
 11
178.043278
 21
195.036112
  0
LINE
  8
1
 62
7
  6
CONTINUOUS
 10
178.043278
 20
195.036112
 11
178.041024
 21
195.023197
  0
LINE
  8
1
 62
7
  6
CONTINUOUS
 10
178.041024
 20
195.023197
 11
178.039585
 21
195.010262
  0
LINE
  8
1
 62
7
  6
CONTINUOUS
 10
178.039585
 20
195.010262
 11
178.038963
 21
194.997331
  0
LINE
  8
1
 62
7
  6
CONTINUOUS
 10
178.038963
 20
194.997331
 11
178.039160
 21
194.984427
  0
LINE
  8
1
 62
7
  6
CONTINUOUS
 10
178.039160
 20
194.984427
 11
178.040176
 21
194.971575
  0
LINE
  8
1
 62
7
  6
CONTINUOUS
 10
178.040176
 20
194.971575
 11
178.042007
 21
194.958797
  0
LINE
  8
1
 62
7
  6
CONTINUOUS
 10
178.042007
 20
194.958797
 11
178.044651
 21
194.946118
  0
LINE
  8
1
 62
7
  6
CONTINUOUS
 10
178.044651
 20
194.946118
 11
178.048104
 21
194.933561
  0
LINE
  8
1
 62
7
  6
CONTINUOUS
 10
178.048104
 20
194.933561
 11
178.052358
 21
194.921150
  0
LINE
  8
1
 62
7
  6
CONTINUOUS
 10
178.052358
 20
194.921150
 11
178.057406
 21
194.908906
  0
LINE
  8
1
 62
7
  6
CONTINUOUS
 10
178.057406
 20
194.908906
 11
178.063239
 21
194.896854
  0
LINE
  8
1
 62
7
  6
CONTINUOUS
 10
178.063239
 20
194.896854
 11
178.069845
 21
194.885014
  0
LINE
  8
1
 62
7
  6
CONTINUOUS
 10
178.069845
 20
194.885014
 11
178.077213
 21
194.873409
  0
LINE
  8
1
 62
7
  6
CONTINUOUS
 10
178.077213
 20
194.873409
 11
178.085329
 21
194.862061
  0
LINE
  8
1
 62
7
  6
CONTINUOUS
 10
178.085329
 20
194.862061
 11
178.094177
 21
194.850990
  0
LINE
  8
1
 62
7
  6
CONTINUOUS
 10
178.094177
 20
194.850990
 11
178.103743
 21
194.840217
  0
LINE
  8
1
 62
7
  6
CONTINUOUS
 10
178.103743
 20
194.840217
 11
178.114007
 21
194.829761
  0
LINE
  8
1
 62
7
  6
CONTINUOUS
 10
178.114007
 20
194.829761
 11
178.124951
 21
194.819643
  0
LINE
  8
1
 62
7
  6
CONTINUOUS
 10
178.124951
 20
194.819643
 11
178.136555
 21
194.809879
  0
LINE
  8
1
 62
7
  6
CONTINUOUS
 10
178.136555
 20
194.809879
 11
178.148797
 21
194.800490
  0
LINE
  8
1
 62
7
  6
CONTINUOUS
 10
178.148797
 20
194.800490
 11
178.161655
 21
194.791492
  0
LINE
  8
1
 62
7
  6
CONTINUOUS
 10
178.161655
 20
194.791492
 11
178.175105
 21
194.782901
  0
LINE
  8
1
 62
7
  6
CONTINUOUS
 10
178.175105
 20
194.782901
 11
178.189123
 21
194.774734
  0
LINE
  8
1
 62
7
  6
CONTINUOUS
 10
178.189123
 20
194.774734
 11
178.203681
 21
194.767005
  0
LINE
  8
1
 62
7
  6
CONTINUOUS
 10
178.203681
 20
194.767005
 11
178.218754
 21
194.759730
  0
LINE
  8
1
 62
7
  6
CONTINUOUS
 10
178.218754
 20
194.759730
 11
178.234313
 21
194.752920
  0
LINE
  8
1
 62
7
  6
CONTINUOUS
 10
178.234313
 20
194.752920
 11
178.250330
 21
194.746590
  0
LINE
  8
1
 62
7
  6
CONTINUOUS
 10
178.250330
 20
194.746590
 11
178.266775
 21
194.740750
  0
LINE
  8
1
 62
7
  6
CONTINUOUS
 10
178.266775
 20
194.740750
 11
178.283619
 21
194.735411
  0
LINE
  8
1
 62
7
  6
CONTINUOUS
 10
178.283619
 20
194.735411
 11
178.300828
 21
194.730584
  0
LINE
  8
1
 62
7
  6
CONTINUOUS
 10
178.300828
 20
194.730584
 11
178.318373
 21
194.726276
  0
LINE
  8
1
 62
7
  6
CONTINUOUS
 10
178.318373
 20
194.726276
 11
178.336221
 21
194.722497
  0
LINE
  8
1
 62
7
  6
CONTINUOUS
 10
178.336221
 20
194.722497
 11
178.354338
 21
194.719253
  0
LINE
  8
1
 62
7
  6
CONTINUOUS
 10
178.354338
 20
194.719253
 11
178.372691
 21
194.716550
  0
LINE
  8
1
 62
7
  6
CONTINUOUS
 10
178.372691
 20
194.716550
 11
178.391246
 21
194.714393
  0
LINE
  8
1
 62
7
  6
CONTINUOUS
 10
178.391246
 20
194.714393
 11
178.409969
 21
194.712786
  0
LINE
  8
1
 62
7
  6
CONTINUOUS
 10
178.409969
 20
194.712786
 11
178.428826
 21
194.711732
  0
LINE
  8
1
 62
7
  6
CONTINUOUS
 10
178.428826
 20
194.711732
 11
178.447781
 21
194.711232
  0
LINE
  8
1
 62
7
  6
CONTINUOUS
 10
178.447781
 20
194.711232
 11
178.466799
 21
194.711289
  0
LINE
  8
1
 62
7
  6
CONTINUOUS
 10
178.466799
 20
194.711289
 11
178.485846
 21
194.711902
  0
LINE
  8
1
 62
7
  6
CONTINUOUS
 10
178.485846
 20
194.711902
 11
178.504887
 21
194.713069
  0
LINE
  8
1
 62
7
  6
CONTINUOUS
 10
178.438245
 20
195.312209
 11
180.838245
 21
195.312209
  0
LINE
  8
1
 62
7
  6
CONTINUOUS
 10
180.438245
 20
194.712209
 11
178.419075
 21
194.712209
  0
ARC
  8
1
 62
7
  6
CONTINUOUS
 10
178.198245
 20
195.552209
 40
0.560000
 50
90.000000
 51
180.000000
  0
LINE
  8
1
 62
7
  6
CONTINUOUS
 10
177.638245
 20
195.552209
 11
177.638245
 21
194.872209
  0
LINE
  8
1
 62
7
  6
CONTINUOUS
 10
178.198245
 20
194.312209
 11
180.117948
 21
194.312209
  0
ARC
  8
1
 62
7
  6
CONTINUOUS
 10
178.198245
 20
194.872209
 40
0.560000
 50
180.000000
 51
-90.000000
  0
LINE
  8
1
 62
7
  6
CONTINUOUS
 10
176.838245
 20
193.712209
 11
176.438245
 21
193.055317
  0
LINE
  8
1
 62
7
  6
CONTINUOUS
 10
180.438245
 20
192.912209
 11
176.526691
 21
192.912209
  0
LINE
  8
1
 62
7
  6
CONTINUOUS
 10
176.438245
 20
193.055317
 11
176.526691
 21
192.912209
  0
LINE
  8
1
 62
7
  6
CONTINUOUS
 10
178.198245
 20
196.112209
 11
181.149799
 21
196.112209
  0
LINE
  8
1
 62
7
  6
CONTINUOUS
 10
180.838245
 20
195.312209
 11
181.238245
 21
195.969100
  0
LINE
  8
1
 62
7
  6
CONTINUOUS
 10
181.149799
 20
196.112209
 11
181.238245
 21
195.969100
  0
LINE
  8
1
 62
7
  6
CONTINUOUS
 10
181.213980
 20
194.064273
 11
181.213916
 21
194.064047
  0
LINE
  8
1
 62
7
  6
CONTINUOUS
 10
181.213916
 20
194.064047
 11
181.213727
 21
194.063375
  0
LINE
  8
1
 62
7
  6
CONTINUOUS
 10
181.213727
 20
194.063375
 11
181.213417
 21
194.062272
  0
LINE
  8
1
 62
7
  6
CONTINUOUS
 10
181.213417
 20
194.062272
 11
181.212992
 21
194.060754
  0
LINE
  8
1
 62
7
  6
CONTINUOUS
 10
181.212992
 20
194.060754
 11
181.212463
 21
194.058835
  0
LINE
  8
1
 62
7
  6
CONTINUOUS
 10
181.212463
 20
194.058835
 11
181.211838
 21
194.056512
  0
LINE
  8
1
 62
7
  6
CONTINUOUS
 10
181.211838
 20
194.056512
 11
181.211125
 21
194.053773
  0
LINE
  8
1
 62
7
  6
CONTINUOUS
 10
181.211125
 20
194.053773
 11
181.210335
 21
194.050593
  0
LINE
  8
1
 62
7
  6
CONTINUOUS
 10
181.210335
 20
194.050593
 11
181.209478
 21
194.046953
  0
LINE
  8
1
 62
7
  6
CONTINUOUS
 10
181.209478
 20
194.046953
 11
181.208567
 21
194.042852
  0
LINE
  8
1
 62
7
  6
CONTINUOUS
 10
181.208567
 20
194.042852
 11
181.207620
 21
194.038330
  0
LINE
  8
1
 62
7
  6
CONTINUOUS
 10
181.207620
 20
194.038330
 11
181.206660
 21
194.033482
  0
LINE
  8
1
 62
7
  6
CONTINUOUS
 10
181.206660
 20
194.033482
 11
181.205716
 21
194.028470
  0
LINE
  8
1
 62
7
  6
CONTINUOUS
 10
181.205716
 20
194.028470
 11
181.204822
 21
194.023516
  0
LINE
  8
1
 62
7
  6
CONTINUOUS
 10
181.204822
 20
194.023516
 11
181.204017
 21
194.018891
  0
LINE
  8
1
 62
7
  6
CONTINUOUS
 10
181.204017
 20
194.018891
 11
181.203339
 21
194.014888
  0
LINE
  8
1
 62
7
  6
CONTINUOUS
 10
181.203339
 20
194.014888
 11
181.202825
 21
194.011787
  0
LINE
  8
1
 62
7
  6
CONTINUOUS
 10
181.202825
 20
194.011787
 11
181.202504
 21
194.009823
  0
LINE
  8
1
 62
7
  6
CONTINUOUS
 10
181.202504
 20
194.009823
 11
181.202394
 21
194.009150
  0
LINE
  8
1
 62
7
  6
CONTINUOUS
 10
181.202394
 20
194.009150
 11
181.202285
 21
194.008471
  0
LINE
  8
1
 62
7
  6
CONTINUOUS
 10
181.202285
 20
194.008471
 11
181.201954
 21
194.006417
  0
LINE
  8
1
 62
7
  6
CONTINUOUS
 10
181.201954
 20
194.006417
 11
181.201403
 21
194.002945
  0
LINE
  8
1
 62
7
  6
CONTINUOUS
 10
181.201403
 20
194.002945
 11
181.200631
 21
193.998008
  0
LINE
  8
1
 62
7
  6
CONTINUOUS
 10
181.200631
 20
193.998008
 11
181.199647
 21
193.991584
  0
LINE
  8
1
 62
7
  6
CONTINUOUS
 10
181.199647
 20
193.991584
 11
181.198465
 21
193.983713
  0
LINE
  8
1
 62
7
  6
CONTINUOUS
 10
181.198465
 20
193.983713
 11
181.197115
 21
193.974515
  0
LINE
  8
1
 62
7
  6
CONTINUOUS
 10
181.197115
 20
193.974515
 11
181.195635
 21
193.964212
  0
LINE
  8
1
 62
7
  6
CONTINUOUS
 10
181.195635
 20
193.964212
 11
181.194075
 21
193.953114
  0
LINE
  8
1
 62
7
  6
CONTINUOUS
 10
181.194075
 20
193.953114
 11
181.192493
 21
193.941610
  0
LINE
  8
1
 62
7
  6
CONTINUOUS
 10
181.192493
 20
193.941610
 11
181.190948
 21
193.930123
  0
LINE
  8
1
 62
7
  6
CONTINUOUS
 10
181.190948
 20
193.930123
 11
181.189495
 21
193.919083
  0
LINE
  8
1
 62
7
  6
CONTINUOUS
 10
181.189495
 20
193.919083
 11
181.188181
 21
193.908882
  0
LINE
  8
1
 62
7
  6
CONTINUOUS
 10
181.188181
 20
193.908882
 11
181.187043
 21
193.899848
  0
LINE
  8
1
 62
7
  6
CONTINUOUS
 10
181.187043
 20
193.899848
 11
181.186102
 21
193.892229
  0
LINE
  8
1
 62
7
  6
CONTINUOUS
 10
181.186102
 20
193.892229
 11
181.185371
 21
193.886194
  0
LINE
  8
1
 62
7
  6
CONTINUOUS
 10
181.185371
 20
193.886194
 11
181.184852
 21
193.881840
  0
LINE
  8
1
 62
7
  6
CONTINUOUS
 10
181.184852
 20
193.881840
 11
181.184543
 21
193.879216
  0
LINE
  8
1
 62
7
  6
CONTINUOUS
 10
181.184543
 20
193.879216
 11
181.184440
 21
193.878339
  0
LINE
  8
1
 62
7
  6
CONTINUOUS
 10
181.184440
 20
193.878339
 11
181.184338
 21
193.877467
  0
LINE
  8
1
 62
7
  6
CONTINUOUS
 10
181.184338
 20
193.877467
 11
181.184039
 21
193.874892
  0
LINE
  8
1
 62
7
  6
CONTINUOUS
 10
181.184039
 20
193.874892
 11
181.183565
 21
193.870740
  0
LINE
  8
1
 62
7
  6
CONTINUOUS
 10
181.183565
 20
193.870740
 11
181.182945
 21
193.865200
  0
LINE
  8
1
 62
7
  6
CONTINUOUS
 10
181.182945
 20
193.865200
 11
181.182221
 21
193.858504
  0
LINE
  8
1
 62
7
  6
CONTINUOUS
 10
181.182221
 20
193.858504
 11
181.181437
 21
193.850900
  0
LINE
  8
1
 62
7
  6
CONTINUOUS
 10
181.181437
 20
193.850900
 11
181.180639
 21
193.842629
  0
LINE
  8
1
 62
7
  6
CONTINUOUS
 10
181.180639
 20
193.842629
 11
181.179866
 21
193.833912
  0
LINE
  8
1
 62
7
  6
CONTINUOUS
 10
181.179866
 20
193.833912
 11
181.179154
 21
193.824946
  0
LINE
  8
1
 62
7
  6
CONTINUOUS
 10
181.179154
 20
193.824946
 11
181.178529
 21
193.815907
  0
LINE
  8
1
 62
7
  6
CONTINUOUS
 10
181.178529
 20
193.815907
 11
181.178006
 21
193.806963
  0
LINE
  8
1
 62
7
  6
CONTINUOUS
 10
181.178006
 20
193.806963
 11
181.177590
 21
193.798287
  0
LINE
  8
1
 62
7
  6
CONTINUOUS
 10
181.177590
 20
193.798287
 11
181.177277
 21
193.790072
  0
LINE
  8
1
 62
7
  6
CONTINUOUS
 10
181.177277
 20
193.790072
 11
181.177055
 21
193.782533
  0
LINE
  8
1
 62
7
  6
CONTINUOUS
 10
181.177055
 20
193.782533
 11
181.176910
 21
193.775904
  0
LINE
  8
1
 62
7
  6
CONTINUOUS
 10
181.176910
 20
193.775904
 11
181.176822
 21
193.770426
  0
LINE
  8
1
 62
7
  6
CONTINUOUS
 10
181.176822
 20
193.770426
 11
181.176774
 21
193.766323
  0
LINE
  8
1
 62
7
  6
CONTINUOUS
 10
181.176774
 20
193.766323
 11
181.176752
 21
193.763780
  0
LINE
  8
1
 62
7
  6
CONTINUOUS
 10
181.176752
 20
193.763780
 11
181.176745
 21
193.762918
  0
LINE
  8
1
 62
7
  6
CONTINUOUS
 10
181.176745
 20
193.762918
 11
181.176740
 21
193.762053
  0
LINE
  8
1
 62
7
  6
CONTINUOUS
 10
181.176740
 20
193.762053
 11
181.176726
 21
193.759463
  0
LINE
  8
1
 62
7
  6
CONTINUOUS
 10
181.176726
 20
193.759463
 11
181.176717
 21
193.755164
  0
LINE
  8
1
 62
7
  6
CONTINUOUS
 10
181.176717
 20
193.755164
 11
181.176733
 21
193.749196
  0
LINE
  8
1
 62
7
  6
CONTINUOUS
 10
181.176733
 20
193.749196
 11
181.176807
 21
193.741637
  0
LINE
  8
1
 62
7
  6
CONTINUOUS
 10
181.176807
 20
193.741637
 11
181.176983
 21
193.732611
  0
LINE
  8
1
 62
7
  6
CONTINUOUS
 10
181.176983
 20
193.732611
 11
181.177310
 21
193.722308
  0
LINE
  8
1
 62
7
  6
CONTINUOUS
 10
181.177310
 20
193.722308
 11
181.177842
 21
193.710979
  0
LINE
  8
1
 62
7
  6
CONTINUOUS
 10
181.177842
 20
193.710979
 11
181.178626
 21
193.698938
  0
LINE
  8
1
 62
7
  6
CONTINUOUS
 10
181.178626
 20
193.698938
 11
181.179692
 21
193.686544
  0
LINE
  8
1
 62
7
  6
CONTINUOUS
 10
181.179692
 20
193.686544
 11
181.181044
 21
193.674188
  0
LINE
  8
1
 62
7
  6
CONTINUOUS
 10
181.181044
 20
193.674188
 11
181.182651
 21
193.662264
  0
LINE
  8
1
 62
7
  6
CONTINUOUS
 10
181.182651
 20
193.662264
 11
181.184444
 21
193.651150
  0
LINE
  8
1
 62
7
  6
CONTINUOUS
 10
181.184444
 20
193.651150
 11
181.186316
 21
193.641186
  0
LINE
  8
1
 62
7
  6
CONTINUOUS
 10
181.186316
 20
193.641186
 11
181.188135
 21
193.632661
  0
LINE
  8
1
 62
7
  6
CONTINUOUS
 10
181.188135
 20
193.632661
 11
181.189754
 21
193.625806
  0
LINE
  8
1
 62
7
  6
CONTINUOUS
 10
181.189754
 20
193.625806
 11
181.191033
 21
193.620794
  0
LINE
  8
1
 62
7
  6
CONTINUOUS
 10
181.191033
 20
193.620794
 11
181.191852
 21
193.617743
  0
LINE
  8
1
 62
7
  6
CONTINUOUS
 10
181.191852
 20
193.617743
 11
181.192135
 21
193.616718
  0
LINE
  8
1
 62
7
  6
CONTINUOUS
 10
181.192135
 20
193.616718
 11
181.192420
 21
193.615695
  0
LINE
  8
1
 62
7
  6
CONTINUOUS
 10
181.192420
 20
193.615695
 11
181.193289
 21
193.612659
  0
LINE
  8
1
 62
7
  6
CONTINUOUS
 10
181.193289
 20
193.612659
 11
181.194773
 21
193.607712
  0
LINE
  8
1
 62
7
  6
CONTINUOUS
 10
181.194773
 20
193.607712
 11
181.196912
 21
193.601020
  0
LINE
  8
1
 62
7
  6
CONTINUOUS
 10
181.196912
 20
193.601020
 11
181.199741
 21
193.592803
  0
LINE
  8
1
 62
7
  6
CONTINUOUS
 10
181.199741
 20
193.592803
 11
181.203269
 21
193.583332
  0
LINE
  8
1
 62
7
  6
CONTINUOUS
 10
181.203269
 20
193.583332
 11
181.207468
 21
193.572910
  0
LINE
  8
1
 62
7
  6
CONTINUOUS
 10
181.207468
 20
193.572910
 11
181.212265
 21
193.561867
  0
LINE
  8
1
 62
7
  6
CONTINUOUS
 10
181.212265
 20
193.561867
 11
181.217535
 21
193.550540
  0
LINE
  8
1
 62
7
  6
CONTINUOUS
 10
181.217535
 20
193.550540
 11
181.223113
 21
193.539262
  0
LINE
  8
1
 62
7
  6
CONTINUOUS
 10
181.223113
 20
193.539262
 11
181.228800
 21
193.528349
  0
LINE
  8
1
 62
7
  6
CONTINUOUS
 10
181.228800
 20
193.528349
 11
181.234385
 21
193.518089
  0
LINE
  8
1
 62
7
  6
CONTINUOUS
 10
181.234385
 20
193.518089
 11
181.239659
 21
193.508735
  0
LINE
  8
1
 62
7
  6
CONTINUOUS
 10
181.239659
 20
193.508735
 11
181.244431
 21
193.500500
  0
LINE
  8
1
 62
7
  6
CONTINUOUS
 10
181.244431
 20
193.500500
 11
181.248538
 21
193.493554
  0
LINE
  8
1
 62
7
  6
CONTINUOUS
 10
181.248538
 20
193.493554
 11
181.251853
 21
193.488029
  0
LINE
  8
1
 62
7
  6
CONTINUOUS
 10
181.251853
 20
193.488029
 11
181.254281
 21
193.484020
  0
LINE
  8
1
 62
7
  6
CONTINUOUS
 10
181.254281
 20
193.484020
 11
181.255761
 21
193.481591
  0
LINE
  8
1
 62
7
  6
CONTINUOUS
 10
181.255761
 20
193.481591
 11
181.256258
 21
193.480778
  0
LINE
  8
1
 62
7
  6
CONTINUOUS
 10
181.256258
 20
193.480778
 11
181.256754
 21
193.479966
  0
LINE
  8
1
 62
7
  6
CONTINUOUS
 10
181.256754
 20
193.479966
 11
181.258227
 21
193.477563
  0
LINE
  8
1
 62
7
  6
CONTINUOUS
 10
181.258227
 20
193.477563
 11
181.260629
 21
193.473666
  0
LINE
  8
1
 62
7
  6
CONTINUOUS
 10
181.260629
 20
193.473666
 11
181.263883
 21
193.468428
  0
LINE
  8
1
 62
7
  6
CONTINUOUS
 10
181.263883
 20
193.468428
 11
181.267885
 21
193.462050
  0
LINE
  8
1
 62
7
  6
CONTINUOUS
 10
181.267885
 20
193.462050
 11
181.272515
 21
193.454771
  0
LINE
  8
1
 62
7
  6
CONTINUOUS
 10
181.272515
 20
193.454771
 11
181.277635
 21
193.446851
  0
LINE
  8
1
 62
7
  6
CONTINUOUS
 10
181.277635
 20
193.446851
 11
181.283096
 21
193.438558
  0
LINE
  8
1
 62
7
  6
CONTINUOUS
 10
181.283096
 20
193.438558
 11
181.288748
 21
193.430159
  0
LINE
  8
1
 62
7
  6
CONTINUOUS
 10
181.288748
 20
193.430159
 11
181.294437
 21
193.421902
  0
LINE
  8
1
 62
7
  6
CONTINUOUS
 10
181.294437
 20
193.421902
 11
181.300013
 21
193.414012
  0
LINE
  8
1
 62
7
  6
CONTINUOUS
 10
181.300013
 20
193.414012
 11
181.305330
 21
193.406683
  0
LINE
  8
1
 62
7
  6
CONTINUOUS
 10
181.305330
 20
193.406683
 11
181.310253
 21
193.400076
  0
LINE
  8
1
 62
7
  6
CONTINUOUS
 10
181.310253
 20
193.400076
 11
181.314655
 21
193.394317
  0
LINE
  8
1
 62
7
  6
CONTINUOUS
 10
181.314655
 20
193.394317
 11
181.318424
 21
193.389502
  0
LINE
  8
1
 62
7
  6
CONTINUOUS
 10
181.318424
 20
193.389502
 11
181.321462
 21
193.385700
  0
LINE
  8
1
 62
7
  6
CONTINUOUS
 10
181.321462
 20
193.385700
 11
181.323691
 21
193.382956
  0
LINE
  8
1
 62
7
  6
CONTINUOUS
 10
181.323691
 20
193.382956
 11
181.325053
 21
193.381300
  0
LINE
  8
1
 62
7
  6
CONTINUOUS
 10
181.325053
 20
193.381300
 11
181.325510
 21
193.380746
  0
LINE
  8
1
 62
7
  6
CONTINUOUS
 10
181.325510
 20
193.380746
 11
181.325968
 21
193.380194
  0
LINE
  8
1
 62
7
  6
CONTINUOUS
 10
181.325968
 20
193.380194
 11
181.327328
 21
193.378564
  0
LINE
  8
1
 62
7
  6
CONTINUOUS
 10
181.327328
 20
193.378564
 11
181.329553
 21
193.375928
  0
LINE
  8
1
 62
7
  6
CONTINUOUS
 10
181.329553
 20
193.375928
 11
181.332581
 21
193.372401
  0
LINE
  8
1
 62
7
  6
CONTINUOUS
 10
181.332581
 20
193.372401
 11
181.336326
 21
193.368128
  0
LINE
  8
1
 62
7
  6
CONTINUOUS
 10
181.336326
 20
193.368128
 11
181.340685
 21
193.363274
  0
LINE
  8
1
 62
7
  6
CONTINUOUS
 10
181.340685
 20
193.363274
 11
181.345539
 21
193.358009
  0
LINE
  8
1
 62
7
  6
CONTINUOUS
 10
181.345539
 20
193.358009
 11
181.350753
 21
193.352502
  0
LINE
  8
1
 62
7
  6
CONTINUOUS
 10
181.350753
 20
193.352502
 11
181.356185
 21
193.346910
  0
LINE
  8
1
 62
7
  6
CONTINUOUS
 10
181.356185
 20
193.346910
 11
181.361688
 21
193.341379
  0
LINE
  8
1
 62
7
  6
CONTINUOUS
 10
181.361688
 20
193.341379
 11
181.367111
 21
193.336038
  0
LINE
  8
1
 62
7
  6
CONTINUOUS
 10
181.367111
 20
193.336038
 11
181.372308
 21
193.331006
  0
LINE
  8
1
 62
7
  6
CONTINUOUS
 10
181.372308
 20
193.331006
 11
181.377139
 21
193.326388
  0
LINE
  8
1
 62
7
  6
CONTINUOUS
 10
181.377139
 20
193.326388
 11
181.381472
 21
193.322283
  0
LINE
  8
1
 62
7
  6
CONTINUOUS
 10
181.381472
 20
193.322283
 11
181.385190
 21
193.318782
  0
LINE
  8
1
 62
7
  6
CONTINUOUS
 10
181.385190
 20
193.318782
 11
181.388193
 21
193.315963
  0
LINE
  8
1
 62
7
  6
CONTINUOUS
 10
181.388193
 20
193.315963
 11
181.390397
 21
193.313896
  0
LINE
  8
1
 62
7
  6
CONTINUOUS
 10
181.390397
 20
193.313896
 11
181.391745
 21
193.312633
  0
LINE
  8
1
 62
7
  6
CONTINUOUS
 10
181.391745
 20
193.312633
 11
181.392198
 21
193.312209
  0
LINE
  8
1
 62
7
  6
CONTINUOUS
 10
182.820943
 20
194.656791
 11
182.762920
 21
194.428456
  0
LINE
  8
1
 62
7
  6
CONTINUOUS
 10
182.049506
 20
194.504734
 11
182.052901
 21
194.504940
  0
LINE
  8
1
 62
7
  6
CONTINUOUS
 10
182.052901
 20
194.504940
 11
182.062994
 21
194.505554
  0
LINE
  8
1
 62
7
  6
CONTINUOUS
 10
182.062994
 20
194.505554
 11
182.079500
 21
194.506554
  0
LINE
  8
1
 62
7
  6
CONTINUOUS
 10
182.079500
 20
194.506554
 11
182.101942
 21
194.507900
  0
LINE
  8
1
 62
7
  6
CONTINUOUS
 10
182.101942
 20
194.507900
 11
182.129646
 21
194.509524
  0
LINE
  8
1
 62
7
  6
CONTINUOUS
 10
182.129646
 20
194.509524
 11
182.161742
 21
194.511328
  0
LINE
  8
1
 62
7
  6
CONTINUOUS
 10
182.161742
 20
194.511328
 11
182.197188
 21
194.513182
  0
LINE
  8
1
 62
7
  6
CONTINUOUS
 10
182.197188
 20
194.513182
 11
182.234809
 21
194.514933
  0
LINE
  8
1
 62
7
  6
CONTINUOUS
 10
182.234809
 20
194.514933
 11
182.273347
 21
194.516423
  0
LINE
  8
1
 62
7
  6
CONTINUOUS
 10
182.273347
 20
194.516423
 11
182.311541
 21
194.517508
  0
LINE
  8
1
 62
7
  6
CONTINUOUS
 10
182.311541
 20
194.517508
 11
182.348193
 21
194.518084
  0
LINE
  8
1
 62
7
  6
CONTINUOUS
 10
182.348193
 20
194.518084
 11
182.382245
 21
194.518106
  0
LINE
  8
1
 62
7
  6
CONTINUOUS
 10
182.382245
 20
194.518106
 11
182.412828
 21
194.517602
  0
LINE
  8
1
 62
7
  6
CONTINUOUS
 10
182.412828
 20
194.517602
 11
182.439293
 21
194.516677
  0
LINE
  8
1
 62
7
  6
CONTINUOUS
 10
182.439293
 20
194.516677
 11
182.461207
 21
194.515496
  0
LINE
  8
1
 62
7
  6
CONTINUOUS
 10
182.461207
 20
194.515496
 11
182.478330
 21
194.514264
  0
LINE
  8
1
 62
7
  6
CONTINUOUS
 10
182.478330
 20
194.514264
 11
182.490562
 21
194.513192
  0
LINE
  8
1
 62
7
  6
CONTINUOUS
 10
182.490562
 20
194.513192
 11
182.497890
 21
194.512466
  0
LINE
  8
1
 62
7
  6
CONTINUOUS
 10
182.497890
 20
194.512466
 11
182.500329
 21
194.512209
  0
LINE
  8
1
 62
7
  6
CONTINUOUS
 10
182.500329
 20
194.512209
 11
182.502755
 21
194.511945
  0
LINE
  8
1
 62
7
  6
CONTINUOUS
 10
182.502755
 20
194.511945
 11
182.509890
 21
194.511126
  0
LINE
  8
1
 62
7
  6
CONTINUOUS
 10
182.509890
 20
194.511126
 11
182.521323
 21
194.509667
  0
LINE
  8
1
 62
7
  6
CONTINUOUS
 10
182.521323
 20
194.509667
 11
182.536422
 21
194.507454
  0
LINE
  8
1
 62
7
  6
CONTINUOUS
 10
182.536422
 20
194.507454
 11
182.554409
 21
194.504369
  0
LINE
  8
1
 62
7
  6
CONTINUOUS
 10
182.554409
 20
194.504369
 11
182.574435
 21
194.500323
  0
LINE
  8
1
 62
7
  6
CONTINUOUS
 10
182.574435
 20
194.500323
 11
182.595664
 21
194.495287
  0
LINE
  8
1
 62
7
  6
CONTINUOUS
 10
182.595664
 20
194.495287
 11
182.617334
 21
194.489307
  0
LINE
  8
1
 62
7
  6
CONTINUOUS
 10
182.617334
 20
194.489307
 11
182.638791
 21
194.482518
  0
LINE
  8
1
 62
7
  6
CONTINUOUS
 10
182.638791
 20
194.482518
 11
182.659511
 21
194.475134
  0
LINE
  8
1
 62
7
  6
CONTINUOUS
 10
182.659511
 20
194.475134
 11
182.679082
 21
194.467432
  0
LINE
  8
1
 62
7
  6
CONTINUOUS
 10
182.679082
 20
194.467432
 11
182.697183
 21
194.459723
  0
LINE
  8
1
 62
7
  6
CONTINUOUS
 10
182.697183
 20
194.459723
 11
182.713549
 21
194.452329
  0
LINE
  8
1
 62
7
  6
CONTINUOUS
 10
182.713549
 20
194.452329
 11
182.727944
 21
194.445554
  0
LINE
  8
1
 62
7
  6
CONTINUOUS
 10
182.727944
 20
194.445554
 11
182.740142
 21
194.439663
  0
LINE
  8
1
 62
7
  6
CONTINUOUS
 10
182.740142
 20
194.439663
 11
182.749921
 21
194.434872
  0
LINE
  8
1
 62
7
  6
CONTINUOUS
 10
182.749921
 20
194.434872
 11
182.757080
 21
194.431342
  0
LINE
  8
1
 62
7
  6
CONTINUOUS
 10
182.757080
 20
194.431342
 11
182.761451
 21
194.429182
  0
LINE
  8
1
 62
7
  6
CONTINUOUS
 10
182.761451
 20
194.429182
 11
182.762920
 21
194.428456
  0
LINE
  8
1
 62
7
  6
CONTINUOUS
 10
182.361702
 20
194.327813
 11
182.670573
 21
194.080027
  0
ARC
  8
1
 62
7
  6
CONTINUOUS
 10
182.261581
 20
194.203010
 40
0.160000
 50
51.262333
 51
165.155640
  0
LINE
  8
1
 62
7
  6
CONTINUOUS
 10
181.758301
 20
194.504734
 11
181.747793
 21
194.503087
  0
LINE
  8
1
 62
7
  6
CONTINUOUS
 10
181.747793
 20
194.503087
 11
181.737313
 21
194.501290
  0
LINE
  8
1
 62
7
  6
CONTINUOUS
 10
181.737313
 20
194.501290
 11
181.726862
 21
194.499342
  0
LINE
  8
1
 62
7
  6
CONTINUOUS
 10
181.726862
 20
194.499342
 11
181.716444
 21
194.497245
  0
LINE
  8
1
 62
7
  6
CONTINUOUS
 10
181.716444
 20
194.497245
 11
181.706061
 21
194.494998
  0
LINE
  8
1
 62
7
  6
CONTINUOUS
 10
181.706061
 20
194.494998
 11
181.695716
 21
194.492602
  0
LINE
  8
1
 62
7
  6
CONTINUOUS
 10
181.695716
 20
194.492602
 11
181.685411
 21
194.490058
  0
LINE
  8
1
 62
7
  6
CONTINUOUS
 10
181.685411
 20
194.490058
 11
181.675149
 21
194.487367
  0
LINE
  8
1
 62
7
  6
CONTINUOUS
 10
181.675149
 20
194.487367
 11
181.664933
 21
194.484529
  0
LINE
  8
1
 62
7
  6
CONTINUOUS
 10
181.664933
 20
194.484529
 11
181.654766
 21
194.481544
  0
LINE
  8
1
 62
7
  6
CONTINUOUS
 10
181.654766
 20
194.481544
 11
181.644649
 21
194.478415
  0
LINE
  8
1
 62
7
  6
CONTINUOUS
 10
181.644649
 20
194.478415
 11
181.634586
 21
194.475141
  0
LINE
  8
1
 62
7
  6
CONTINUOUS
 10
181.634586
 20
194.475141
 11
181.624579
 21
194.471723
  0
LINE
  8
1
 62
7
  6
CONTINUOUS
 10
181.624579
 20
194.471723
 11
181.614631
 21
194.468162
  0
LINE
  8
1
 62
7
  6
CONTINUOUS
 10
181.614631
 20
194.468162
 11
181.604743
 21
194.464459
  0
LINE
  8
1
 62
7
  6
CONTINUOUS
 10
181.604743
 20
194.464459
 11
181.594920
 21
194.460616
  0
LINE
  8
1
 62
7
  6
CONTINUOUS
 10
181.594920
 20
194.460616
 11
181.585162
 21
194.456632
  0
LINE
  8
1
 62
7
  6
CONTINUOUS
 10
181.585162
 20
194.456632
 11
181.575474
 21
194.452509
  0
LINE
  8
1
 62
7
  6
CONTINUOUS
 10
181.575474
 20
194.452509
 11
181.565856
 21
194.448249
  0
LINE
  8
1
 62
7
  6
CONTINUOUS
 10
181.565856
 20
194.448249
 11
181.556312
 21
194.443851
  0
LINE
  8
1
 62
7
  6
CONTINUOUS
 10
181.556312
 20
194.443851
 11
181.546845
 21
194.439318
  0
LINE
  8
1
 62
7
  6
CONTINUOUS
 10
181.546845
 20
194.439318
 11
181.537455
 21
194.434651
  0
LINE
  8
1
 62
7
  6
CONTINUOUS
 10
181.537455
 20
194.434651
 11
181.528147
 21
194.429850
  0
LINE
  8
1
 62
7
  6
CONTINUOUS
 10
181.528147
 20
194.429850
 11
181.518922
 21
194.424916
  0
LINE
  8
1
 62
7
  6
CONTINUOUS
 10
181.518922
 20
194.424916
 11
181.509782
 21
194.419852
  0
LINE
  8
1
 62
7
  6
CONTINUOUS
 10
181.509782
 20
194.419852
 11
181.500730
 21
194.414659
  0
LINE
  8
1
 62
7
  6
CONTINUOUS
 10
181.500730
 20
194.414659
 11
181.491769
 21
194.409337
  0
LINE
  8
1
 62
7
  6
CONTINUOUS
 10
181.491769
 20
194.409337
 11
181.482900
 21
194.403888
  0
LINE
  8
1
 62
7
  6
CONTINUOUS
 10
181.482900
 20
194.403888
 11
181.474126
 21
194.398313
  0
LINE
  8
1
 62
7
  6
CONTINUOUS
 10
181.474126
 20
194.398313
 11
181.465449
 21
194.392615
  0
LINE
  8
1
 62
7
  6
CONTINUOUS
 10
181.465449
 20
194.392615
 11
181.456871
 21
194.386794
  0
LINE
  8
1
 62
7
  6
CONTINUOUS
 10
181.456871
 20
194.386794
 11
181.448395
 21
194.380851
  0
LINE
  8
1
 62
7
  6
CONTINUOUS
 10
181.448395
 20
194.380851
 11
181.440022
 21
194.374790
  0
LINE
  8
1
 62
7
  6
CONTINUOUS
 10
181.440022
 20
194.374790
 11
181.431755
 21
194.368610
  0
LINE
  8
1
 62
7
  6
CONTINUOUS
 10
181.431755
 20
194.368610
 11
181.423596
 21
194.362313
  0
LINE
  8
1
 62
7
  6
CONTINUOUS
 10
181.423596
 20
194.362313
 11
181.415546
 21
194.355902
  0
LINE
  8
1
 62
7
  6
CONTINUOUS
 10
181.415546
 20
194.355902
 11
181.407609
 21
194.349377
  0
LINE
  8
1
 62
7
  6
CONTINUOUS
 10
181.407609
 20
194.349377
 11
181.399786
 21
194.342741
  0
LINE
  8
1
 62
7
  6
CONTINUOUS
 10
181.399786
 20
194.342741
 11
181.392079
 21
194.335994
  0
LINE
  8
1
 62
7
  6
CONTINUOUS
 10
181.392079
 20
194.335994
 11
181.384490
 21
194.329140
  0
LINE
  8
1
 62
7
  6
CONTINUOUS
 10
181.384490
 20
194.329140
 11
181.377020
 21
194.322179
  0
LINE
  8
1
 62
7
  6
CONTINUOUS
 10
181.377020
 20
194.322179
 11
181.369673
 21
194.315114
  0
LINE
  8
1
 62
7
  6
CONTINUOUS
 10
181.369673
 20
194.315114
 11
181.362449
 21
194.307945
  0
LINE
  8
1
 62
7
  6
CONTINUOUS
 10
181.362449
 20
194.307945
 11
181.355351
 21
194.300676
  0
LINE
  8
1
 62
7
  6
CONTINUOUS
 10
181.355351
 20
194.300676
 11
181.348380
 21
194.293307
  0
LINE
  8
1
 62
7
  6
CONTINUOUS
 10
181.348380
 20
194.293307
 11
181.341538
 21
194.285841
  0
LINE
  8
1
 62
7
  6
CONTINUOUS
 10
181.341538
 20
194.285841
 11
181.334828
 21
194.278280
  0
LINE
  8
1
 62
7
  6
CONTINUOUS
 10
181.334828
 20
194.278280
 11
181.328249
 21
194.270626
  0
LINE
  8
1
 62
7
  6
CONTINUOUS
 10
181.328249
 20
194.270626
 11
181.321805
 21
194.262879
  0
LINE
  8
1
 62
7
  6
CONTINUOUS
 10
181.321805
 20
194.262879
 11
181.315497
 21
194.255044
  0
LINE
  8
1
 62
7
  6
CONTINUOUS
 10
181.315497
 20
194.255044
 11
181.309327
 21
194.247121
  0
LINE
  8
1
 62
7
  6
CONTINUOUS
 10
181.309327
 20
194.247121
 11
181.303295
 21
194.239112
  0
LINE
  8
1
 62
7
  6
CONTINUOUS
 10
181.303295
 20
194.239112
 11
181.297405
 21
194.231020
  0
LINE
  8
1
 62
7
  6
CONTINUOUS
 10
181.297405
 20
194.231020
 11
181.291656
 21
194.222846
  0
LINE
  8
1
 62
7
  6
CONTINUOUS
 10
181.291656
 20
194.222846
 11
181.286051
 21
194.214593
  0
LINE
  8
1
 62
7
  6
CONTINUOUS
 10
181.286051
 20
194.214593
 11
181.280591
 21
194.206263
  0
LINE
  8
1
 62
7
  6
CONTINUOUS
 10
181.280591
 20
194.206263
 11
181.275278
 21
194.197858
  0
LINE
  8
1
 62
7
  6
CONTINUOUS
 10
181.275278
 20
194.197858
 11
181.270112
 21
194.189380
  0
LINE
  8
1
 62
7
  6
CONTINUOUS
 10
181.270112
 20
194.189380
 11
181.265096
 21
194.180831
  0
LINE
  8
1
 62
7
  6
CONTINUOUS
 10
181.265096
 20
194.180831
 11
181.260230
 21
194.172214
  0
LINE
  8
1
 62
7
  6
CONTINUOUS
 10
181.260230
 20
194.172214
 11
181.255515
 21
194.163530
  0
LINE
  8
1
 62
7
  6
CONTINUOUS
 10
181.255515
 20
194.163530
 11
181.250953
 21
194.154782
  0
LINE
  8
1
 62
7
  6
CONTINUOUS
 10
181.250953
 20
194.154782
 11
181.246546
 21
194.145972
  0
LINE
  8
1
 62
7
  6
CONTINUOUS
 10
181.246546
 20
194.145972
 11
181.242293
 21
194.137103
  0
LINE
  8
1
 62
7
  6
CONTINUOUS
 10
181.242293
 20
194.137103
 11
181.238197
 21
194.128176
  0
LINE
  8
1
 62
7
  6
CONTINUOUS
 10
181.238197
 20
194.128176
 11
181.234258
 21
194.119194
  0
LINE
  8
1
 62
7
  6
CONTINUOUS
 10
181.234258
 20
194.119194
 11
181.230477
 21
194.110159
  0
LINE
  8
1
 62
7
  6
CONTINUOUS
 10
181.230477
 20
194.110159
 11
181.226856
 21
194.101073
  0
LINE
  8
1
 62
7
  6
CONTINUOUS
 10
181.226856
 20
194.101073
 11
181.223395
 21
194.091940
  0
LINE
  8
1
 62
7
  6
CONTINUOUS
 10
181.223395
 20
194.091940
 11
181.220094
 21
194.082760
  0
LINE
  8
1
 62
7
  6
CONTINUOUS
 10
181.220094
 20
194.082760
 11
181.216956
 21
194.073537
  0
LINE
  8
1
 62
7
  6
CONTINUOUS
 10
181.216956
 20
194.073537
 11
181.213980
 21
194.064273
  0
LINE
  8
1
 62
7
  6
CONTINUOUS
 10
181.758301
 20
194.504734
 11
182.101942
 21
194.504734
  0
LINE
  8
1
 62
7
  6
CONTINUOUS
 10
183.651983
 20
194.660275
 11
182.820943
 21
194.656791
  0
LINE
  8
1
 62
7
  6
CONTINUOUS
 10
183.890145
 20
194.064273
 11
183.890081
 21
194.064047
  0
LINE
  8
1
 62
7
  6
CONTINUOUS
 10
183.890081
 20
194.064047
 11
183.889892
 21
194.063375
  0
LINE
  8
1
 62
7
  6
CONTINUOUS
 10
183.889892
 20
194.063375
 11
183.889581
 21
194.062272
  0
LINE
  8
1
 62
7
  6
CONTINUOUS
 10
183.889581
 20
194.062272
 11
183.889157
 21
194.060754
  0
LINE
  8
1
 62
7
  6
CONTINUOUS
 10
183.889157
 20
194.060754
 11
183.888628
 21
194.058835
  0
LINE
  8
1
 62
7
  6
CONTINUOUS
 10
183.888628
 20
194.058835
 11
183.888002
 21
194.056512
  0
LINE
  8
1
 62
7
  6
CONTINUOUS
 10
183.888002
 20
194.056512
 11
183.887290
 21
194.053773
  0
LINE
  8
1
 62
7
  6
CONTINUOUS
 10
183.887290
 20
194.053773
 11
183.886500
 21
194.050593
  0
LINE
  8
1
 62
7
  6
CONTINUOUS
 10
183.886500
 20
194.050593
 11
183.885643
 21
194.046953
  0
LINE
  8
1
 62
7
  6
CONTINUOUS
 10
183.885643
 20
194.046953
 11
183.884732
 21
194.042852
  0
LINE
  8
1
 62
7
  6
CONTINUOUS
 10
183.884732
 20
194.042852
 11
183.883785
 21
194.038330
  0
LINE
  8
1
 62
7
  6
CONTINUOUS
 10
183.883785
 20
194.038330
 11
183.882825
 21
194.033482
  0
LINE
  8
1
 62
7
  6
CONTINUOUS
 10
183.882825
 20
194.033482
 11
183.881880
 21
194.028470
  0
LINE
  8
1
 62
7
  6
CONTINUOUS
 10
183.881880
 20
194.028470
 11
183.880987
 21
194.023516
  0
LINE
  8
1
 62
7
  6
CONTINUOUS
 10
183.880987
 20
194.023516
 11
183.880181
 21
194.018891
  0
LINE
  8
1
 62
7
  6
CONTINUOUS
 10
183.880181
 20
194.018891
 11
183.879504
 21
194.014888
  0
LINE
  8
1
 62
7
  6
CONTINUOUS
 10
183.879504
 20
194.014888
 11
183.878990
 21
194.011787
  0
LINE
  8
1
 62
7
  6
CONTINUOUS
 10
183.878990
 20
194.011787
 11
183.878668
 21
194.009823
  0
LINE
  8
1
 62
7
  6
CONTINUOUS
 10
183.878668
 20
194.009823
 11
183.878559
 21
194.009150
  0
LINE
  8
1
 62
7
  6
CONTINUOUS
 10
183.878559
 20
194.009150
 11
183.878449
 21
194.008471
  0
LINE
  8
1
 62
7
  6
CONTINUOUS
 10
183.878449
 20
194.008471
 11
183.878119
 21
194.006417
  0
LINE
  8
1
 62
7
  6
CONTINUOUS
 10
183.878119
 20
194.006417
 11
183.877567
 21
194.002945
  0
LINE
  8
1
 62
7
  6
CONTINUOUS
 10
183.877567
 20
194.002945
 11
183.876796
 21
193.998008
  0
LINE
  8
1
 62
7
  6
CONTINUOUS
 10
183.876796
 20
193.998008
 11
183.875811
 21
193.991584
  0
LINE
  8
1
 62
7
  6
CONTINUOUS
 10
183.875811
 20
193.991584
 11
183.874630
 21
193.983713
  0
LINE
  8
1
 62
7
  6
CONTINUOUS
 10
183.874630
 20
193.983713
 11
183.873279
 21
193.974515
  0
LINE
  8
1
 62
7
  6
CONTINUOUS
 10
183.873279
 20
193.974515
 11
183.871799
 21
193.964212
  0
LINE
  8
1
 62
7
  6
CONTINUOUS
 10
183.871799
 20
193.964212
 11
183.870240
 21
193.953114
  0
LINE
  8
1
 62
7
  6
CONTINUOUS
 10
183.870240
 20
193.953114
 11
183.868658
 21
193.941610
  0
LINE
  8
1
 62
7
  6
CONTINUOUS
 10
183.868658
 20
193.941610
 11
183.867112
 21
193.930123
  0
LINE
  8
1
 62
7
  6
CONTINUOUS
 10
183.867112
 20
193.930123
 11
183.865659
 21
193.919083
  0
LINE
  8
1
 62
7
  6
CONTINUOUS
 10
183.865659
 20
193.919083
 11
183.864346
 21
193.908882
  0
LINE
  8
1
 62
7
  6
CONTINUOUS
 10
183.864346
 20
193.908882
 11
183.863207
 21
193.899848
  0
LINE
  8
1
 62
7
  6
CONTINUOUS
 10
183.863207
 20
193.899848
 11
183.862267
 21
193.892229
  0
LINE
  8
1
 62
7
  6
CONTINUOUS
 10
183.862267
 20
193.892229
 11
183.861536
 21
193.886194
  0
LINE
  8
1
 62
7
  6
CONTINUOUS
 10
183.861536
 20
193.886194
 11
183.861017
 21
193.881840
  0
LINE
  8
1
 62
7
  6
CONTINUOUS
 10
183.861017
 20
193.881840
 11
183.860707
 21
193.879216
  0
LINE
  8
1
 62
7
  6
CONTINUOUS
 10
183.860707
 20
193.879216
 11
183.860605
 21
193.878339
  0
LINE
  8
1
 62
7
  6
CONTINUOUS
 10
183.860605
 20
193.878339
 11
183.860503
 21
193.877467
  0
LINE
  8
1
 62
7
  6
CONTINUOUS
 10
183.860503
 20
193.877467
 11
183.860204
 21
193.874892
  0
LINE
  8
1
 62
7
  6
CONTINUOUS
 10
183.860204
 20
193.874892
 11
183.859729
 21
193.870740
  0
LINE
  8
1
 62
7
  6
CONTINUOUS
 10
183.859729
 20
193.870740
 11
183.859110
 21
193.865200
  0
LINE
  8
1
 62
7
  6
CONTINUOUS
 10
183.859110
 20
193.865200
 11
183.858386
 21
193.858504
  0
LINE
  8
1
 62
7
  6
CONTINUOUS
 10
183.858386
 20
193.858504
 11
183.857602
 21
193.850900
  0
LINE
  8
1
 62
7
  6
CONTINUOUS
 10
183.857602
 20
193.850900
 11
183.856803
 21
193.842629
  0
LINE
  8
1
 62
7
  6
CONTINUOUS
 10
183.856803
 20
193.842629
 11
183.856031
 21
193.833912
  0
LINE
  8
1
 62
7
  6
CONTINUOUS
 10
183.856031
 20
193.833912
 11
183.855319
 21
193.824946
  0
LINE
  8
1
 62
7
  6
CONTINUOUS
 10
183.855319
 20
193.824946
 11
183.854694
 21
193.815907
  0
LINE
  8
1
 62
7
  6
CONTINUOUS
 10
183.854694
 20
193.815907
 11
183.854170
 21
193.806963
  0
LINE
  8
1
 62
7
  6
CONTINUOUS
 10
183.854170
 20
193.806963
 11
183.853754
 21
193.798287
  0
LINE
  8
1
 62
7
  6
CONTINUOUS
 10
183.853754
 20
193.798287
 11
183.853441
 21
193.790072
  0
LINE
  8
1
 62
7
  6
CONTINUOUS
 10
183.853441
 20
193.790072
 11
183.853220
 21
193.782533
  0
LINE
  8
1
 62
7
  6
CONTINUOUS
 10
183.853220
 20
193.782533
 11
183.853075
 21
193.775904
  0
LINE
  8
1
 62
7
  6
CONTINUOUS
 10
183.853075
 20
193.775904
 11
183.852987
 21
193.770426
  0
LINE
  8
1
 62
7
  6
CONTINUOUS
 10
183.852987
 20
193.770426
 11
183.852939
 21
193.766323
  0
LINE
  8
1
 62
7
  6
CONTINUOUS
 10
183.852939
 20
193.766323
 11
183.852916
 21
193.763780
  0
LINE
  8
1
 62
7
  6
CONTINUOUS
 10
183.852916
 20
193.763780
 11
183.852910
 21
193.762918
  0
LINE
  8
1
 62
7
  6
CONTINUOUS
 10
183.852910
 20
193.762918
 11
183.852904
 21
193.762053
  0
LINE
  8
1
 62
7
  6
CONTINUOUS
 10
183.852904
 20
193.762053
 11
183.852891
 21
193.759463
  0
LINE
  8
1
 62
7
  6
CONTINUOUS
 10
183.852891
 20
193.759463
 11
183.852881
 21
193.755164
  0
LINE
  8
1
 62
7
  6
CONTINUOUS
 10
183.852881
 20
193.755164
 11
183.852898
 21
193.749196
  0
LINE
  8
1
 62
7
  6
CONTINUOUS
 10
183.852898
 20
193.749196
 11
183.852972
 21
193.741637
  0
LINE
  8
1
 62
7
  6
CONTINUOUS
 10
183.852972
 20
193.741637
 11
183.853147
 21
193.732611
  0
LINE
  8
1
 62
7
  6
CONTINUOUS
 10
183.853147
 20
193.732611
 11
183.853475
 21
193.722308
  0
LINE
  8
1
 62
7
  6
CONTINUOUS
 10
183.853475
 20
193.722308
 11
183.854007
 21
193.710979
  0
LINE
  8
1
 62
7
  6
CONTINUOUS
 10
183.854007
 20
193.710979
 11
183.854790
 21
193.698938
  0
LINE
  8
1
 62
7
  6
CONTINUOUS
 10
183.854790
 20
193.698938
 11
183.855857
 21
193.686544
  0
LINE
  8
1
 62
7
  6
CONTINUOUS
 10
183.855857
 20
193.686544
 11
183.857209
 21
193.674188
  0
LINE
  8
1
 62
7
  6
CONTINUOUS
 10
183.857209
 20
193.674188
 11
183.858816
 21
193.662264
  0
LINE
  8
1
 62
7
  6
CONTINUOUS
 10
183.858816
 20
193.662264
 11
183.860609
 21
193.651150
  0
LINE
  8
1
 62
7
  6
CONTINUOUS
 10
183.860609
 20
193.651150
 11
183.862481
 21
193.641186
  0
LINE
  8
1
 62
7
  6
CONTINUOUS
 10
183.862481
 20
193.641186
 11
183.864300
 21
193.632661
  0
LINE
  8
1
 62
7
  6
CONTINUOUS
 10
183.864300
 20
193.632661
 11
183.865919
 21
193.625806
  0
LINE
  8
1
 62
7
  6
CONTINUOUS
 10
183.865919
 20
193.625806
 11
183.867198
 21
193.620794
  0
LINE
  8
1
 62
7
  6
CONTINUOUS
 10
183.867198
 20
193.620794
 11
183.868017
 21
193.617743
  0
LINE
  8
1
 62
7
  6
CONTINUOUS
 10
183.868017
 20
193.617743
 11
183.868300
 21
193.616718
  0
LINE
  8
1
 62
7
  6
CONTINUOUS
 10
183.868300
 20
193.616718
 11
183.868585
 21
193.615695
  0
LINE
  8
1
 62
7
  6
CONTINUOUS
 10
183.868585
 20
193.615695
 11
183.869454
 21
193.612659
  0
LINE
  8
1
 62
7
  6
CONTINUOUS
 10
183.869454
 20
193.612659
 11
183.870938
 21
193.607712
  0
LINE
  8
1
 62
7
  6
CONTINUOUS
 10
183.870938
 20
193.607712
 11
183.873077
 21
193.601020
  0
LINE
  8
1
 62
7
  6
CONTINUOUS
 10
183.873077
 20
193.601020
 11
183.875905
 21
193.592803
  0
LINE
  8
1
 62
7
  6
CONTINUOUS
 10
183.875905
 20
193.592803
 11
183.879433
 21
193.583332
  0
LINE
  8
1
 62
7
  6
CONTINUOUS
 10
183.879433
 20
193.583332
 11
183.883633
 21
193.572910
  0
LINE
  8
1
 62
7
  6
CONTINUOUS
 10
183.883633
 20
193.572910
 11
183.888430
 21
193.561867
  0
LINE
  8
1
 62
7
  6
CONTINUOUS
 10
183.888430
 20
193.561867
 11
183.893700
 21
193.550540
  0
LINE
  8
1
 62
7
  6
CONTINUOUS
 10
183.893700
 20
193.550540
 11
183.899278
 21
193.539262
  0
LINE
  8
1
 62
7
  6
CONTINUOUS
 10
183.899278
 20
193.539262
 11
183.904965
 21
193.528349
  0
LINE
  8
1
 62
7
  6
CONTINUOUS
 10
183.904965
 20
193.528349
 11
183.910550
 21
193.518089
  0
LINE
  8
1
 62
7
  6
CONTINUOUS
 10
183.910550
 20
193.518089
 11
183.915824
 21
193.508735
  0
LINE
  8
1
 62
7
  6
CONTINUOUS
 10
183.915824
 20
193.508735
 11
183.920596
 21
193.500500
  0
LINE
  8
1
 62
7
  6
CONTINUOUS
 10
183.920596
 20
193.500500
 11
183.924703
 21
193.493554
  0
LINE
  8
1
 62
7
  6
CONTINUOUS
 10
183.924703
 20
193.493554
 11
183.928018
 21
193.488029
  0
LINE
  8
1
 62
7
  6
CONTINUOUS
 10
183.928018
 20
193.488029
 11
183.930446
 21
193.484020
  0
LINE
  8
1
 62
7
  6
CONTINUOUS
 10
183.930446
 20
193.484020
 11
183.931925
 21
193.481591
  0
LINE
  8
1
 62
7
  6
CONTINUOUS
 10
183.931925
 20
193.481591
 11
183.932422
 21
193.480778
  0
LINE
  8
1
 62
7
  6
CONTINUOUS
 10
183.932422
 20
193.480778
 11
183.932919
 21
193.479966
  0
LINE
  8
1
 62
7
  6
CONTINUOUS
 10
183.932919
 20
193.479966
 11
183.934392
 21
193.477563
  0
LINE
  8
1
 62
7
  6
CONTINUOUS
 10
183.934392
 20
193.477563
 11
183.936794
 21
193.473666
  0
LINE
  8
1
 62
7
  6
CONTINUOUS
 10
183.936794
 20
193.473666
 11
183.940047
 21
193.468428
  0
LINE
  8
1
 62
7
  6
CONTINUOUS
 10
183.940047
 20
193.468428
 11
183.944050
 21
193.462050
  0
LINE
  8
1
 62
7
  6
CONTINUOUS
 10
183.944050
 20
193.462050
 11
183.948680
 21
193.454771
  0
LINE
  8
1
 62
7
  6
CONTINUOUS
 10
183.948680
 20
193.454771
 11
183.953799
 21
193.446851
  0
LINE
  8
1
 62
7
  6
CONTINUOUS
 10
183.953799
 20
193.446851
 11
183.959261
 21
193.438558
  0
LINE
  8
1
 62
7
  6
CONTINUOUS
 10
183.959261
 20
193.438558
 11
183.964913
 21
193.430159
  0
LINE
  8
1
 62
7
  6
CONTINUOUS
 10
183.964913
 20
193.430159
 11
183.970602
 21
193.421902
  0
LINE
  8
1
 62
7
  6
CONTINUOUS
 10
183.970602
 20
193.421902
 11
183.976177
 21
193.414012
  0
LINE
  8
1
 62
7
  6
CONTINUOUS
 10
183.976177
 20
193.414012
 11
183.981495
 21
193.406683
  0
LINE
  8
1
 62
7
  6
CONTINUOUS
 10
183.981495
 20
193.406683
 11
183.986418
 21
193.400076
  0
LINE
  8
1
 62
7
  6
CONTINUOUS
 10
183.986418
 20
193.400076
 11
183.990820
 21
193.394317
  0
LINE
  8
1
 62
7
  6
CONTINUOUS
 10
183.990820
 20
193.394317
 11
183.994589
 21
193.389502
  0
LINE
  8
1
 62
7
  6
CONTINUOUS
 10
183.994589
 20
193.389502
 11
183.997627
 21
193.385700
  0
LINE
  8
1
 62
7
  6
CONTINUOUS
 10
183.997627
 20
193.385700
 11
183.999856
 21
193.382956
  0
LINE
  8
1
 62
7
  6
CONTINUOUS
 10
183.999856
 20
193.382956
 11
184.001217
 21
193.381300
  0
LINE
  8
1
 62
7
  6
CONTINUOUS
 10
184.001217
 20
193.381300
 11
184.001675
 21
193.380746
  0
LINE
  8
1
 62
7
  6
CONTINUOUS
 10
184.001675
 20
193.380746
 11
184.002133
 21
193.380194
  0
LINE
  8
1
 62
7
  6
CONTINUOUS
 10
184.002133
 20
193.380194
 11
184.003493
 21
193.378564
  0
LINE
  8
1
 62
7
  6
CONTINUOUS
 10
184.003493
 20
193.378564
 11
184.005718
 21
193.375928
  0
LINE
  8
1
 62
7
  6
CONTINUOUS
 10
184.005718
 20
193.375928
 11
184.008745
 21
193.372401
  0
LINE
  8
1
 62
7
  6
CONTINUOUS
 10
184.008745
 20
193.372401
 11
184.012491
 21
193.368128
  0
LINE
  8
1
 62
7
  6
CONTINUOUS
 10
184.012491
 20
193.368128
 11
184.016850
 21
193.363274
  0
LINE
  8
1
 62
7
  6
CONTINUOUS
 10
184.016850
 20
193.363274
 11
184.021704
 21
193.358009
  0
LINE
  8
1
 62
7
  6
CONTINUOUS
 10
184.021704
 20
193.358009
 11
184.026918
 21
193.352502
  0
LINE
  8
1
 62
7
  6
CONTINUOUS
 10
184.026918
 20
193.352502
 11
184.032350
 21
193.346910
  0
LINE
  8
1
 62
7
  6
CONTINUOUS
 10
184.032350
 20
193.346910
 11
184.037852
 21
193.341379
  0
LINE
  8
1
 62
7
  6
CONTINUOUS
 10
184.037852
 20
193.341379
 11
184.043276
 21
193.336038
  0
LINE
  8
1
 62
7
  6
CONTINUOUS
 10
184.043276
 20
193.336038
 11
184.048473
 21
193.331006
  0
LINE
  8
1
 62
7
  6
CONTINUOUS
 10
184.048473
 20
193.331006
 11
184.053304
 21
193.326388
  0
LINE
  8
1
 62
7
  6
CONTINUOUS
 10
184.053304
 20
193.326388
 11
184.057637
 21
193.322283
  0
LINE
  8
1
 62
7
  6
CONTINUOUS
 10
184.057637
 20
193.322283
 11
184.061355
 21
193.318782
  0
LINE
  8
1
 62
7
  6
CONTINUOUS
 10
184.061355
 20
193.318782
 11
184.064357
 21
193.315963
  0
LINE
  8
1
 62
7
  6
CONTINUOUS
 10
184.064357
 20
193.315963
 11
184.066562
 21
193.313896
  0
LINE
  8
1
 62
7
  6
CONTINUOUS
 10
184.066562
 20
193.313896
 11
184.067910
 21
193.312633
  0
LINE
  8
1
 62
7
  6
CONTINUOUS
 10
184.067910
 20
193.312633
 11
184.068363
 21
193.312209
  0
LINE
  8
1
 62
7
  6
CONTINUOUS
 10
185.497108
 20
194.656791
 11
185.439085
 21
194.428456
  0
LINE
  8
1
 62
7
  6
CONTINUOUS
 10
184.725671
 20
194.504734
 11
184.729066
 21
194.504940
  0
LINE
  8
1
 62
7
  6
CONTINUOUS
 10
184.729066
 20
194.504940
 11
184.739158
 21
194.505554
  0
LINE
  8
1
 62
7
  6
CONTINUOUS
 10
184.739158
 20
194.505554
 11
184.755664
 21
194.506554
  0
LINE
  8
1
 62
7
  6
CONTINUOUS
 10
184.755664
 20
194.506554
 11
184.778107
 21
194.507900
  0
LINE
  8
1
 62
7
  6
CONTINUOUS
 10
184.778107
 20
194.507900
 11
184.805811
 21
194.509524
  0
LINE
  8
1
 62
7
  6
CONTINUOUS
 10
184.805811
 20
194.509524
 11
184.837907
 21
194.511328
  0
LINE
  8
1
 62
7
  6
CONTINUOUS
 10
184.837907
 20
194.511328
 11
184.873353
 21
194.513182
  0
LINE
  8
1
 62
7
  6
CONTINUOUS
 10
184.873353
 20
194.513182
 11
184.910973
 21
194.514933
  0
LINE
  8
1
 62
7
  6
CONTINUOUS
 10
184.910973
 20
194.514933
 11
184.949512
 21
194.516423
  0
LINE
  8
1
 62
7
  6
CONTINUOUS
 10
184.949512
 20
194.516423
 11
184.987705
 21
194.517508
  0
LINE
  8
1
 62
7
  6
CONTINUOUS
 10
184.987705
 20
194.517508
 11
185.024358
 21
194.518084
  0
LINE
  8
1
 62
7
  6
CONTINUOUS
 10
185.024358
 20
194.518084
 11
185.058410
 21
194.518106
  0
LINE
  8
1
 62
7
  6
CONTINUOUS
 10
185.058410
 20
194.518106
 11
185.088993
 21
194.517602
  0
LINE
  8
1
 62
7
  6
CONTINUOUS
 10
185.088993
 20
194.517602
 11
185.115457
 21
194.516677
  0
LINE
  8
1
 62
7
  6
CONTINUOUS
 10
185.115457
 20
194.516677
 11
185.137372
 21
194.515496
  0
LINE
  8
1
 62
7
  6
CONTINUOUS
 10
185.137372
 20
194.515496
 11
185.154495
 21
194.514264
  0
LINE
  8
1
 62
7
  6
CONTINUOUS
 10
185.154495
 20
194.514264
 11
185.166727
 21
194.513192
  0
LINE
  8
1
 62
7
  6
CONTINUOUS
 10
185.166727
 20
194.513192
 11
185.174054
 21
194.512466
  0
LINE
  8
1
 62
7
  6
CONTINUOUS
 10
185.174054
 20
194.512466
 11
185.176493
 21
194.512209
  0
LINE
  8
1
 62
7
  6
CONTINUOUS
 10
185.176493
 20
194.512209
 11
185.178919
 21
194.511945
  0
LINE
  8
1
 62
7
  6
CONTINUOUS
 10
185.178919
 20
194.511945
 11
185.186054
 21
194.511126
  0
LINE
  8
1
 62
7
  6
CONTINUOUS
 10
185.186054
 20
194.511126
 11
185.197487
 21
194.509667
  0
LINE
  8
1
 62
7
  6
CONTINUOUS
 10
185.197487
 20
194.509667
 11
185.212587
 21
194.507454
  0
LINE
  8
1
 62
7
  6
CONTINUOUS
 10
185.212587
 20
194.507454
 11
185.230573
 21
194.504369
  0
LINE
  8
1
 62
7
  6
CONTINUOUS
 10
185.230573
 20
194.504369
 11
185.250600
 21
194.500323
  0
LINE
  8
1
 62
7
  6
CONTINUOUS
 10
185.250600
 20
194.500323
 11
185.271829
 21
194.495287
  0
LINE
  8
1
 62
7
  6
CONTINUOUS
 10
185.271829
 20
194.495287
 11
185.293498
 21
194.489307
  0
LINE
  8
1
 62
7
  6
CONTINUOUS
 10
185.293498
 20
194.489307
 11
185.314956
 21
194.482518
  0
LINE
  8
1
 62
7
  6
CONTINUOUS
 10
185.314956
 20
194.482518
 11
185.335676
 21
194.475134
  0
LINE
  8
1
 62
7
  6
CONTINUOUS
 10
185.335676
 20
194.475134
 11
185.355247
 21
194.467432
  0
LINE
  8
1
 62
7
  6
CONTINUOUS
 10
185.355247
 20
194.467432
 11
185.373348
 21
194.459723
  0
LINE
  8
1
 62
7
  6
CONTINUOUS
 10
185.373348
 20
194.459723
 11
185.389714
 21
194.452329
  0
LINE
  8
1
 62
7
  6
CONTINUOUS
 10
185.389714
 20
194.452329
 11
185.404109
 21
194.445554
  0
LINE
  8
1
 62
7
  6
CONTINUOUS
 10
185.404109
 20
194.445554
 11
185.416306
 21
194.439663
  0
LINE
  8
1
 62
7
  6
CONTINUOUS
 10
185.416306
 20
194.439663
 11
185.426086
 21
194.434872
  0
LINE
  8
1
 62
7
  6
CONTINUOUS
 10
185.426086
 20
194.434872
 11
185.433245
 21
194.431342
  0
LINE
  8
1
 62
7
  6
CONTINUOUS
 10
185.433245
 20
194.431342
 11
185.437615
 21
194.429182
  0
LINE
  8
1
 62
7
  6
CONTINUOUS
 10
185.437615
 20
194.429182
 11
185.439085
 21
194.428456
  0
LINE
  8
1
 62
7
  6
CONTINUOUS
 10
185.037867
 20
194.327813
 11
185.346738
 21
194.080027
  0
ARC
  8
1
 62
7
  6
CONTINUOUS
 10
184.937746
 20
194.203010
 40
0.160000
 50
51.262333
 51
165.155640
  0
LINE
  8
1
 62
7
  6
CONTINUOUS
 10
184.434466
 20
194.504734
 11
184.423958
 21
194.503087
  0
LINE
  8
1
 62
7
  6
CONTINUOUS
 10
184.423958
 20
194.503087
 11
184.413477
 21
194.501290
  0
LINE
  8
1
 62
7
  6
CONTINUOUS
 10
184.413477
 20
194.501290
 11
184.403027
 21
194.499342
  0
LINE
  8
1
 62
7
  6
CONTINUOUS
 10
184.403027
 20
194.499342
 11
184.392608
 21
194.497245
  0
LINE
  8
1
 62
7
  6
CONTINUOUS
 10
184.392608
 20
194.497245
 11
184.382225
 21
194.494998
  0
LINE
  8
1
 62
7
  6
CONTINUOUS
 10
184.382225
 20
194.494998
 11
184.371880
 21
194.492602
  0
LINE
  8
1
 62
7
  6
CONTINUOUS
 10
184.371880
 20
194.492602
 11
184.361576
 21
194.490058
  0
LINE
  8
1
 62
7
  6
CONTINUOUS
 10
184.361576
 20
194.490058
 11
184.351314
 21
194.487367
  0
LINE
  8
1
 62
7
  6
CONTINUOUS
 10
184.351314
 20
194.487367
 11
184.341098
 21
194.484529
  0
LINE
  8
1
 62
7
  6
CONTINUOUS
 10
184.341098
 20
194.484529
 11
184.330931
 21
194.481544
  0
LINE
  8
1
 62
7
  6
CONTINUOUS
 10
184.330931
 20
194.481544
 11
184.320814
 21
194.478415
  0
LINE
  8
1
 62
7
  6
CONTINUOUS
 10
184.320814
 20
194.478415
 11
184.310751
 21
194.475141
  0
LINE
  8
1
 62
7
  6
CONTINUOUS
 10
184.310751
 20
194.475141
 11
184.300744
 21
194.471723
  0
LINE
  8
1
 62
7
  6
CONTINUOUS
 10
184.300744
 20
194.471723
 11
184.290795
 21
194.468162
  0
LINE
  8
1
 62
7
  6
CONTINUOUS
 10
184.290795
 20
194.468162
 11
184.280908
 21
194.464459
  0
LINE
  8
1
 62
7
  6
CONTINUOUS
 10
184.280908
 20
194.464459
 11
184.271084
 21
194.460616
  0
LINE
  8
1
 62
7
  6
CONTINUOUS
 10
184.271084
 20
194.460616
 11
184.261327
 21
194.456632
  0
LINE
  8
1
 62
7
  6
CONTINUOUS
 10
184.261327
 20
194.456632
 11
184.251638
 21
194.452509
  0
LINE
  8
1
 62
7
  6
CONTINUOUS
 10
184.251638
 20
194.452509
 11
184.242021
 21
194.448249
  0
LINE
  8
1
 62
7
  6
CONTINUOUS
 10
184.242021
 20
194.448249
 11
184.232477
 21
194.443851
  0
LINE
  8
1
 62
7
  6
CONTINUOUS
 10
184.232477
 20
194.443851
 11
184.223009
 21
194.439318
  0
LINE
  8
1
 62
7
  6
CONTINUOUS
 10
184.223009
 20
194.439318
 11
184.213620
 21
194.434651
  0
LINE
  8
1
 62
7
  6
CONTINUOUS
 10
184.213620
 20
194.434651
 11
184.204311
 21
194.429850
  0
LINE
  8
1
 62
7
  6
CONTINUOUS
 10
184.204311
 20
194.429850
 11
184.195086
 21
194.424916
  0
LINE
  8
1
 62
7
  6
CONTINUOUS
 10
184.195086
 20
194.424916
 11
184.185947
 21
194.419852
  0
LINE
  8
1
 62
7
  6
CONTINUOUS
 10
184.185947
 20
194.419852
 11
184.176895
 21
194.414659
  0
LINE
  8
1
 62
7
  6
CONTINUOUS
 10
184.176895
 20
194.414659
 11
184.167934
 21
194.409337
  0
LINE
  8
1
 62
7
  6
CONTINUOUS
 10
184.167934
 20
194.409337
 11
184.159065
 21
194.403888
  0
LINE
  8
1
 62
7
  6
CONTINUOUS
 10
184.159065
 20
194.403888
 11
184.150291
 21
194.398313
  0
LINE
  8
1
 62
7
  6
CONTINUOUS
 10
184.150291
 20
194.398313
 11
184.141613
 21
194.392615
  0
LINE
  8
1
 62
7
  6
CONTINUOUS
 10
184.141613
 20
194.392615
 11
184.133036
 21
194.386794
  0
LINE
  8
1
 62
7
  6
CONTINUOUS
 10
184.133036
 20
194.386794
 11
184.124559
 21
194.380851
  0
LINE
  8
1
 62
7
  6
CONTINUOUS
 10
184.124559
 20
194.380851
 11
184.116187
 21
194.374790
  0
LINE
  8
1
 62
7
  6
CONTINUOUS
 10
184.116187
 20
194.374790
 11
184.107920
 21
194.368610
  0
LINE
  8
1
 62
7
  6
CONTINUOUS
 10
184.107920
 20
194.368610
 11
184.099760
 21
194.362313
  0
LINE
  8
1
 62
7
  6
CONTINUOUS
 10
184.099760
 20
194.362313
 11
184.091711
 21
194.355902
  0
LINE
  8
1
 62
7
  6
CONTINUOUS
 10
184.091711
 20
194.355902
 11
184.083774
 21
194.349377
  0
LINE
  8
1
 62
7
  6
CONTINUOUS
 10
184.083774
 20
194.349377
 11
184.075951
 21
194.342741
  0
LINE
  8
1
 62
7
  6
CONTINUOUS
 10
184.075951
 20
194.342741
 11
184.068244
 21
194.335994
  0
LINE
  8
1
 62
7
  6
CONTINUOUS
 10
184.068244
 20
194.335994
 11
184.060654
 21
194.329140
  0
LINE
  8
1
 62
7
  6
CONTINUOUS
 10
184.060654
 20
194.329140
 11
184.053185
 21
194.322179
  0
LINE
  8
1
 62
7
  6
CONTINUOUS
 10
184.053185
 20
194.322179
 11
184.045838
 21
194.315114
  0
LINE
  8
1
 62
7
  6
CONTINUOUS
 10
184.045838
 20
194.315114
 11
184.038614
 21
194.307945
  0
LINE
  8
1
 62
7
  6
CONTINUOUS
 10
184.038614
 20
194.307945
 11
184.031516
 21
194.300676
  0
LINE
  8
1
 62
7
  6
CONTINUOUS
 10
184.031516
 20
194.300676
 11
184.024545
 21
194.293307
  0
LINE
  8
1
 62
7
  6
CONTINUOUS
 10
184.024545
 20
194.293307
 11
184.017703
 21
194.285841
  0
LINE
  8
1
 62
7
  6
CONTINUOUS
 10
184.017703
 20
194.285841
 11
184.010992
 21
194.278280
  0
LINE
  8
1
 62
7
  6
CONTINUOUS
 10
184.010992
 20
194.278280
 11
184.004414
 21
194.270626
  0
LINE
  8
1
 62
7
  6
CONTINUOUS
 10
184.004414
 20
194.270626
 11
183.997970
 21
194.262879
  0
LINE
  8
1
 62
7
  6
CONTINUOUS
 10
183.997970
 20
194.262879
 11
183.991662
 21
194.255044
  0
LINE
  8
1
 62
7
  6
CONTINUOUS
 10
183.991662
 20
194.255044
 11
183.985492
 21
194.247121
  0
LINE
  8
1
 62
7
  6
CONTINUOUS
 10
183.985492
 20
194.247121
 11
183.979460
 21
194.239112
  0
LINE
  8
1
 62
7
  6
CONTINUOUS
 10
183.979460
 20
194.239112
 11
183.973569
 21
194.231020
  0
LINE
  8
1
 62
7
  6
CONTINUOUS
 10
183.973569
 20
194.231020
 11
183.967821
 21
194.222846
  0
LINE
  8
1
 62
7
  6
CONTINUOUS
 10
183.967821
 20
194.222846
 11
183.962216
 21
194.214593
  0
LINE
  8
1
 62
7
  6
CONTINUOUS
 10
183.962216
 20
194.214593
 11
183.956756
 21
194.206263
  0
LINE
  8
1
 62
7
  6
CONTINUOUS
 10
183.956756
 20
194.206263
 11
183.951443
 21
194.197858
  0
LINE
  8
1
 62
7
  6
CONTINUOUS
 10
183.951443
 20
194.197858
 11
183.946277
 21
194.189380
  0
LINE
  8
1
 62
7
  6
CONTINUOUS
 10
183.946277
 20
194.189380
 11
183.941260
 21
194.180831
  0
LINE
  8
1
 62
7
  6
CONTINUOUS
 10
183.941260
 20
194.180831
 11
183.936394
 21
194.172214
  0
LINE
  8
1
 62
7
  6
CONTINUOUS
 10
183.936394
 20
194.172214
 11
183.931680
 21
194.163530
  0
LINE
  8
1
 62
7
  6
CONTINUOUS
 10
183.931680
 20
194.163530
 11
183.927118
 21
194.154782
  0
LINE
  8
1
 62
7
  6
CONTINUOUS
 10
183.927118
 20
194.154782
 11
183.922711
 21
194.145972
  0
LINE
  8
1
 62
7
  6
CONTINUOUS
 10
183.922711
 20
194.145972
 11
183.918458
 21
194.137103
  0
LINE
  8
1
 62
7
  6
CONTINUOUS
 10
183.918458
 20
194.137103
 11
183.914362
 21
194.128176
  0
LINE
  8
1
 62
7
  6
CONTINUOUS
 10
183.914362
 20
194.128176
 11
183.910423
 21
194.119194
  0
LINE
  8
1
 62
7
  6
CONTINUOUS
 10
183.910423
 20
194.119194
 11
183.906642
 21
194.110159
  0
LINE
  8
1
 62
7
  6
CONTINUOUS
 10
183.906642
 20
194.110159
 11
183.903021
 21
194.101073
  0
LINE
  8
1
 62
7
  6
CONTINUOUS
 10
183.903021
 20
194.101073
 11
183.899559
 21
194.091940
  0
LINE
  8
1
 62
7
  6
CONTINUOUS
 10
183.899559
 20
194.091940
 11
183.896259
 21
194.082760
  0
LINE
  8
1
 62
7
  6
CONTINUOUS
 10
183.896259
 20
194.082760
 11
183.893121
 21
194.073537
  0
LINE
  8
1
 62
7
  6
CONTINUOUS
 10
183.893121
 20
194.073537
 11
183.890145
 21
194.064273
  0
LINE
  8
1
 62
7
  6
CONTINUOUS
 10
184.434466
 20
194.504734
 11
184.778107
 21
194.504734
  0
LINE
  8
1
 62
7
  6
CONTINUOUS
 10
186.328148
 20
194.660275
 11
185.497108
 21
194.656791
  0
LINE
  8
1
 62
7
  6
CONTINUOUS
 10
185.970856
 20
193.312209
 11
186.328148
 21
194.660275
  0
LINE
  8
1
 62
7
  6
CONTINUOUS
 10
182.106921
 20
194.244001
 11
181.913229
 21
193.513200
  0
ARC
  8
1
 62
7
  6
CONTINUOUS
 10
182.067890
 20
193.472209
 40
0.160000
 50
165.155640
 51
-90.000000
  0
LINE
  8
1
 62
7
  6
CONTINUOUS
 10
182.670573
 20
194.080027
 11
182.498612
 21
193.431217
  0
LINE
  8
1
 62
7
  6
CONTINUOUS
 10
182.067890
 20
193.312209
 11
182.343952
 21
193.312209
  0
ARC
  8
1
 62
7
  6
CONTINUOUS
 10
182.343952
 20
193.472209
 40
0.160000
 50
-90.000000
 51
-14.844412
  0
LINE
  8
1
 62
7
  6
CONTINUOUS
 10
183.347962
 20
193.513199
 11
183.651983
 21
194.660275
  0
LINE
  8
1
 62
7
  6
CONTINUOUS
 10
183.502622
 20
193.312208
 11
184.068363
 21
193.312208
  0
ARC
  8
1
 62
7
  6
CONTINUOUS
 10
183.502622
 20
193.472208
 40
0.160000
 50
165.155624
 51
-90.000000
  0
LINE
  8
1
 62
7
  6
CONTINUOUS
 10
184.783086
 20
194.244001
 11
184.589394
 21
193.513200
  0
ARC
  8
1
 62
7
  6
CONTINUOUS
 10
184.744054
 20
193.472209
 40
0.160000
 50
165.155640
 51
-90.000000
  0
LINE
  8
1
 62
7
  6
CONTINUOUS
 10
185.346738
 20
194.080027
 11
185.174777
 21
193.431217
  0
LINE
  8
1
 62
7
  6
CONTINUOUS
 10
184.744054
 20
193.312209
 11
185.020117
 21
193.312209
  0
ARC
  8
1
 62
7
  6
CONTINUOUS
 10
185.020117
 20
193.472209
 40
0.160000
 50
-90.000000
 51
-14.844412
  0
ARC
  8
1
 62
7
  6
CONTINUOUS
 10
186.675913
 20
193.474297
 40
0.160000
 50
-89.590062
 51
-14.844379
  0
LINE
  8
1
 62
7
  6
CONTINUOUS
 10
186.830573
 20
193.433306
 11
187.084984
 21
194.393200
  0
ARC
  8
1
 62
7
  6
CONTINUOUS
 10
187.239644
 20
194.352209
 40
0.160000
 50
90.000000
 51
165.155621
  0
LINE
  8
1
 62
7
  6
CONTINUOUS
 10
187.239644
 20
194.512209
 11
187.736217
 21
194.512209
  0
LINE
  8
1
 62
7
  6
CONTINUOUS
 10
187.890877
 20
194.311218
 11
187.626100
 21
193.312209
  0
ARC
  8
1
 62
7
  6
CONTINUOUS
 10
187.736217
 20
194.352209
 40
0.160000
 50
-14.844371
 51
90.000000
  0
LINE
  8
1
 62
7
  6
CONTINUOUS
 10
187.626100
 20
193.312209
 11
188.039911
 21
193.312209
  0
LINE
  8
1
 62
7
  6
CONTINUOUS
 10
190.013202
 20
194.512209
 11
190.528927
 21
194.512209
  0
LINE
  8
1
 62
7
  6
CONTINUOUS
 10
190.760917
 20
194.210722
 11
190.522775
 21
193.312209
  0
ARC
  8
1
 62
7
  6
CONTINUOUS
 10
190.528927
 20
194.272209
 40
0.240000
 50
-14.844371
 51
90.000000
  0
LINE
  8
1
 62
7
  6
CONTINUOUS
 10
188.039911
 20
193.312209
 11
188.310645
 21
194.333695
  0
ARC
  8
1
 62
7
  6
CONTINUOUS
 10
188.542636
 20
194.272209
 40
0.240000
 50
90.000000
 51
165.155634
  0
LINE
  8
1
 62
7
  6
CONTINUOUS
 10
188.542636
 20
194.512209
 11
188.873684
 21
194.512209
  0
LINE
  8
1
 62
7
  6
CONTINUOUS
 10
189.797069
 20
192.912209
 11
190.416759
 21
192.912209
  0
ARC
  8
1
 62
7
  6
CONTINUOUS
 10
189.797069
 20
193.072209
 40
0.160000
 50
165.155639
 51
-90.000000
  0
ARC
  8
1
 62
7
  6
CONTINUOUS
 10
188.638398
 20
193.072209
 40
0.160000
 50
-90.000000
 51
-14.844405
  0
ARC
  8
1
 62
7
  6
CONTINUOUS
 10
188.873684
 20
194.272209
 40
0.240000
 50
30.038398
 51
90.000000
  0
LINE
  8
1
 62
7
  6
CONTINUOUS
 10
189.259999
 20
194.317531
 11
190.013202
 21
194.512209
  0
ARC
  8
1
 62
7
  6
CONTINUOUS
 10
189.219960
 20
194.472441
 40
0.160000
 50
-149.961602
 51
-75.508146
  0
LINE
  8
1
 62
7
  6
CONTINUOUS
 10
188.793058
 20
193.031218
 11
188.985042
 21
193.755575
  0
ARC
  8
1
 62
7
  6
CONTINUOUS
 10
189.217032
 20
193.694088
 40
0.240000
 50
91.976217
 51
165.155595
  0
LINE
  8
1
 62
7
  6
CONTINUOUS
 10
189.208756
 20
193.933946
 11
189.542860
 21
193.945474
  0
LINE
  8
1
 62
7
  6
CONTINUOUS
 10
189.783126
 20
193.644130
 11
189.642409
 21
193.113200
  0
ARC
  8
1
 62
7
  6
CONTINUOUS
 10
189.551136
 20
193.705617
 40
0.240000
 50
-14.844361
 51
91.976217
  0
LINE
  8
1
 62
7
  6
CONTINUOUS
 10
191.679591
 20
194.468921
 11
191.669083
 21
194.467274
  0
LINE
  8
1
 62
7
  6
CONTINUOUS
 10
191.669083
 20
194.467274
 11
191.658603
 21
194.465477
  0
LINE
  8
1
 62
7
  6
CONTINUOUS
 10
191.658603
 20
194.465477
 11
191.648152
 21
194.463529
  0
LINE
  8
1
 62
7
  6
CONTINUOUS
 10
191.648152
 20
194.463529
 11
191.637734
 21
194.461432
  0
LINE
  8
1
 62
7
  6
CONTINUOUS
 10
191.637734
 20
194.461432
 11
191.627351
 21
194.459185
  0
LINE
  8
1
 62
7
  6
CONTINUOUS
 10
191.627351
 20
194.459185
 11
191.617006
 21
194.456789
  0
LINE
  8
1
 62
7
  6
CONTINUOUS
 10
191.617006
 20
194.456789
 11
191.606701
 21
194.454245
  0
LINE
  8
1
 62
7
  6
CONTINUOUS
 10
191.606701
 20
194.454245
 11
191.596439
 21
194.451554
  0
LINE
  8
1
 62
7
  6
CONTINUOUS
 10
191.596439
 20
194.451554
 11
191.586224
 21
194.448716
  0
LINE
  8
1
 62
7
  6
CONTINUOUS
 10
191.586224
 20
194.448716
 11
191.576056
 21
194.445731
  0
LINE
  8
1
 62
7
  6
CONTINUOUS
 10
191.576056
 20
194.445731
 11
191.565939
 21
194.442602
  0
LINE
  8
1
 62
7
  6
CONTINUOUS
 10
191.565939
 20
194.442602
 11
191.555876
 21
194.439328
  0
LINE
  8
1
 62
7
  6
CONTINUOUS
 10
191.555876
 20
194.439328
 11
191.545869
 21
194.435910
  0
LINE
  8
1
 62
7
  6
CONTINUOUS
 10
191.545869
 20
194.435910
 11
191.535921
 21
194.432349
  0
LINE
  8
1
 62
7
  6
CONTINUOUS
 10
191.535921
 20
194.432349
 11
191.526034
 21
194.428646
  0
LINE
  8
1
 62
7
  6
CONTINUOUS
 10
191.526034
 20
194.428646
 11
191.516210
 21
194.424803
  0
LINE
  8
1
 62
7
  6
CONTINUOUS
 10
191.516210
 20
194.424803
 11
191.506453
 21
194.420819
  0
LINE
  8
1
 62
7
  6
CONTINUOUS
 10
191.506453
 20
194.420819
 11
191.496764
 21
194.416696
  0
LINE
  8
1
 62
7
  6
CONTINUOUS
 10
191.496764
 20
194.416696
 11
191.487147
 21
194.412436
  0
LINE
  8
1
 62
7
  6
CONTINUOUS
 10
191.487147
 20
194.412436
 11
191.477603
 21
194.408038
  0
LINE
  8
1
 62
7
  6
CONTINUOUS
 10
191.477603
 20
194.408038
 11
191.468135
 21
194.403505
  0
LINE
  8
1
 62
7
  6
CONTINUOUS
 10
191.468135
 20
194.403505
 11
191.458745
 21
194.398838
  0
LINE
  8
1
 62
7
  6
CONTINUOUS
 10
191.458745
 20
194.398838
 11
191.449437
 21
194.394036
  0
LINE
  8
1
 62
7
  6
CONTINUOUS
 10
191.449437
 20
194.394036
 11
191.440212
 21
194.389103
  0
LINE
  8
1
 62
7
  6
CONTINUOUS
 10
191.440212
 20
194.389103
 11
191.431072
 21
194.384039
  0
LINE
  8
1
 62
7
  6
CONTINUOUS
 10
191.431072
 20
194.384039
 11
191.422021
 21
194.378845
  0
LINE
  8
1
 62
7
  6
CONTINUOUS
 10
191.422021
 20
194.378845
 11
191.413059
 21
194.373523
  0
LINE
  8
1
 62
7
  6
CONTINUOUS
 10
191.413059
 20
194.373523
 11
191.404190
 21
194.368075
  0
LINE
  8
1
 62
7
  6
CONTINUOUS
 10
191.404190
 20
194.368075
 11
191.395416
 21
194.362500
  0
LINE
  8
1
 62
7
  6
CONTINUOUS
 10
191.395416
 20
194.362500
 11
191.386739
 21
194.356802
  0
LINE
  8
1
 62
7
  6
CONTINUOUS
 10
191.386739
 20
194.356802
 11
191.378161
 21
194.350981
  0
LINE
  8
1
 62
7
  6
CONTINUOUS
 10
191.378161
 20
194.350981
 11
191.369685
 21
194.345038
  0
LINE
  8
1
 62
7
  6
CONTINUOUS
 10
191.369685
 20
194.345038
 11
191.361312
 21
194.338976
  0
LINE
  8
1
 62
7
  6
CONTINUOUS
 10
191.361312
 20
194.338976
 11
191.353045
 21
194.332796
  0
LINE
  8
1
 62
7
  6
CONTINUOUS
 10
191.353045
 20
194.332796
 11
191.344886
 21
194.326500
  0
LINE
  8
1
 62
7
  6
CONTINUOUS
 10
191.344886
 20
194.326500
 11
191.336837
 21
194.320088
  0
LINE
  8
1
 62
7
  6
CONTINUOUS
 10
191.336837
 20
194.320088
 11
191.328899
 21
194.313564
  0
LINE
  8
1
 62
7
  6
CONTINUOUS
 10
191.328899
 20
194.313564
 11
191.321076
 21
194.306927
  0
LINE
  8
1
 62
7
  6
CONTINUOUS
 10
191.321076
 20
194.306927
 11
191.313369
 21
194.300181
  0
LINE
  8
1
 62
7
  6
CONTINUOUS
 10
191.313369
 20
194.300181
 11
191.305780
 21
194.293327
  0
LINE
  8
1
 62
7
  6
CONTINUOUS
 10
191.305780
 20
194.293327
 11
191.298311
 21
194.286366
  0
LINE
  8
1
 62
7
  6
CONTINUOUS
 10
191.298311
 20
194.286366
 11
191.290963
 21
194.279300
  0
LINE
  8
1
 62
7
  6
CONTINUOUS
 10
191.290963
 20
194.279300
 11
191.283739
 21
194.272132
  0
LINE
  8
1
 62
7
  6
CONTINUOUS
 10
191.283739
 20
194.272132
 11
191.276641
 21
194.264863
  0
LINE
  8
1
 62
7
  6
CONTINUOUS
 10
191.276641
 20
194.264863
 11
191.269670
 21
194.257494
  0
LINE
  8
1
 62
7
  6
CONTINUOUS
 10
191.269670
 20
194.257494
 11
191.262829
 21
194.250028
  0
LINE
  8
1
 62
7
  6
CONTINUOUS
 10
191.262829
 20
194.250028
 11
191.256118
 21
194.242467
  0
LINE
  8
1
 62
7
  6
CONTINUOUS
 10
191.256118
 20
194.242467
 11
191.249540
 21
194.234812
  0
LINE
  8
1
 62
7
  6
CONTINUOUS
 10
191.249540
 20
194.234812
 11
191.243096
 21
194.227066
  0
LINE
  8
1
 62
7
  6
CONTINUOUS
 10
191.243096
 20
194.227066
 11
191.236788
 21
194.219231
  0
LINE
  8
1
 62
7
  6
CONTINUOUS
 10
191.236788
 20
194.219231
 11
191.230617
 21
194.211307
  0
LINE
  8
1
 62
7
  6
CONTINUOUS
 10
191.230617
 20
194.211307
 11
191.224586
 21
194.203299
  0
LINE
  8
1
 62
7
  6
CONTINUOUS
 10
191.224586
 20
194.203299
 11
191.218695
 21
194.195206
  0
LINE
  8
1
 62
7
  6
CONTINUOUS
 10
191.218695
 20
194.195206
 11
191.212946
 21
194.187033
  0
LINE
  8
1
 62
7
  6
CONTINUOUS
 10
191.212946
 20
194.187033
 11
191.207342
 21
194.178780
  0
LINE
  8
1
 62
7
  6
CONTINUOUS
 10
191.207342
 20
194.178780
 11
191.201882
 21
194.170450
  0
LINE
  8
1
 62
7
  6
CONTINUOUS
 10
191.201882
 20
194.170450
 11
191.196568
 21
194.162045
  0
LINE
  8
1
 62
7
  6
CONTINUOUS
 10
191.196568
 20
194.162045
 11
191.191403
 21
194.153567
  0
LINE
  8
1
 62
7
  6
CONTINUOUS
 10
191.191403
 20
194.153567
 11
191.186386
 21
194.145018
  0
LINE
  8
1
 62
7
  6
CONTINUOUS
 10
191.186386
 20
194.145018
 11
191.181520
 21
194.136401
  0
LINE
  8
1
 62
7
  6
CONTINUOUS
 10
191.181520
 20
194.136401
 11
191.176805
 21
194.127717
  0
LINE
  8
1
 62
7
  6
CONTINUOUS
 10
191.176805
 20
194.127717
 11
191.172244
 21
194.118969
  0
LINE
  8
1
 62
7
  6
CONTINUOUS
 10
191.172244
 20
194.118969
 11
191.167836
 21
194.110159
  0
LINE
  8
1
 62
7
  6
CONTINUOUS
 10
191.167836
 20
194.110159
 11
191.163584
 21
194.101290
  0
LINE
  8
1
 62
7
  6
CONTINUOUS
 10
191.163584
 20
194.101290
 11
191.159487
 21
194.092363
  0
LINE
  8
1
 62
7
  6
CONTINUOUS
 10
191.159487
 20
194.092363
 11
191.155548
 21
194.083381
  0
LINE
  8
1
 62
7
  6
CONTINUOUS
 10
191.155548
 20
194.083381
 11
191.151768
 21
194.074346
  0
LINE
  8
1
 62
7
  6
CONTINUOUS
 10
191.151768
 20
194.074346
 11
191.148146
 21
194.065260
  0
LINE
  8
1
 62
7
  6
CONTINUOUS
 10
191.148146
 20
194.065260
 11
191.144685
 21
194.056127
  0
LINE
  8
1
 62
7
  6
CONTINUOUS
 10
191.144685
 20
194.056127
 11
191.141385
 21
194.046947
  0
LINE
  8
1
 62
7
  6
CONTINUOUS
 10
191.141385
 20
194.046947
 11
191.138246
 21
194.037724
  0
LINE
  8
1
 62
7
  6
CONTINUOUS
 10
191.138246
 20
194.037724
 11
191.135270
 21
194.028460
  0
LINE
  8
1
 62
7
  6
CONTINUOUS
 10
191.135270
 20
194.028460
 11
191.135207
 21
194.028234
  0
LINE
  8
1
 62
7
  6
CONTINUOUS
 10
191.135207
 20
194.028234
 11
191.135017
 21
194.027562
  0
LINE
  8
1
 62
7
  6
CONTINUOUS
 10
191.135017
 20
194.027562
 11
191.134707
 21
194.026458
  0
LINE
  8
1
 62
7
  6
CONTINUOUS
 10
191.134707
 20
194.026458
 11
191.134283
 21
194.024941
  0
LINE
  8
1
 62
7
  6
CONTINUOUS
 10
191.134283
 20
194.024941
 11
191.133753
 21
194.023021
  0
LINE
  8
1
 62
7
  6
CONTINUOUS
 10
191.133753
 20
194.023021
 11
191.133128
 21
194.020699
  0
LINE
  8
1
 62
7
  6
CONTINUOUS
 10
191.133128
 20
194.020699
 11
191.132415
 21
194.017960
  0
LINE
  8
1
 62
7
  6
CONTINUOUS
 10
191.132415
 20
194.017960
 11
191.131625
 21
194.014780
  0
LINE
  8
1
 62
7
  6
CONTINUOUS
 10
191.131625
 20
194.014780
 11
191.130768
 21
194.011140
  0
LINE
  8
1
 62
7
  6
CONTINUOUS
 10
191.130768
 20
194.011140
 11
191.129857
 21
194.007039
  0
LINE
  8
1
 62
7
  6
CONTINUOUS
 10
191.129857
 20
194.007039
 11
191.128910
 21
194.002517
  0
LINE
  8
1
 62
7
  6
CONTINUOUS
 10
191.128910
 20
194.002517
 11
191.127950
 21
193.997669
  0
LINE
  8
1
 62
7
  6
CONTINUOUS
 10
191.127950
 20
193.997669
 11
191.127006
 21
193.992657
  0
LINE
  8
1
 62
7
  6
CONTINUOUS
 10
191.127006
 20
193.992657
 11
191.126112
 21
193.987703
  0
LINE
  8
1
 62
7
  6
CONTINUOUS
 10
191.126112
 20
193.987703
 11
191.125307
 21
193.983078
  0
LINE
  8
1
 62
7
  6
CONTINUOUS
 10
191.125307
 20
193.983078
 11
191.124629
 21
193.979075
  0
LINE
  8
1
 62
7
  6
CONTINUOUS
 10
191.124629
 20
193.979075
 11
191.124115
 21
193.975974
  0
LINE
  8
1
 62
7
  6
CONTINUOUS
 10
191.124115
 20
193.975974
 11
191.123794
 21
193.974010
  0
LINE
  8
1
 62
7
  6
CONTINUOUS
 10
191.123794
 20
193.974010
 11
191.123685
 21
193.973337
  0
LINE
  8
1
 62
7
  6
CONTINUOUS
 10
191.123685
 20
193.973337
 11
191.123575
 21
193.972658
  0
LINE
  8
1
 62
7
  6
CONTINUOUS
 10
191.123575
 20
193.972658
 11
191.123244
 21
193.970604
  0
LINE
  8
1
 62
7
  6
CONTINUOUS
 10
191.123244
 20
193.970604
 11
191.122693
 21
193.967132
  0
LINE
  8
1
 62
7
  6
CONTINUOUS
 10
191.122693
 20
193.967132
 11
191.121921
 21
193.962195
  0
LINE
  8
1
 62
7
  6
CONTINUOUS
 10
191.121921
 20
193.962195
 11
191.120937
 21
193.955771
  0
LINE
  8
1
 62
7
  6
CONTINUOUS
 10
191.120937
 20
193.955771
 11
191.119756
 21
193.947900
  0
LINE
  8
1
 62
7
  6
CONTINUOUS
 10
191.119756
 20
193.947900
 11
191.118405
 21
193.938702
  0
LINE
  8
1
 62
7
  6
CONTINUOUS
 10
191.118405
 20
193.938702
 11
191.116925
 21
193.928399
  0
LINE
  8
1
 62
7
  6
CONTINUOUS
 10
191.116925
 20
193.928399
 11
191.115365
 21
193.917301
  0
LINE
  8
1
 62
7
  6
CONTINUOUS
 10
191.115365
 20
193.917301
 11
191.113783
 21
193.905796
  0
LINE
  8
1
 62
7
  6
CONTINUOUS
 10
191.113783
 20
193.905796
 11
191.112238
 21
193.894310
  0
LINE
  8
1
 62
7
  6
CONTINUOUS
 10
191.112238
 20
193.894310
 11
191.110785
 21
193.883270
  0
LINE
  8
1
 62
7
  6
CONTINUOUS
 10
191.110785
 20
193.883270
 11
191.109471
 21
193.873069
  0
LINE
  8
1
 62
7
  6
CONTINUOUS
 10
191.109471
 20
193.873069
 11
191.108333
 21
193.864035
  0
LINE
  8
1
 62
7
  6
CONTINUOUS
 10
191.108333
 20
193.864035
 11
191.107392
 21
193.856416
  0
LINE
  8
1
 62
7
  6
CONTINUOUS
 10
191.107392
 20
193.856416
 11
191.106661
 21
193.850381
  0
LINE
  8
1
 62
7
  6
CONTINUOUS
 10
191.106661
 20
193.850381
 11
191.106142
 21
193.846027
  0
LINE
  8
1
 62
7
  6
CONTINUOUS
 10
191.106142
 20
193.846027
 11
191.105833
 21
193.843403
  0
LINE
  8
1
 62
7
  6
CONTINUOUS
 10
191.105833
 20
193.843403
 11
191.105730
 21
193.842526
  0
LINE
  8
1
 62
7
  6
CONTINUOUS
 10
191.105730
 20
193.842526
 11
191.105628
 21
193.841653
  0
LINE
  8
1
 62
7
  6
CONTINUOUS
 10
191.105628
 20
193.841653
 11
191.105330
 21
193.839079
  0
LINE
  8
1
 62
7
  6
CONTINUOUS
 10
191.105330
 20
193.839079
 11
191.104855
 21
193.834926
  0
LINE
  8
1
 62
7
  6
CONTINUOUS
 10
191.104855
 20
193.834926
 11
191.104235
 21
193.829387
  0
LINE
  8
1
 62
7
  6
CONTINUOUS
 10
191.104235
 20
193.829387
 11
191.103511
 21
193.822691
  0
LINE
  8
1
 62
7
  6
CONTINUOUS
 10
191.103511
 20
193.822691
 11
191.102728
 21
193.815087
  0
LINE
  8
1
 62
7
  6
CONTINUOUS
 10
191.102728
 20
193.815087
 11
191.101929
 21
193.806816
  0
LINE
  8
1
 62
7
  6
CONTINUOUS
 10
191.101929
 20
193.806816
 11
191.101156
 21
193.798099
  0
LINE
  8
1
 62
7
  6
CONTINUOUS
 10
191.101156
 20
193.798099
 11
191.100444
 21
193.789133
  0
LINE
  8
1
 62
7
  6
CONTINUOUS
 10
191.100444
 20
193.789133
 11
191.099819
 21
193.780094
  0
LINE
  8
1
 62
7
  6
CONTINUOUS
 10
191.099819
 20
193.780094
 11
191.099296
 21
193.771150
  0
LINE
  8
1
 62
7
  6
CONTINUOUS
 10
191.099296
 20
193.771150
 11
191.098880
 21
193.762474
  0
LINE
  8
1
 62
7
  6
CONTINUOUS
 10
191.098880
 20
193.762474
 11
191.098567
 21
193.754259
  0
LINE
  8
1
 62
7
  6
CONTINUOUS
 10
191.098567
 20
193.754259
 11
191.098346
 21
193.746720
  0
LINE
  8
1
 62
7
  6
CONTINUOUS
 10
191.098346
 20
193.746720
 11
191.098200
 21
193.740091
  0
LINE
  8
1
 62
7
  6
CONTINUOUS
 10
191.098200
 20
193.740091
 11
191.098112
 21
193.734613
  0
LINE
  8
1
 62
7
  6
CONTINUOUS
 10
191.098112
 20
193.734613
 11
191.098064
 21
193.730510
  0
LINE
  8
1
 62
7
  6
CONTINUOUS
 10
191.098064
 20
193.730510
 11
191.098042
 21
193.727967
  0
LINE
  8
1
 62
7
  6
CONTINUOUS
 10
191.098042
 20
193.727967
 11
191.098036
 21
193.727105
  0
LINE
  8
1
 62
7
  6
CONTINUOUS
 10
191.098036
 20
193.727105
 11
191.098030
 21
193.726240
  0
LINE
  8
1
 62
7
  6
CONTINUOUS
 10
191.098030
 20
193.726240
 11
191.098016
 21
193.723649
  0
LINE
  8
1
 62
7
  6
CONTINUOUS
 10
191.098016
 20
193.723649
 11
191.098007
 21
193.719350
  0
LINE
  8
1
 62
7
  6
CONTINUOUS
 10
191.098007
 20
193.719350
 11
191.098023
 21
193.713383
  0
LINE
  8
1
 62
7
  6
CONTINUOUS
 10
191.098023
 20
193.713383
 11
191.098098
 21
193.705823
  0
LINE
  8
1
 62
7
  6
CONTINUOUS
 10
191.098098
 20
193.705823
 11
191.098273
 21
193.696798
  0
LINE
  8
1
 62
7
  6
CONTINUOUS
 10
191.098273
 20
193.696798
 11
191.098600
 21
193.686495
  0
LINE
  8
1
 62
7
  6
CONTINUOUS
 10
191.098600
 20
193.686495
 11
191.099132
 21
193.675166
  0
LINE
  8
1
 62
7
  6
CONTINUOUS
 10
191.099132
 20
193.675166
 11
191.099916
 21
193.663125
  0
LINE
  8
1
 62
7
  6
CONTINUOUS
 10
191.099916
 20
193.663125
 11
191.100982
 21
193.650731
  0
LINE
  8
1
 62
7
  6
CONTINUOUS
 10
191.100982
 20
193.650731
 11
191.102335
 21
193.638375
  0
LINE
  8
1
 62
7
  6
CONTINUOUS
 10
191.102335
 20
193.638375
 11
191.103942
 21
193.626451
  0
LINE
  8
1
 62
7
  6
CONTINUOUS
 10
191.103942
 20
193.626451
 11
191.105734
 21
193.615337
  0
LINE
  8
1
 62
7
  6
CONTINUOUS
 10
191.105734
 20
193.615337
 11
191.107606
 21
193.605373
  0
LINE
  8
1
 62
7
  6
CONTINUOUS
 10
191.107606
 20
193.605373
 11
191.109425
 21
193.596848
  0
LINE
  8
1
 62
7
  6
CONTINUOUS
 10
191.109425
 20
193.596848
 11
191.111045
 21
193.589993
  0
LINE
  8
1
 62
7
  6
CONTINUOUS
 10
191.111045
 20
193.589993
 11
191.112323
 21
193.584981
  0
LINE
  8
1
 62
7
  6
CONTINUOUS
 10
191.112323
 20
193.584981
 11
191.113143
 21
193.581930
  0
LINE
  8
1
 62
7
  6
CONTINUOUS
 10
191.113143
 20
193.581930
 11
191.113425
 21
193.580905
  0
LINE
  8
1
 62
7
  6
CONTINUOUS
 10
191.113425
 20
193.580905
 11
191.113711
 21
193.579882
  0
LINE
  8
1
 62
7
  6
CONTINUOUS
 10
191.113711
 20
193.579882
 11
191.114580
 21
193.576846
  0
LINE
  8
1
 62
7
  6
CONTINUOUS
 10
191.114580
 20
193.576846
 11
191.116063
 21
193.571899
  0
LINE
  8
1
 62
7
  6
CONTINUOUS
 10
191.116063
 20
193.571899
 11
191.118203
 21
193.565207
  0
LINE
  8
1
 62
7
  6
CONTINUOUS
 10
191.118203
 20
193.565207
 11
191.121031
 21
193.556990
  0
LINE
  8
1
 62
7
  6
CONTINUOUS
 10
191.121031
 20
193.556990
 11
191.124559
 21
193.547519
  0
LINE
  8
1
 62
7
  6
CONTINUOUS
 10
191.124559
 20
193.547519
 11
191.128758
 21
193.537097
  0
LINE
  8
1
 62
7
  6
CONTINUOUS
 10
191.128758
 20
193.537097
 11
191.133555
 21
193.526054
  0
LINE
  8
1
 62
7
  6
CONTINUOUS
 10
191.133555
 20
193.526054
 11
191.138826
 21
193.514727
  0
LINE
  8
1
 62
7
  6
CONTINUOUS
 10
191.138826
 20
193.514727
 11
191.144403
 21
193.503449
  0
LINE
  8
1
 62
7
  6
CONTINUOUS
 10
191.144403
 20
193.503449
 11
191.150090
 21
193.492536
  0
LINE
  8
1
 62
7
  6
CONTINUOUS
 10
191.150090
 20
193.492536
 11
191.155675
 21
193.482276
  0
LINE
  8
1
 62
7
  6
CONTINUOUS
 10
191.155675
 20
193.482276
 11
191.160949
 21
193.472922
  0
LINE
  8
1
 62
7
  6
CONTINUOUS
 10
191.160949
 20
193.472922
 11
191.165721
 21
193.464686
  0
LINE
  8
1
 62
7
  6
CONTINUOUS
 10
191.165721
 20
193.464686
 11
191.169829
 21
193.457741
  0
LINE
  8
1
 62
7
  6
CONTINUOUS
 10
191.169829
 20
193.457741
 11
191.173143
 21
193.452216
  0
LINE
  8
1
 62
7
  6
CONTINUOUS
 10
191.173143
 20
193.452216
 11
191.175571
 21
193.448207
  0
LINE
  8
1
 62
7
  6
CONTINUOUS
 10
191.175571
 20
193.448207
 11
191.177051
 21
193.445778
  0
LINE
  8
1
 62
7
  6
CONTINUOUS
 10
191.177051
 20
193.445778
 11
191.177548
 21
193.444965
  0
LINE
  8
1
 62
7
  6
CONTINUOUS
 10
191.177548
 20
193.444965
 11
191.178044
 21
193.444153
  0
LINE
  8
1
 62
7
  6
CONTINUOUS
 10
191.178044
 20
193.444153
 11
191.179517
 21
193.441750
  0
LINE
  8
1
 62
7
  6
CONTINUOUS
 10
191.179517
 20
193.441750
 11
191.181919
 21
193.437853
  0
LINE
  8
1
 62
7
  6
CONTINUOUS
 10
191.181919
 20
193.437853
 11
191.185173
 21
193.432615
  0
LINE
  8
1
 62
7
  6
CONTINUOUS
 10
191.185173
 20
193.432615
 11
191.189176
 21
193.426237
  0
LINE
  8
1
 62
7
  6
CONTINUOUS
 10
191.189176
 20
193.426237
 11
191.193806
 21
193.418958
  0
LINE
  8
1
 62
7
  6
CONTINUOUS
 10
191.193806
 20
193.418958
 11
191.198925
 21
193.411038
  0
LINE
  8
1
 62
7
  6
CONTINUOUS
 10
191.198925
 20
193.411038
 11
191.204387
 21
193.402745
  0
LINE
  8
1
 62
7
  6
CONTINUOUS
 10
191.204387
 20
193.402745
 11
191.210038
 21
193.394346
  0
LINE
  8
1
 62
7
  6
CONTINUOUS
 10
191.210038
 20
193.394346
 11
191.215727
 21
193.386089
  0
LINE
  8
1
 62
7
  6
CONTINUOUS
 10
191.215727
 20
193.386089
 11
191.221303
 21
193.378199
  0
LINE
  8
1
 62
7
  6
CONTINUOUS
 10
191.221303
 20
193.378199
 11
191.226620
 21
193.370870
  0
LINE
  8
1
 62
7
  6
CONTINUOUS
 10
191.226620
 20
193.370870
 11
191.231543
 21
193.364263
  0
LINE
  8
1
 62
7
  6
CONTINUOUS
 10
191.231543
 20
193.364263
 11
191.235945
 21
193.358503
  0
LINE
  8
1
 62
7
  6
CONTINUOUS
 10
191.235945
 20
193.358503
 11
191.239714
 21
193.353689
  0
LINE
  8
1
 62
7
  6
CONTINUOUS
 10
191.239714
 20
193.353689
 11
191.242752
 21
193.349886
  0
LINE
  8
1
 62
7
  6
CONTINUOUS
 10
191.242752
 20
193.349886
 11
191.244981
 21
193.347143
  0
LINE
  8
1
 62
7
  6
CONTINUOUS
 10
191.244981
 20
193.347143
 11
191.246343
 21
193.345487
  0
LINE
  8
1
 62
7
  6
CONTINUOUS
 10
191.246343
 20
193.345487
 11
191.246801
 21
193.344933
  0
LINE
  8
1
 62
7
  6
CONTINUOUS
 10
191.246801
 20
193.344933
 11
191.247258
 21
193.344381
  0
LINE
  8
1
 62
7
  6
CONTINUOUS
 10
191.247258
 20
193.344381
 11
191.248619
 21
193.342750
  0
LINE
  8
1
 62
7
  6
CONTINUOUS
 10
191.248619
 20
193.342750
 11
191.250844
 21
193.340115
  0
LINE
  8
1
 62
7
  6
CONTINUOUS
 10
191.250844
 20
193.340115
 11
191.253871
 21
193.336588
  0
LINE
  8
1
 62
7
  6
CONTINUOUS
 10
191.253871
 20
193.336588
 11
191.257616
 21
193.332315
  0
LINE
  8
1
 62
7
  6
CONTINUOUS
 10
191.257616
 20
193.332315
 11
191.261976
 21
193.327461
  0
LINE
  8
1
 62
7
  6
CONTINUOUS
 10
191.261976
 20
193.327461
 11
191.266829
 21
193.322196
  0
LINE
  8
1
 62
7
  6
CONTINUOUS
 10
191.266829
 20
193.322196
 11
191.272043
 21
193.316689
  0
LINE
  8
1
 62
7
  6
CONTINUOUS
 10
191.272043
 20
193.316689
 11
191.277475
 21
193.311097
  0
LINE
  8
1
 62
7
  6
CONTINUOUS
 10
191.277475
 20
193.311097
 11
191.282978
 21
193.305566
  0
LINE
  8
1
 62
7
  6
CONTINUOUS
 10
191.282978
 20
193.305566
 11
191.288401
 21
193.300225
  0
LINE
  8
1
 62
7
  6
CONTINUOUS
 10
191.288401
 20
193.300225
 11
191.293599
 21
193.295193
  0
LINE
  8
1
 62
7
  6
CONTINUOUS
 10
191.293599
 20
193.295193
 11
191.298429
 21
193.290575
  0
LINE
  8
1
 62
7
  6
CONTINUOUS
 10
191.298429
 20
193.290575
 11
191.302762
 21
193.286470
  0
LINE
  8
1
 62
7
  6
CONTINUOUS
 10
191.302762
 20
193.286470
 11
191.306481
 21
193.282968
  0
LINE
  8
1
 62
7
  6
CONTINUOUS
 10
191.306481
 20
193.282968
 11
191.309483
 21
193.280150
  0
LINE
  8
1
 62
7
  6
CONTINUOUS
 10
191.309483
 20
193.280150
 11
191.311688
 21
193.278083
  0
LINE
  8
1
 62
7
  6
CONTINUOUS
 10
191.311688
 20
193.278083
 11
191.313035
 21
193.276820
  0
LINE
  8
1
 62
7
  6
CONTINUOUS
 10
191.313035
 20
193.276820
 11
191.313488
 21
193.276396
  0
LINE
  8
1
 62
7
  6
CONTINUOUS
 10
190.522775
 20
193.312209
 11
191.276395
 21
193.312209
  0
LINE
  8
1
 62
7
  6
CONTINUOUS
 10
191.679591
 20
194.468921
 11
191.686194
 21
194.469127
  0
LINE
  8
1
 62
7
  6
CONTINUOUS
 10
191.686194
 20
194.469127
 11
191.705821
 21
194.469740
  0
LINE
  8
1
 62
7
  6
CONTINUOUS
 10
191.705821
 20
194.469740
 11
191.737913
 21
194.470740
  0
LINE
  8
1
 62
7
  6
CONTINUOUS
 10
191.737913
 20
194.470740
 11
191.781514
 21
194.472086
  0
LINE
  8
1
 62
7
  6
CONTINUOUS
 10
191.781514
 20
194.472086
 11
191.835243
 21
194.473711
  0
LINE
  8
1
 62
7
  6
CONTINUOUS
 10
191.835243
 20
194.473711
 11
191.897296
 21
194.475515
  0
LINE
  8
1
 62
7
  6
CONTINUOUS
 10
191.897296
 20
194.475515
 11
191.965483
 21
194.477369
  0
LINE
  8
1
 62
7
  6
CONTINUOUS
 10
191.965483
 20
194.477369
 11
192.037313
 21
194.479120
  0
LINE
  8
1
 62
7
  6
CONTINUOUS
 10
192.037313
 20
194.479120
 11
192.110139
 21
194.480610
  0
LINE
  8
1
 62
7
  6
CONTINUOUS
 10
192.110139
 20
194.480610
 11
192.181340
 21
194.481695
  0
LINE
  8
1
 62
7
  6
CONTINUOUS
 10
192.181340
 20
194.481695
 11
192.248509
 21
194.482270
  0
LINE
  8
1
 62
7
  6
CONTINUOUS
 10
192.248509
 20
194.482270
 11
192.309637
 21
194.482292
  0
LINE
  8
1
 62
7
  6
CONTINUOUS
 10
192.309637
 20
194.482292
 11
192.363237
 21
194.481789
  0
LINE
  8
1
 62
7
  6
CONTINUOUS
 10
192.363237
 20
194.481789
 11
192.408400
 21
194.480864
  0
LINE
  8
1
 62
7
  6
CONTINUOUS
 10
192.408400
 20
194.480864
 11
192.444765
 21
194.479683
  0
LINE
  8
1
 62
7
  6
CONTINUOUS
 10
192.444765
 20
194.479683
 11
192.472410
 21
194.478450
  0
LINE
  8
1
 62
7
  6
CONTINUOUS
 10
192.472410
 20
194.478450
 11
192.491683
 21
194.477379
  0
LINE
  8
1
 62
7
  6
CONTINUOUS
 10
192.491683
 20
194.477379
 11
192.503017
 21
194.476652
  0
LINE
  8
1
 62
7
  6
CONTINUOUS
 10
192.503017
 20
194.476652
 11
192.506753
 21
194.476396
  0
LINE
  8
1
 62
7
  6
CONTINUOUS
 10
192.506753
 20
194.476396
 11
192.510449
 21
194.476132
  0
LINE
  8
1
 62
7
  6
CONTINUOUS
 10
192.510449
 20
194.476132
 11
192.521206
 21
194.475313
  0
LINE
  8
1
 62
7
  6
CONTINUOUS
 10
192.521206
 20
194.475313
 11
192.538082
 21
194.473854
  0
LINE
  8
1
 62
7
  6
CONTINUOUS
 10
192.538082
 20
194.473854
 11
192.559658
 21
194.471641
  0
LINE
  8
1
 62
7
  6
CONTINUOUS
 10
192.559658
 20
194.471641
 11
192.584242
 21
194.468556
  0
LINE
  8
1
 62
7
  6
CONTINUOUS
 10
192.584242
 20
194.468556
 11
192.610094
 21
194.464510
  0
LINE
  8
1
 62
7
  6
CONTINUOUS
 10
192.610094
 20
194.464510
 11
192.635639
 21
194.459474
  0
LINE
  8
1
 62
7
  6
CONTINUOUS
 10
192.635639
 20
194.459474
 11
192.659626
 21
194.453494
  0
LINE
  8
1
 62
7
  6
CONTINUOUS
 10
192.659626
 20
194.453494
 11
192.681221
 21
194.446705
  0
LINE
  8
1
 62
7
  6
CONTINUOUS
 10
192.681221
 20
194.446705
 11
192.700011
 21
194.439321
  0
LINE
  8
1
 62
7
  6
CONTINUOUS
 10
192.700011
 20
194.439321
 11
192.715948
 21
194.431618
  0
LINE
  8
1
 62
7
  6
CONTINUOUS
 10
192.715948
 20
194.431618
 11
192.729234
 21
194.423910
  0
LINE
  8
1
 62
7
  6
CONTINUOUS
 10
192.729234
 20
194.423910
 11
192.740192
 21
194.416516
  0
LINE
  8
1
 62
7
  6
CONTINUOUS
 10
192.740192
 20
194.416516
 11
192.749154
 21
194.409741
  0
LINE
  8
1
 62
7
  6
CONTINUOUS
 10
192.749154
 20
194.409741
 11
192.756375
 21
194.403850
  0
LINE
  8
1
 62
7
  6
CONTINUOUS
 10
192.756375
 20
194.403850
 11
192.761995
 21
194.399059
  0
LINE
  8
1
 62
7
  6
CONTINUOUS
 10
192.761995
 20
194.399059
 11
192.766051
 21
194.395529
  0
LINE
  8
1
 62
7
  6
CONTINUOUS
 10
192.766051
 20
194.395529
 11
192.768516
 21
194.393369
  0
LINE
  8
1
 62
7
  6
CONTINUOUS
 10
192.768516
 20
194.393369
 11
192.769344
 21
194.392642
  0
LINE
  8
1
 62
7
  6
CONTINUOUS
 10
193.047932
 20
194.028460
 11
193.044957
 21
194.037724
  0
LINE
  8
1
 62
7
  6
CONTINUOUS
 10
193.044957
 20
194.037724
 11
193.041818
 21
194.046947
  0
LINE
  8
1
 62
7
  6
CONTINUOUS
 10
193.041818
 20
194.046947
 11
193.038518
 21
194.056127
  0
LINE
  8
1
 62
7
  6
CONTINUOUS
 10
193.038518
 20
194.056127
 11
193.035057
 21
194.065260
  0
LINE
  8
1
 62
7
  6
CONTINUOUS
 10
193.035057
 20
194.065260
 11
193.031435
 21
194.074346
  0
LINE
  8
1
 62
7
  6
CONTINUOUS
 10
193.031435
 20
194.074346
 11
193.027654
 21
194.083381
  0
LINE
  8
1
 62
7
  6
CONTINUOUS
 10
193.027654
 20
194.083381
 11
193.023715
 21
194.092363
  0
LINE
  8
1
 62
7
  6
CONTINUOUS
 10
193.023715
 20
194.092363
 11
193.019619
 21
194.101290
  0
LINE
  8
1
 62
7
  6
CONTINUOUS
 10
193.019619
 20
194.101290
 11
193.015367
 21
194.110159
  0
LINE
  8
1
 62
7
  6
CONTINUOUS
 10
193.015367
 20
194.110159
 11
193.010959
 21
194.118969
  0
LINE
  8
1
 62
7
  6
CONTINUOUS
 10
193.010959
 20
194.118969
 11
193.006397
 21
194.127717
  0
LINE
  8
1
 62
7
  6
CONTINUOUS
 10
193.006397
 20
194.127717
 11
193.001683
 21
194.136401
  0
LINE
  8
1
 62
7
  6
CONTINUOUS
 10
193.001683
 20
194.136401
 11
192.996817
 21
194.145018
  0
LINE
  8
1
 62
7
  6
CONTINUOUS
 10
192.996817
 20
194.145018
 11
192.991800
 21
194.153567
  0
LINE
  8
1
 62
7
  6
CONTINUOUS
 10
192.991800
 20
194.153567
 11
192.986635
 21
194.162045
  0
LINE
  8
1
 62
7
  6
CONTINUOUS
 10
192.986635
 20
194.162045
 11
192.981321
 21
194.170450
  0
LINE
  8
1
 62
7
  6
CONTINUOUS
 10
192.981321
 20
194.170450
 11
192.975861
 21
194.178780
  0
LINE
  8
1
 62
7
  6
CONTINUOUS
 10
192.975861
 20
194.178780
 11
192.970256
 21
194.187033
  0
LINE
  8
1
 62
7
  6
CONTINUOUS
 10
192.970256
 20
194.187033
 11
192.964508
 21
194.195206
  0
LINE
  8
1
 62
7
  6
CONTINUOUS
 10
192.964508
 20
194.195206
 11
192.958617
 21
194.203299
  0
LINE
  8
1
 62
7
  6
CONTINUOUS
 10
192.958617
 20
194.203299
 11
192.952586
 21
194.211307
  0
LINE
  8
1
 62
7
  6
CONTINUOUS
 10
192.952586
 20
194.211307
 11
192.946415
 21
194.219231
  0
LINE
  8
1
 62
7
  6
CONTINUOUS
 10
192.946415
 20
194.219231
 11
192.940107
 21
194.227066
  0
LINE
  8
1
 62
7
  6
CONTINUOUS
 10
192.940107
 20
194.227066
 11
192.933663
 21
194.234812
  0
LINE
  8
1
 62
7
  6
CONTINUOUS
 10
192.933663
 20
194.234812
 11
192.927085
 21
194.242467
  0
LINE
  8
1
 62
7
  6
CONTINUOUS
 10
192.927085
 20
194.242467
 11
192.920374
 21
194.250028
  0
LINE
  8
1
 62
7
  6
CONTINUOUS
 10
192.920374
 20
194.250028
 11
192.913533
 21
194.257494
  0
LINE
  8
1
 62
7
  6
CONTINUOUS
 10
192.913533
 20
194.257494
 11
192.906562
 21
194.264863
  0
LINE
  8
1
 62
7
  6
CONTINUOUS
 10
192.906562
 20
194.264863
 11
192.899463
 21
194.272132
  0
LINE
  8
1
 62
7
  6
CONTINUOUS
 10
192.899463
 20
194.272132
 11
192.892240
 21
194.279300
  0
LINE
  8
1
 62
7
  6
CONTINUOUS
 10
192.892240
 20
194.279300
 11
192.884892
 21
194.286366
  0
LINE
  8
1
 62
7
  6
CONTINUOUS
 10
192.884892
 20
194.286366
 11
192.877423
 21
194.293327
  0
LINE
  8
1
 62
7
  6
CONTINUOUS
 10
192.877423
 20
194.293327
 11
192.869834
 21
194.300181
  0
LINE
  8
1
 62
7
  6
CONTINUOUS
 10
192.869834
 20
194.300181
 11
192.862127
 21
194.306927
  0
LINE
  8
1
 62
7
  6
CONTINUOUS
 10
192.862127
 20
194.306927
 11
192.854303
 21
194.313564
  0
LINE
  8
1
 62
7
  6
CONTINUOUS
 10
192.854303
 20
194.313564
 11
192.846366
 21
194.320088
  0
LINE
  8
1
 62
7
  6
CONTINUOUS
 10
192.846366
 20
194.320088
 11
192.838317
 21
194.326500
  0
LINE
  8
1
 62
7
  6
CONTINUOUS
 10
192.838317
 20
194.326500
 11
192.830158
 21
194.332796
  0
LINE
  8
1
 62
7
  6
CONTINUOUS
 10
192.830158
 20
194.332796
 11
192.821891
 21
194.338976
  0
LINE
  8
1
 62
7
  6
CONTINUOUS
 10
192.821891
 20
194.338976
 11
192.813518
 21
194.345038
  0
LINE
  8
1
 62
7
  6
CONTINUOUS
 10
192.813518
 20
194.345038
 11
192.805042
 21
194.350981
  0
LINE
  8
1
 62
7
  6
CONTINUOUS
 10
192.805042
 20
194.350981
 11
192.796464
 21
194.356802
  0
LINE
  8
1
 62
7
  6
CONTINUOUS
 10
192.796464
 20
194.356802
 11
192.787787
 21
194.362500
  0
LINE
  8
1
 62
7
  6
CONTINUOUS
 10
192.787787
 20
194.362500
 11
192.779013
 21
194.368075
  0
LINE
  8
1
 62
7
  6
CONTINUOUS
 10
192.779013
 20
194.368075
 11
192.770144
 21
194.373523
  0
LINE
  8
1
 62
7
  6
CONTINUOUS
 10
192.770144
 20
194.373523
 11
192.761182
 21
194.378845
  0
LINE
  8
1
 62
7
  6
CONTINUOUS
 10
192.761182
 20
194.378845
 11
192.752131
 21
194.384039
  0
LINE
  8
1
 62
7
  6
CONTINUOUS
 10
192.752131
 20
194.384039
 11
192.742991
 21
194.389103
  0
LINE
  8
1
 62
7
  6
CONTINUOUS
 10
192.742991
 20
194.389103
 11
192.733766
 21
194.394036
  0
LINE
  8
1
 62
7
  6
CONTINUOUS
 10
192.733766
 20
194.394036
 11
192.724457
 21
194.398838
  0
LINE
  8
1
 62
7
  6
CONTINUOUS
 10
192.724457
 20
194.398838
 11
192.715068
 21
194.403505
  0
LINE
  8
1
 62
7
  6
CONTINUOUS
 10
192.715068
 20
194.403505
 11
192.705600
 21
194.408038
  0
LINE
  8
1
 62
7
  6
CONTINUOUS
 10
192.705600
 20
194.408038
 11
192.696056
 21
194.412436
  0
LINE
  8
1
 62
7
  6
CONTINUOUS
 10
192.696056
 20
194.412436
 11
192.686439
 21
194.416696
  0
LINE
  8
1
 62
7
  6
CONTINUOUS
 10
192.686439
 20
194.416696
 11
192.676750
 21
194.420819
  0
LINE
  8
1
 62
7
  6
CONTINUOUS
 10
192.676750
 20
194.420819
 11
192.666993
 21
194.424803
  0
LINE
  8
1
 62
7
  6
CONTINUOUS
 10
192.666993
 20
194.424803
 11
192.657169
 21
194.428646
  0
LINE
  8
1
 62
7
  6
CONTINUOUS
 10
192.657169
 20
194.428646
 11
192.647282
 21
194.432349
  0
LINE
  8
1
 62
7
  6
CONTINUOUS
 10
192.647282
 20
194.432349
 11
192.637334
 21
194.435910
  0
LINE
  8
1
 62
7
  6
CONTINUOUS
 10
192.637334
 20
194.435910
 11
192.627327
 21
194.439328
  0
LINE
  8
1
 62
7
  6
CONTINUOUS
 10
192.627327
 20
194.439328
 11
192.617263
 21
194.442602
  0
LINE
  8
1
 62
7
  6
CONTINUOUS
 10
192.617263
 20
194.442602
 11
192.607147
 21
194.445731
  0
LINE
  8
1
 62
7
  6
CONTINUOUS
 10
192.607147
 20
194.445731
 11
192.596979
 21
194.448716
  0
LINE
  8
1
 62
7
  6
CONTINUOUS
 10
192.596979
 20
194.448716
 11
192.586763
 21
194.451554
  0
LINE
  8
1
 62
7
  6
CONTINUOUS
 10
192.586763
 20
194.451554
 11
192.576502
 21
194.454245
  0
LINE
  8
1
 62
7
  6
CONTINUOUS
 10
192.576502
 20
194.454245
 11
192.566197
 21
194.456789
  0
LINE
  8
1
 62
7
  6
CONTINUOUS
 10
192.566197
 20
194.456789
 11
192.555852
 21
194.459185
  0
LINE
  8
1
 62
7
  6
CONTINUOUS
 10
192.555852
 20
194.459185
 11
192.545469
 21
194.461432
  0
LINE
  8
1
 62
7
  6
CONTINUOUS
 10
192.545469
 20
194.461432
 11
192.535051
 21
194.463529
  0
LINE
  8
1
 62
7
  6
CONTINUOUS
 10
192.535051
 20
194.463529
 11
192.524600
 21
194.465477
  0
LINE
  8
1
 62
7
  6
CONTINUOUS
 10
192.524600
 20
194.465477
 11
192.514119
 21
194.467274
  0
LINE
  8
1
 62
7
  6
CONTINUOUS
 10
192.514119
 20
194.467274
 11
192.503612
 21
194.468921
  0
LINE
  8
1
 62
7
  6
CONTINUOUS
 10
193.047932
 20
194.028460
 11
193.048195
 21
194.027192
  0
LINE
  8
1
 62
7
  6
CONTINUOUS
 10
193.048195
 20
194.027192
 11
193.048974
 21
194.023423
  0
LINE
  8
1
 62
7
  6
CONTINUOUS
 10
193.048974
 20
194.023423
 11
193.050246
 21
194.017246
  0
LINE
  8
1
 62
7
  6
CONTINUOUS
 10
193.050246
 20
194.017246
 11
193.051960
 21
194.008798
  0
LINE
  8
1
 62
7
  6
CONTINUOUS
 10
193.051960
 20
194.008798
 11
193.054035
 21
193.998235
  0
LINE
  8
1
 62
7
  6
CONTINUOUS
 10
193.054035
 20
193.998235
 11
193.056356
 21
193.985711
  0
LINE
  8
1
 62
7
  6
CONTINUOUS
 10
193.056356
 20
193.985711
 11
193.058769
 21
193.971374
  0
LINE
  8
1
 62
7
  6
CONTINUOUS
 10
193.058769
 20
193.971374
 11
193.061097
 21
193.955366
  0
LINE
  8
1
 62
7
  6
CONTINUOUS
 10
193.061097
 20
193.955366
 11
193.063153
 21
193.937855
  0
LINE
  8
1
 62
7
  6
CONTINUOUS
 10
193.063153
 20
193.937855
 11
193.064768
 21
193.919070
  0
LINE
  8
1
 62
7
  6
CONTINUOUS
 10
193.064768
 20
193.919070
 11
193.065815
 21
193.899340
  0
LINE
  8
1
 62
7
  6
CONTINUOUS
 10
193.065815
 20
193.899340
 11
193.066234
 21
193.879135
  0
LINE
  8
1
 62
7
  6
CONTINUOUS
 10
193.066234
 20
193.879135
 11
193.066046
 21
193.859076
  0
LINE
  8
1
 62
7
  6
CONTINUOUS
 10
193.066046
 20
193.859076
 11
193.065355
 21
193.839928
  0
LINE
  8
1
 62
7
  6
CONTINUOUS
 10
193.065355
 20
193.839928
 11
193.064334
 21
193.822555
  0
LINE
  8
1
 62
7
  6
CONTINUOUS
 10
193.064334
 20
193.822555
 11
193.063202
 21
193.807849
  0
LINE
  8
1
 62
7
  6
CONTINUOUS
 10
193.063202
 20
193.807849
 11
193.062188
 21
193.796644
  0
LINE
  8
1
 62
7
  6
CONTINUOUS
 10
193.062188
 20
193.796644
 11
193.061488
 21
193.789623
  0
LINE
  8
1
 62
7
  6
CONTINUOUS
 10
193.061488
 20
193.789623
 11
193.061239
 21
193.787230
  0
LINE
  8
1
 62
7
  6
CONTINUOUS
 10
193.061239
 20
193.787230
 11
193.060983
 21
193.784823
  0
LINE
  8
1
 62
7
  6
CONTINUOUS
 10
193.060983
 20
193.784823
 11
193.060181
 21
193.777577
  0
LINE
  8
1
 62
7
  6
CONTINUOUS
 10
193.060181
 20
193.777577
 11
193.058741
 21
193.765449
  0
LINE
  8
1
 62
7
  6
CONTINUOUS
 10
193.058741
 20
193.765449
 11
193.056539
 21
193.748443
  0
LINE
  8
1
 62
7
  6
CONTINUOUS
 10
193.056539
 20
193.748443
 11
193.053453
 21
193.726704
  0
LINE
  8
1
 62
7
  6
CONTINUOUS
 10
193.053453
 20
193.726704
 11
193.049404
 21
193.700607
  0
LINE
  8
1
 62
7
  6
CONTINUOUS
 10
193.049404
 20
193.700607
 11
193.044390
 21
193.670822
  0
LINE
  8
1
 62
7
  6
CONTINUOUS
 10
193.044390
 20
193.670822
 11
193.038501
 21
193.638319
  0
LINE
  8
1
 62
7
  6
CONTINUOUS
 10
193.038501
 20
193.638319
 11
193.031921
 21
193.604324
  0
LINE
  8
1
 62
7
  6
CONTINUOUS
 10
193.031921
 20
193.604324
 11
193.024916
 21
193.570214
  0
LINE
  8
1
 62
7
  6
CONTINUOUS
 10
193.024916
 20
193.570214
 11
193.017797
 21
193.537378
  0
LINE
  8
1
 62
7
  6
CONTINUOUS
 10
193.017797
 20
193.537378
 11
193.010886
 21
193.507068
  0
LINE
  8
1
 62
7
  6
CONTINUOUS
 10
193.010886
 20
193.507068
 11
193.004480
 21
193.480271
  0
LINE
  8
1
 62
7
  6
CONTINUOUS
 10
193.004480
 20
193.480271
 11
192.998819
 21
193.457635
  0
LINE
  8
1
 62
7
  6
CONTINUOUS
 10
192.998819
 20
193.457635
 11
192.994075
 21
193.439453
  0
LINE
  8
1
 62
7
  6
CONTINUOUS
 10
192.994075
 20
193.439453
 11
192.990350
 21
193.425717
  0
LINE
  8
1
 62
7
  6
CONTINUOUS
 10
192.990350
 20
193.425717
 11
192.987686
 21
193.416215
  0
LINE
  8
1
 62
7
  6
CONTINUOUS
 10
192.987686
 20
193.416215
 11
192.986093
 21
193.410668
  0
LINE
  8
1
 62
7
  6
CONTINUOUS
 10
192.986093
 20
193.410668
 11
192.985563
 21
193.408848
  0
LINE
  8
1
 62
7
  6
CONTINUOUS
 10
192.985563
 20
193.408848
 11
192.985036
 21
193.407051
  0
LINE
  8
1
 62
7
  6
CONTINUOUS
 10
192.985036
 20
193.407051
 11
192.983490
 21
193.401847
  0
LINE
  8
1
 62
7
  6
CONTINUOUS
 10
192.983490
 20
193.401847
 11
192.981020
 21
193.393766
  0
LINE
  8
1
 62
7
  6
CONTINUOUS
 10
192.981020
 20
193.393766
 11
192.977774
 21
193.383601
  0
LINE
  8
1
 62
7
  6
CONTINUOUS
 10
192.977774
 20
193.383601
 11
192.973930
 21
193.372286
  0
LINE
  8
1
 62
7
  6
CONTINUOUS
 10
192.973930
 20
193.372286
 11
192.969683
 21
193.360769
  0
LINE
  8
1
 62
7
  6
CONTINUOUS
 10
192.969683
 20
193.360769
 11
192.965221
 21
193.349886
  0
LINE
  8
1
 62
7
  6
CONTINUOUS
 10
192.965221
 20
193.349886
 11
192.960711
 21
193.340261
  0
LINE
  8
1
 62
7
  6
CONTINUOUS
 10
192.960711
 20
193.340261
 11
192.956291
 21
193.332267
  0
LINE
  8
1
 62
7
  6
CONTINUOUS
 10
192.956291
 20
193.332267
 11
192.952067
 21
193.326014
  0
LINE
  8
1
 62
7
  6
CONTINUOUS
 10
192.952067
 20
193.326014
 11
192.948116
 21
193.321398
  0
LINE
  8
1
 62
7
  6
CONTINUOUS
 10
192.948116
 20
193.321398
 11
192.944493
 21
193.318164
  0
LINE
  8
1
 62
7
  6
CONTINUOUS
 10
192.944493
 20
193.318164
 11
192.941239
 21
193.315989
  0
LINE
  8
1
 62
7
  6
CONTINUOUS
 10
192.941239
 20
193.315989
 11
192.938392
 21
193.314558
  0
LINE
  8
1
 62
7
  6
CONTINUOUS
 10
192.938392
 20
193.314558
 11
192.935988
 21
193.313611
  0
LINE
  8
1
 62
7
  6
CONTINUOUS
 10
192.935988
 20
193.313611
 11
192.934063
 21
193.312972
  0
LINE
  8
1
 62
7
  6
CONTINUOUS
 10
192.934063
 20
193.312972
 11
192.932656
 21
193.312545
  0
LINE
  8
1
 62
7
  6
CONTINUOUS
 10
192.932656
 20
193.312545
 11
192.931797
 21
193.312293
  0
LINE
  8
1
 62
7
  6
CONTINUOUS
 10
192.931797
 20
193.312293
 11
192.931508
 21
193.312209
  0
LINE
  8
1
 62
7
  6
CONTINUOUS
 10
191.788074
 20
193.925871
 11
191.615937
 21
193.276396
  0
ARC
  8
1
 62
7
  6
CONTINUOUS
 10
192.020064
 20
193.864384
 40
0.240000
 50
63.977929
 51
165.155640
  0
LINE
  8
1
 62
7
  6
CONTINUOUS
 10
192.125356
 20
194.080054
 11
192.386096
 21
193.952758
  0
LINE
  8
1
 62
7
  6
CONTINUOUS
 10
192.470561
 20
193.767987
 11
192.349762
 21
193.312209
  0
ARC
  8
1
 62
7
  6
CONTINUOUS
 10
192.315901
 20
193.808978
 40
0.160000
 50
-14.844360
 51
63.977929
  0
LINE
  8
1
 62
7
  6
CONTINUOUS
 10
191.625429
 20
193.312209
 11
192.349762
 21
193.312209
  0
LINE
  8
1
 62
7
  6
CONTINUOUS
 10
195.318610
 20
194.512209
 11
195.834336
 21
194.512209
  0
LINE
  8
1
 62
7
  6
CONTINUOUS
 10
193.345319
 20
193.312209
 11
193.616054
 21
194.333695
  0
ARC
  8
1
 62
7
  6
CONTINUOUS
 10
193.848044
 20
194.272209
 40
0.240000
 50
90.000000
 51
165.155634
  0
LINE
  8
1
 62
7
  6
CONTINUOUS
 10
193.848044
 20
194.512209
 11
194.179093
 21
194.512209
  0
ARC
  8
1
 62
7
  6
CONTINUOUS
 10
194.179093
 20
194.272209
 40
0.240000
 50
30.038398
 51
90.000000
  0
LINE
  8
1
 62
7
  6
CONTINUOUS
 10
194.565408
 20
194.317531
 11
195.318610
 21
194.512209
  0
ARC
  8
1
 62
7
  6
CONTINUOUS
 10
194.525369
 20
194.472441
 40
0.160000
 50
-149.961602
 51
-75.508146
  0
ARC
  8
1
 62
7
  6
CONTINUOUS
 10
194.522441
 20
193.694088
 40
0.240000
 50
91.976217
 51
165.155595
  0
LINE
  8
1
 62
7
  6
CONTINUOUS
 10
194.514164
 20
193.933946
 11
194.848268
 21
193.945474
  0
ARC
  8
1
 62
7
  6
CONTINUOUS
 10
194.856545
 20
193.705617
 40
0.240000
 50
-14.844361
 51
91.976217
  0
LINE
  8
1
 62
7
  6
CONTINUOUS
 10
196.979874
 20
194.506628
 11
197.495599
 21
194.506628
  0
LINE
  8
1
 62
7
  6
CONTINUOUS
 10
197.727590
 20
194.205141
 11
197.489448
 21
193.306628
  0
ARC
  8
1
 62
7
  6
CONTINUOUS
 10
197.495599
 20
194.266628
 40
0.240000
 50
-14.844371
 51
90.000000
  0
LINE
  8
1
 62
7
  6
CONTINUOUS
 10
196.226671
 20
194.311951
 11
196.979874
 21
194.506628
  0
ARC
  8
1
 62
7
  6
CONTINUOUS
 10
196.186633
 20
194.466860
 40
0.160000
 50
-149.961602
 51
-75.508146
  0
ARC
  8
1
 62
7
  6
CONTINUOUS
 10
196.183704
 20
193.688508
 40
0.240000
 50
91.976217
 51
165.155595
  0
LINE
  8
1
 62
7
  6
CONTINUOUS
 10
196.175428
 20
193.928365
 11
196.509532
 21
193.939893
  0
ARC
  8
1
 62
7
  6
CONTINUOUS
 10
196.517808
 20
193.700036
 40
0.240000
 50
-14.844361
 51
91.976217
  0
ARC
  8
1
 62
7
  6
CONTINUOUS
 10
195.834336
 20
194.272209
 40
0.240000
 50
28.184788
 51
90.000000
  0
LINE
  8
1
 62
7
  6
CONTINUOUS
 10
195.958056
 20
193.770256
 11
195.835727
 21
193.308705
  0
LINE
  8
1
 62
7
  6
CONTINUOUS
 10
196.757069
 20
193.681214
 11
196.658340
 21
193.308705
  0
LINE
  8
1
 62
7
  6
CONTINUOUS
 10
192.931508
 20
193.312209
 11
193.345319
 21
193.312209
  0
LINE
  8
1
 62
7
  6
CONTINUOUS
 10
196.757069
 20
193.681214
 11
196.554075
 21
192.915315
  0
LINE
  8
1
 62
7
  6
CONTINUOUS
 10
194.098466
 20
193.031217
 11
194.290450
 21
193.755575
  0
LINE
  8
1
 62
7
  6
CONTINUOUS
 10
190.416759
 20
192.912209
 11
193.943806
 21
192.912209
  0
ARC
  8
1
 62
7
  6
CONTINUOUS
 10
193.943806
 20
193.072209
 40
0.160000
 50
-90.000000
 51
-14.844434
  0
LINE
  8
1
 62
7
  6
CONTINUOUS
 10
195.088535
 20
193.644130
 11
194.947817
 21
193.113200
  0
ARC
  8
1
 62
7
  6
CONTINUOUS
 10
195.102477
 20
193.072209
 40
0.160000
 50
165.155639
 51
-90.000000
  0
LINE
  8
1
 62
7
  6
CONTINUOUS
 10
195.958056
 20
193.770256
 11
195.762181
 21
193.031218
  0
LINE
  8
1
 62
7
  6
CONTINUOUS
 10
195.102477
 20
192.912209
 11
195.607521
 21
192.912209
  0
ARC
  8
1
 62
7
  6
CONTINUOUS
 10
195.607521
 20
193.072209
 40
0.160000
 50
-90.000000
 51
-14.844377
  0
LINE
  8
1
 62
7
  6
CONTINUOUS
 10
185.864840
 20
192.912209
 11
188.638398
 21
192.912209
  0
LINE
  8
1
 62
7
  6
CONTINUOUS
 10
185.970877
 20
193.309248
 11
186.677058
 21
193.314301
  0
LINE
  8
1
 62
7
  6
CONTINUOUS
 10
180.838245
 20
193.472209
 11
180.838245
 21
194.312209
  0
LINE
  8
1
 62
7
  6
CONTINUOUS
 10
180.998245
 20
193.312209
 11
181.392198
 21
193.312209
  0
ARC
  8
1
 62
7
  6
CONTINUOUS
 10
180.998245
 20
193.472209
 40
0.160000
 50
180.000000
 51
-90.000000
  0
LINE
  8
1
 62
7
  6
CONTINUOUS
 10
177.887446
 20
196.018046
 11
177.638245
 21
195.077805
  0
LINE
  8
1
 62
7
  6
CONTINUOUS
 10
178.243452
 20
196.112209
 11
177.808281
 21
194.470303
  0
LINE
  8
1
 62
7
  6
CONTINUOUS
 10
178.074243
 20
196.098307
 11
177.688074
 21
194.641285
  0
LINE
  8
1
 62
7
  6
CONTINUOUS
 10
178.408977
 20
196.112209
 11
178.170614
 21
195.212861
  0
LINE
  8
1
 62
7
  6
CONTINUOUS
 10
178.079720
 20
194.869918
 11
177.947601
 21
194.371432
  0
LINE
  8
1
 62
7
  6
CONTINUOUS
 10
178.574501
 20
196.112209
 11
178.358015
 21
195.295406
  0
LINE
  8
1
 62
7
  6
CONTINUOUS
 10
178.740025
 20
196.112209
 11
178.527993
 21
195.312209
  0
LINE
  8
1
 62
7
  6
CONTINUOUS
 10
178.905549
 20
196.112209
 11
178.693517
 21
195.312209
  0
LINE
  8
1
 62
7
  6
CONTINUOUS
 10
179.071074
 20
196.112209
 11
178.859042
 21
195.312209
  0
LINE
  8
1
 62
7
  6
CONTINUOUS
 10
179.236598
 20
196.112209
 11
179.024566
 21
195.312209
  0
LINE
  8
1
 62
7
  6
CONTINUOUS
 10
179.402122
 20
196.112209
 11
179.190090
 21
195.312209
  0
LINE
  8
1
 62
7
  6
CONTINUOUS
 10
179.567647
 20
196.112209
 11
179.355615
 21
195.312209
  0
LINE
  8
1
 62
7
  6
CONTINUOUS
 10
179.733171
 20
196.112209
 11
179.521139
 21
195.312209
  0
LINE
  8
1
 62
7
  6
CONTINUOUS
 10
179.898695
 20
196.112209
 11
179.686663
 21
195.312209
  0
LINE
  8
1
 62
7
  6
CONTINUOUS
 10
180.064220
 20
196.112209
 11
179.852187
 21
195.312209
  0
LINE
  8
1
 62
7
  6
CONTINUOUS
 10
180.229744
 20
196.112209
 11
180.017712
 21
195.312209
  0
LINE
  8
1
 62
7
  6
CONTINUOUS
 10
180.395269
 20
196.112209
 11
180.183237
 21
195.312209
  0
LINE
  8
1
 62
7
  6
CONTINUOUS
 10
180.560793
 20
196.112209
 11
180.348761
 21
195.312209
  0
LINE
  8
1
 62
7
  6
CONTINUOUS
 10
180.726317
 20
196.112209
 11
180.514285
 21
195.312209
  0
LINE
  8
1
 62
7
  6
CONTINUOUS
 10
180.891842
 20
196.112209
 11
180.679810
 21
195.312209
  0
LINE
  8
1
 62
7
  6
CONTINUOUS
 10
181.057366
 20
196.112209
 11
180.883830
 21
195.457452
  0
LINE
  8
1
 62
7
  6
CONTINUOUS
 10
181.200952
 20
196.029440
 11
181.170843
 21
195.915839
  0
LINE
  8
1
 62
7
  6
CONTINUOUS
 10
178.216337
 20
194.760851
 11
178.099743
 21
194.320940
  0
LINE
  8
1
 62
7
  6
CONTINUOUS
 10
178.370215
 20
194.716909
 11
178.262953
 21
194.312209
  0
LINE
  8
1
 62
7
  6
CONTINUOUS
 10
178.534493
 20
194.712209
 11
178.428477
 21
194.312209
  0
LINE
  8
1
 62
7
  6
CONTINUOUS
 10
178.700018
 20
194.712209
 11
178.594001
 21
194.312209
  0
LINE
  8
1
 62
7
  6
CONTINUOUS
 10
178.865542
 20
194.712209
 11
178.759526
 21
194.312209
  0
LINE
  8
1
 62
7
  6
CONTINUOUS
 10
179.031066
 20
194.712209
 11
178.925050
 21
194.312209
  0
LINE
  8
1
 62
7
  6
CONTINUOUS
 10
179.196591
 20
194.712209
 11
179.090575
 21
194.312209
  0
LINE
  8
1
 62
7
  6
CONTINUOUS
 10
179.362115
 20
194.712209
 11
179.256099
 21
194.312209
  0
LINE
  8
1
 62
7
  6
CONTINUOUS
 10
179.527639
 20
194.712209
 11
179.421623
 21
194.312209
  0
LINE
  8
1
 62
7
  6
CONTINUOUS
 10
179.693163
 20
194.712209
 11
179.587147
 21
194.312209
  0
LINE
  8
1
 62
7
  6
CONTINUOUS
 10
179.858688
 20
194.712209
 11
179.752672
 21
194.312209
  0
LINE
  8
1
 62
7
  6
CONTINUOUS
 10
180.024213
 20
194.712209
 11
179.918196
 21
194.312209
  0
LINE
  8
1
 62
7
  6
CONTINUOUS
 10
180.189736
 20
194.712209
 11
180.083720
 21
194.312209
  0
LINE
  8
1
 62
7
  6
CONTINUOUS
 10
180.355261
 20
194.712209
 11
180.247441
 21
194.305401
  0
LINE
  8
1
 62
7
  6
CONTINUOUS
 10
180.518623
 20
194.704050
 11
180.401706
 21
194.262921
  0
LINE
  8
1
 62
7
  6
CONTINUOUS
 10
180.667221
 20
194.640187
 11
180.539217
 21
194.157225
  0
LINE
  8
1
 62
7
  6
CONTINUOUS
 10
180.794186
 20
194.494707
 11
180.374761
 21
192.912209
  0
LINE
  8
1
 62
7
  6
CONTINUOUS
 10
180.445696
 20
193.804369
 11
180.209238
 21
192.912209
  0
LINE
  8
1
 62
7
  6
CONTINUOUS
 10
180.259080
 20
193.724792
 11
180.043713
 21
192.912209
  0
LINE
  8
1
 62
7
  6
CONTINUOUS
 10
180.090221
 20
193.712209
 11
179.878189
 21
192.912209
  0
LINE
  8
1
 62
7
  6
CONTINUOUS
 10
179.924696
 20
193.712209
 11
179.712664
 21
192.912209
  0
LINE
  8
1
 62
7
  6
CONTINUOUS
 10
179.759172
 20
193.712209
 11
179.547140
 21
192.912209
  0
LINE
  8
1
 62
7
  6
CONTINUOUS
 10
179.593648
 20
193.712209
 11
179.381615
 21
192.912209
  0
LINE
  8
1
 62
7
  6
CONTINUOUS
 10
179.428123
 20
193.712209
 11
179.216091
 21
192.912209
  0
LINE
  8
1
 62
7
  6
CONTINUOUS
 10
179.262599
 20
193.712209
 11
179.050567
 21
192.912209
  0
LINE
  8
1
 62
7
  6
CONTINUOUS
 10
179.097075
 20
193.712209
 11
178.885043
 21
192.912209
  0
LINE
  8
1
 62
7
  6
CONTINUOUS
 10
178.931551
 20
193.712209
 11
178.719519
 21
192.912209
  0
LINE
  8
1
 62
7
  6
CONTINUOUS
 10
178.766026
 20
193.712209
 11
178.553994
 21
192.912209
  0
LINE
  8
1
 62
7
  6
CONTINUOUS
 10
178.600502
 20
193.712209
 11
178.388470
 21
192.912209
  0
LINE
  8
1
 62
7
  6
CONTINUOUS
 10
178.434978
 20
193.712209
 11
178.222945
 21
192.912209
  0
LINE
  8
1
 62
7
  6
CONTINUOUS
 10
178.269453
 20
193.712209
 11
178.057421
 21
192.912209
  0
LINE
  8
1
 62
7
  6
CONTINUOUS
 10
178.103929
 20
193.712209
 11
177.891897
 21
192.912209
  0
LINE
  8
1
 62
7
  6
CONTINUOUS
 10
177.938404
 20
193.712209
 11
177.726372
 21
192.912209
  0
LINE
  8
1
 62
7
  6
CONTINUOUS
 10
177.607356
 20
193.712209
 11
177.395324
 21
192.912209
  0
LINE
  8
1
 62
7
  6
CONTINUOUS
 10
177.441832
 20
193.712209
 11
177.229799
 21
192.912209
  0
LINE
  8
1
 62
7
  6
CONTINUOUS
 10
177.276307
 20
193.712209
 11
177.064275
 21
192.912209
  0
LINE
  8
1
 62
7
  6
CONTINUOUS
 10
177.110783
 20
193.712209
 11
176.898751
 21
192.912209
  0
LINE
  8
1
 62
7
  6
CONTINUOUS
 10
176.945258
 20
193.712209
 11
176.733226
 21
192.912209
  0
LINE
  8
1
 62
7
  6
CONTINUOUS
 10
176.734639
 20
193.542065
 11
176.567702
 21
192.912209
  0
LINE
  8
1
 62
7
  6
CONTINUOUS
 10
177.772881
 20
193.712209
 11
177.560848
 21
192.912209
  0
LINE
  8
1
 62
7
  6
CONTINUOUS
 10
180.826354
 20
193.991547
 11
180.540286
 21
192.912209
  0
LINE
  8
1
 62
7
  6
CONTINUOUS
 10
180.705811
 20
192.912209
 11
180.843477
 21
193.431626
  0
LINE
  8
1
 62
7
  6
CONTINUOUS
 10
180.977702
 20
193.313533
 11
180.871334
 21
192.912209
  0
LINE
  8
1
 62
7
  6
CONTINUOUS
 10
181.142875
 20
193.312209
 11
181.036859
 21
192.912209
  0
LINE
  8
1
 62
7
  6
CONTINUOUS
 10
181.202383
 20
192.912209
 11
181.308399
 21
193.312209
  0
LINE
  8
1
 62
7
  6
CONTINUOUS
 10
181.420307
 20
194.358964
 11
181.199741
 21
193.592803
  0
LINE
  8
1
 62
7
  6
CONTINUOUS
 10
181.614612
 20
194.467554
 11
181.310253
 21
193.400076
  0
LINE
  8
1
 62
7
  6
CONTINUOUS
 10
181.789991
 20
194.504734
 11
181.367908
 21
192.912209
  0
LINE
  8
1
 62
7
  6
CONTINUOUS
 10
181.533432
 20
192.912209
 11
181.955515
 21
194.504734
  0
LINE
  8
1
 62
7
  6
CONTINUOUS
 10
182.122193
 20
194.509087
 11
181.698956
 21
192.912209
  0
LINE
  8
1
 62
7
  6
CONTINUOUS
 10
181.864481
 20
192.912209
 11
181.977849
 21
193.339949
  0
LINE
  8
1
 62
7
  6
CONTINUOUS
 10
182.289786
 20
194.516890
 11
182.248867
 21
194.362504
  0
LINE
  8
1
 62
7
  6
CONTINUOUS
 10
182.455028
 20
194.515829
 11
182.397570
 21
194.299038
  0
LINE
  8
1
 62
7
  6
CONTINUOUS
 10
182.613783
 20
194.490287
 11
182.534072
 21
194.189533
  0
LINE
  8
1
 62
7
  6
CONTINUOUS
 10
182.762920
 20
194.428456
 11
182.361053
 21
192.912209
  0
LINE
  8
1
 62
7
  6
CONTINUOUS
 10
182.301545
 20
193.312209
 11
182.195529
 21
192.912209
  0
LINE
  8
1
 62
7
  6
CONTINUOUS
 10
182.136021
 20
193.312209
 11
182.030005
 21
192.912209
  0
LINE
  8
1
 62
7
  6
CONTINUOUS
 10
182.989149
 20
194.657496
 11
182.526578
 21
192.912209
  0
LINE
  8
1
 62
7
  6
CONTINUOUS
 10
183.154857
 20
194.658191
 11
182.692286
 21
192.912903
  0
LINE
  8
1
 62
7
  6
CONTINUOUS
 10
183.320566
 20
194.658886
 11
182.857995
 21
192.913598
  0
LINE
  8
1
 62
7
  6
CONTINUOUS
 10
183.486274
 20
194.659581
 11
183.023703
 21
192.914293
  0
LINE
  8
1
 62
7
  6
CONTINUOUS
 10
183.188675
 20
192.912209
 11
183.329903
 21
193.445064
  0
LINE
  8
1
 62
7
  6
CONTINUOUS
 10
183.461631
 20
193.317548
 11
183.354199
 21
192.912209
  0
LINE
  8
1
 62
7
  6
CONTINUOUS
 10
183.625740
 20
193.312208
 11
183.528060
 21
192.943660
  0
LINE
  8
1
 62
7
  6
CONTINUOUS
 10
183.519724
 20
192.912209
 11
183.528060
 21
192.943660
  0
LINE
  8
1
 62
7
  6
CONTINUOUS
 10
183.685248
 20
192.912209
 11
183.791264
 21
193.312208
  0
LINE
  8
1
 62
7
  6
CONTINUOUS
 10
183.956789
 20
193.312208
 11
183.850773
 21
192.912209
  0
LINE
  8
1
 62
7
  6
CONTINUOUS
 10
184.678395
 20
192.912209
 11
184.784411
 21
193.312209
  0
LINE
  8
1
 62
7
  6
CONTINUOUS
 10
184.843919
 20
192.912209
 11
184.949935
 21
193.312209
  0
LINE
  8
1
 62
7
  6
CONTINUOUS
 10
184.020065
 20
192.926424
 11
184.438380
 21
194.504734
  0
LINE
  8
1
 62
7
  6
CONTINUOUS
 10
184.183169
 20
192.917294
 11
184.603904
 21
194.504734
  0
LINE
  8
1
 62
7
  6
CONTINUOUS
 10
184.346933
 20
192.910652
 11
184.769428
 21
194.504734
  0
LINE
  8
1
 62
7
  6
CONTINUOUS
 10
184.514011
 20
192.916515
 11
184.631225
 21
193.358765
  0
LINE
  8
1
 62
7
  6
CONTINUOUS
 10
184.937932
 20
194.515975
 11
184.895915
 21
194.357445
  0
LINE
  8
1
 62
7
  6
CONTINUOUS
 10
185.103752
 20
194.517086
 11
185.050830
 21
194.317413
  0
LINE
  8
1
 62
7
  6
CONTINUOUS
 10
185.263991
 20
194.497146
 11
185.187331
 21
194.207908
  0
LINE
  8
1
 62
7
  6
CONTINUOUS
 10
185.414510
 20
194.440531
 11
185.323832
 21
194.098403
  0
LINE
  8
1
 62
7
  6
CONTINUOUS
 10
186.108080
 20
193.310230
 11
186.002589
 21
192.912209
  0
LINE
  8
1
 62
7
  6
CONTINUOUS
 10
186.273605
 20
193.310230
 11
186.168113
 21
192.912209
  0
LINE
  8
1
 62
7
  6
CONTINUOUS
 10
186.439129
 20
193.310230
 11
186.333637
 21
192.912209
  0
LINE
  8
1
 62
7
  6
CONTINUOUS
 10
186.604653
 20
193.310230
 11
186.499162
 21
192.912209
  0
LINE
  8
1
 62
7
  6
CONTINUOUS
 10
187.763324
 20
193.310230
 11
187.657832
 21
192.912209
  0
LINE
  8
1
 62
7
  6
CONTINUOUS
 10
187.928848
 20
193.310230
 11
187.823357
 21
192.912209
  0
LINE
  8
1
 62
7
  6
CONTINUOUS
 10
186.664686
 20
192.912209
 11
186.781892
 21
193.354428
  0
LINE
  8
1
 62
7
  6
CONTINUOUS
 10
186.830211
 20
192.912209
 11
187.254275
 21
194.512209
  0
LINE
  8
1
 62
7
  6
CONTINUOUS
 10
186.995735
 20
192.912209
 11
187.419799
 21
194.512209
  0
LINE
  8
1
 62
7
  6
CONTINUOUS
 10
187.161259
 20
192.912209
 11
187.585324
 21
194.512209
  0
LINE
  8
1
 62
7
  6
CONTINUOUS
 10
187.326784
 20
192.912209
 11
187.750675
 21
194.511554
  0
LINE
  8
1
 62
7
  6
CONTINUOUS
 10
187.492308
 20
192.912209
 11
187.887653
 21
194.403852
  0
LINE
  8
1
 62
7
  6
CONTINUOUS
 10
187.988881
 20
192.912209
 11
188.400612
 21
194.465675
  0
LINE
  8
1
 62
7
  6
CONTINUOUS
 10
188.154405
 20
192.912209
 11
188.578469
 21
194.512209
  0
LINE
  8
1
 62
7
  6
CONTINUOUS
 10
188.319930
 20
192.912209
 11
188.743994
 21
194.512209
  0
LINE
  8
1
 62
7
  6
CONTINUOUS
 10
188.485454
 20
192.912209
 11
188.909518
 21
194.512209
  0
LINE
  8
1
 62
7
  6
CONTINUOUS
 10
188.638398
 20
192.912209
 11
189.043739
 21
194.441565
  0
LINE
  8
1
 62
7
  6
CONTINUOUS
 10
189.188451
 20
194.315574
 11
189.075008
 21
193.887555
  0
LINE
  8
1
 62
7
  6
CONTINUOUS
 10
189.361443
 20
194.343751
 11
189.253235
 21
193.935481
  0
LINE
  8
1
 62
7
  6
CONTINUOUS
 10
189.539140
 20
194.389680
 11
189.420287
 21
193.941245
  0
LINE
  8
1
 62
7
  6
CONTINUOUS
 10
189.716838
 20
194.435609
 11
189.586284
 21
193.943029
  0
LINE
  8
1
 62
7
  6
CONTINUOUS
 10
189.894535
 20
194.481537
 11
189.731000
 21
193.864517
  0
LINE
  8
1
 62
7
  6
CONTINUOUS
 10
190.068188
 20
194.512209
 11
189.663275
 21
192.984464
  0
LINE
  8
1
 62
7
  6
CONTINUOUS
 10
190.233712
 20
194.512209
 11
189.809649
 21
192.912209
  0
LINE
  8
1
 62
7
  6
CONTINUOUS
 10
189.975173
 20
192.912209
 11
190.399237
 21
194.512209
  0
LINE
  8
1
 62
7
  6
CONTINUOUS
 10
190.564076
 20
194.509621
 11
190.140697
 21
192.912209
  0
LINE
  8
1
 62
7
  6
CONTINUOUS
 10
190.708791
 20
194.431108
 11
190.306222
 21
192.912209
  0
LINE
  8
1
 62
7
  6
CONTINUOUS
 10
190.471745
 20
192.912209
 11
190.577762
 21
193.312209
  0
LINE
  8
1
 62
7
  6
CONTINUOUS
 10
190.637270
 20
192.912209
 11
190.743286
 21
193.312209
  0
LINE
  8
1
 62
7
  6
CONTINUOUS
 10
190.802794
 20
192.912209
 11
190.908811
 21
193.312209
  0
LINE
  8
1
 62
7
  6
CONTINUOUS
 10
190.968319
 20
192.912209
 11
191.074335
 21
193.312209
  0
LINE
  8
1
 62
7
  6
CONTINUOUS
 10
191.239859
 20
193.312209
 11
191.133843
 21
192.912209
  0
LINE
  8
1
 62
7
  6
CONTINUOUS
 10
191.342457
 20
194.323835
 11
191.131976
 21
193.529690
  0
LINE
  8
1
 62
7
  6
CONTINUOUS
 10
191.536652
 20
194.432011
 11
191.248114
 21
193.343355
  0
LINE
  8
1
 62
7
  6
CONTINUOUS
 10
191.712229
 20
194.469940
 11
191.299367
 21
192.912209
  0
LINE
  8
1
 62
7
  6
CONTINUOUS
 10
191.879090
 20
194.474986
 11
191.464892
 21
192.912209
  0
LINE
  8
1
 62
7
  6
CONTINUOUS
 10
192.045756
 20
194.479293
 11
191.943024
 21
194.091683
  0
LINE
  8
1
 62
7
  6
CONTINUOUS
 10
192.211987
 20
194.481957
 11
192.107539
 21
194.087875
  0
LINE
  8
1
 62
7
  6
CONTINUOUS
 10
192.377390
 20
194.481499
 11
192.263397
 21
194.051402
  0
LINE
  8
1
 62
7
  6
CONTINUOUS
 10
192.537978
 20
194.462876
 11
192.400640
 21
193.944696
  0
LINE
  8
1
 62
7
  6
CONTINUOUS
 10
192.254306
 20
194.017100
 11
192.263397
 21
194.051402
  0
LINE
  8
1
 62
7
  6
CONTINUOUS
 10
192.697520
 20
194.440300
 11
192.292514
 21
192.912209
  0
LINE
  8
1
 62
7
  6
CONTINUOUS
 10
192.833780
 20
194.329886
 11
192.458038
 21
192.912209
  0
LINE
  8
1
 62
7
  6
CONTINUOUS
 10
192.963851
 20
194.196122
 11
192.623562
 21
192.912209
  0
LINE
  8
1
 62
7
  6
CONTINUOUS
 10
193.062469
 20
193.943681
 11
192.789087
 21
192.912209
  0
LINE
  8
1
 62
7
  6
CONTINUOUS
 10
191.736432
 20
193.312209
 11
191.630416
 21
192.912209
  0
LINE
  8
1
 62
7
  6
CONTINUOUS
 10
193.060628
 20
193.312209
 11
192.954612
 21
192.912209
  0
LINE
  8
1
 62
7
  6
CONTINUOUS
 10
193.226151
 20
193.312209
 11
193.120135
 21
192.912209
  0
LINE
  8
1
 62
7
  6
CONTINUOUS
 10
193.285600
 20
192.911983
 11
193.695144
 21
194.457199
  0
LINE
  8
1
 62
7
  6
CONTINUOUS
 10
193.453337
 20
192.920331
 11
193.875248
 21
194.512209
  0
LINE
  8
1
 62
7
  6
CONTINUOUS
 10
193.618708
 20
192.919753
 11
194.040773
 21
194.512209
  0
LINE
  8
1
 62
7
  6
CONTINUOUS
 10
193.784179
 20
192.919553
 11
194.205898
 21
194.510707
  0
LINE
  8
1
 62
7
  6
CONTINUOUS
 10
193.948991
 20
192.916866
 11
194.352255
 21
194.438386
  0
LINE
  8
1
 62
7
  6
CONTINUOUS
 10
194.485722
 20
194.317431
 11
194.369541
 21
193.879080
  0
LINE
  8
1
 62
7
  6
CONTINUOUS
 10
194.657587
 20
194.341357
 11
194.549934
 21
193.935180
  0
LINE
  8
1
 62
7
  6
CONTINUOUS
 10
194.835284
 20
194.387285
 11
194.716986
 21
193.940944
  0
LINE
  8
1
 62
7
  6
CONTINUOUS
 10
195.012981
 20
194.433214
 11
194.883351
 21
193.944115
  0
LINE
  8
1
 62
7
  6
CONTINUOUS
 10
195.190679
 20
194.479143
 11
195.029707
 21
193.871793
  0
LINE
  8
1
 62
7
  6
CONTINUOUS
 10
195.364967
 20
194.512209
 11
194.962682
 21
192.994380
  0
LINE
  8
1
 62
7
  6
CONTINUOUS
 10
195.530492
 20
194.512209
 11
195.106428
 21
192.912209
  0
LINE
  8
1
 62
7
  6
CONTINUOUS
 10
195.696016
 20
194.512209
 11
195.271952
 21
192.912209
  0
LINE
  8
1
 62
7
  6
CONTINUOUS
 10
195.861143
 20
194.510707
 11
195.437078
 21
192.910707
  0
LINE
  8
1
 62
7
  6
CONTINUOUS
 10
196.007498
 20
194.438385
 11
195.603484
 21
192.914034
  0
LINE
  8
1
 62
7
  6
CONTINUOUS
 10
196.140004
 20
194.313805
 11
196.021047
 21
193.864980
  0
LINE
  8
1
 62
7
  6
CONTINUOUS
 10
196.310800
 20
194.333695
 11
196.203629
 21
193.929338
  0
LINE
  8
1
 62
7
  6
CONTINUOUS
 10
196.488497
 20
194.379624
 11
196.370681
 21
193.935102
  0
LINE
  8
1
 62
7
  6
CONTINUOUS
 10
196.666195
 20
194.425552
 11
196.537303
 21
193.939243
  0
LINE
  8
1
 62
7
  6
CONTINUOUS
 10
196.843892
 20
194.471481
 11
196.685050
 21
193.872170
  0
LINE
  8
1
 62
7
  6
CONTINUOUS
 10
197.018732
 20
194.506628
 11
196.596970
 21
192.915315
  0
LINE
  8
1
 62
7
  6
CONTINUOUS
 10
197.184256
 20
194.506628
 11
196.762494
 21
192.915315
  0
LINE
  8
1
 62
7
  6
CONTINUOUS
 10
196.928019
 20
192.915315
 11
197.349780
 21
194.506628
  0
LINE
  8
1
 62
7
  6
CONTINUOUS
 10
197.495599
 20
194.506628
 11
197.093542
 21
192.915315
  0
LINE
  8
1
 62
7
  6
CONTINUOUS
 10
197.662842
 20
194.438762
 11
197.259067
 21
192.915315
  0
LINE
  8
1
 62
7
  6
CONTINUOUS
 10
197.529784
 20
193.312209
 11
197.424591
 21
192.915315
  0
LINE
  8
1
 62
7
  6
CONTINUOUS
 10
197.695308
 20
193.312209
 11
197.590116
 21
192.915315
  0
LINE
  8
1
 62
7
  6
CONTINUOUS
 10
184.060837
 20
194.329306
 11
183.870220
 21
193.610106
  0
LINE
  8
1
 62
7
  6
CONTINUOUS
 10
183.981741
 20
193.406353
 11
184.259955
 21
194.456055
  0
LINE
  8
1
 62
7
  6
CONTINUOUS
 10
191.913734
 20
193.312209
 11
191.807718
 21
192.912209
  0
LINE
  8
1
 62
7
  6
CONTINUOUS
 10
192.121167
 20
193.312209
 11
192.015151
 21
192.912209
  0
LINE
  8
1
 62
7
  6
CONTINUOUS
 10
192.293039
 20
193.312209
 11
192.187023
 21
192.912209
  0
ARC
  8
1
 62
7
  6
CONTINUOUS
 10
183.481066
 20
192.432209
 40
0.080000
 50
90.000000
 51
160.640811
  0
ARC
  8
1
 62
7
  6
CONTINUOUS
 10
184.936055
 20
192.592209
 40
0.080000
 50
-90.000000
 51
-14.844395
  0
LINE
  8
1
 62
7
  6
CONTINUOUS
 10
184.936055
 20
192.512209
 11
183.481066
 21
192.512209
  0
LINE
  8
1
 62
7
  6
CONTINUOUS
 10
183.626384
 20
192.450115
 11
183.642842
 21
192.512209
  0
LINE
  8
1
 62
7
  6
CONTINUOUS
 10
185.009444
 20
192.912209
 11
185.126096
 21
193.352340
  0
LINE
  8
1
 62
7
  6
CONTINUOUS
 10
180.331606
 20
192.912209
 11
184.999198
 21
192.912209
  0
LINE
  8
1
 62
7
  6
CONTINUOUS
 10
185.076558
 20
192.811827
 11
185.012384
 21
192.568254
  0
ARC
  8
1
 62
7
  6
CONTINUOUS
 10
184.999198
 20
192.832209
 40
0.080000
 50
-14.760398
 51
90.000000
  0
LINE
  8
1
 62
7
  6
CONTINUOUS
 10
202.399494
 20
194.198985
 11
202.161352
 21
193.300472
  0
ARC
  8
1
 62
7
  6
CONTINUOUS
 10
202.167504
 20
194.260472
 40
0.240000
 50
-14.844371
 51
90.000000
  0
LINE
  8
1
 62
7
  6
CONTINUOUS
 10
199.678488
 20
193.300472
 11
199.949222
 21
194.321958
  0
ARC
  8
1
 62
7
  6
CONTINUOUS
 10
200.181212
 20
194.260472
 40
0.240000
 50
90.000000
 51
165.155634
  0
LINE
  8
1
 62
7
  6
CONTINUOUS
 10
200.181212
 20
194.500472
 11
200.512261
 21
194.500472
  0
LINE
  8
1
 62
7
  6
CONTINUOUS
 10
202.756806
 20
194.052536
 11
202.756742
 21
194.052310
  0
LINE
  8
1
 62
7
  6
CONTINUOUS
 10
202.756742
 20
194.052310
 11
202.756553
 21
194.051638
  0
LINE
  8
1
 62
7
  6
CONTINUOUS
 10
202.756553
 20
194.051638
 11
202.756242
 21
194.050534
  0
LINE
  8
1
 62
7
  6
CONTINUOUS
 10
202.756242
 20
194.050534
 11
202.755818
 21
194.049017
  0
LINE
  8
1
 62
7
  6
CONTINUOUS
 10
202.755818
 20
194.049017
 11
202.755289
 21
194.047097
  0
LINE
  8
1
 62
7
  6
CONTINUOUS
 10
202.755289
 20
194.047097
 11
202.754663
 21
194.044775
  0
LINE
  8
1
 62
7
  6
CONTINUOUS
 10
202.754663
 20
194.044775
 11
202.753951
 21
194.042036
  0
LINE
  8
1
 62
7
  6
CONTINUOUS
 10
202.753951
 20
194.042036
 11
202.753161
 21
194.038856
  0
LINE
  8
1
 62
7
  6
CONTINUOUS
 10
202.753161
 20
194.038856
 11
202.752304
 21
194.035216
  0
LINE
  8
1
 62
7
  6
CONTINUOUS
 10
202.752304
 20
194.035216
 11
202.751393
 21
194.031114
  0
LINE
  8
1
 62
7
  6
CONTINUOUS
 10
202.751393
 20
194.031114
 11
202.750446
 21
194.026592
  0
LINE
  8
1
 62
7
  6
CONTINUOUS
 10
202.750446
 20
194.026592
 11
202.749486
 21
194.021745
  0
LINE
  8
1
 62
7
  6
CONTINUOUS
 10
202.749486
 20
194.021745
 11
202.748541
 21
194.016733
  0
LINE
  8
1
 62
7
  6
CONTINUOUS
 10
202.748541
 20
194.016733
 11
202.747648
 21
194.011779
  0
LINE
  8
1
 62
7
  6
CONTINUOUS
 10
202.747648
 20
194.011779
 11
202.746842
 21
194.007154
  0
LINE
  8
1
 62
7
  6
CONTINUOUS
 10
202.746842
 20
194.007154
 11
202.746165
 21
194.003151
  0
LINE
  8
1
 62
7
  6
CONTINUOUS
 10
202.746165
 20
194.003151
 11
202.745651
 21
194.000050
  0
LINE
  8
1
 62
7
  6
CONTINUOUS
 10
202.745651
 20
194.000050
 11
202.745329
 21
193.998086
  0
LINE
  8
1
 62
7
  6
CONTINUOUS
 10
202.745329
 20
193.998086
 11
202.745220
 21
193.997413
  0
LINE
  8
1
 62
7
  6
CONTINUOUS
 10
202.745220
 20
193.997413
 11
202.745110
 21
193.996734
  0
LINE
  8
1
 62
7
  6
CONTINUOUS
 10
202.745110
 20
193.996734
 11
202.744780
 21
193.994680
  0
LINE
  8
1
 62
7
  6
CONTINUOUS
 10
202.744780
 20
193.994680
 11
202.744228
 21
193.991208
  0
LINE
  8
1
 62
7
  6
CONTINUOUS
 10
202.744228
 20
193.991208
 11
202.743457
 21
193.986271
  0
LINE
  8
1
 62
7
  6
CONTINUOUS
 10
202.743457
 20
193.986271
 11
202.742472
 21
193.979847
  0
LINE
  8
1
 62
7
  6
CONTINUOUS
 10
202.742472
 20
193.979847
 11
202.741291
 21
193.971976
  0
LINE
  8
1
 62
7
  6
CONTINUOUS
 10
202.741291
 20
193.971976
 11
202.739940
 21
193.962778
  0
LINE
  8
1
 62
7
  6
CONTINUOUS
 10
202.739940
 20
193.962778
 11
202.738460
 21
193.952474
  0
LINE
  8
1
 62
7
  6
CONTINUOUS
 10
202.738460
 20
193.952474
 11
202.736901
 21
193.941377
  0
LINE
  8
1
 62
7
  6
CONTINUOUS
 10
202.736901
 20
193.941377
 11
202.735319
 21
193.929872
  0
LINE
  8
1
 62
7
  6
CONTINUOUS
 10
202.735319
 20
193.929872
 11
202.733773
 21
193.918386
  0
LINE
  8
1
 62
7
  6
CONTINUOUS
 10
202.733773
 20
193.918386
 11
202.732320
 21
193.907346
  0
LINE
  8
1
 62
7
  6
CONTINUOUS
 10
202.732320
 20
193.907346
 11
202.731007
 21
193.897145
  0
LINE
  8
1
 62
7
  6
CONTINUOUS
 10
202.731007
 20
193.897145
 11
202.729868
 21
193.888111
  0
LINE
  8
1
 62
7
  6
CONTINUOUS
 10
202.729868
 20
193.888111
 11
202.728928
 21
193.880492
  0
LINE
  8
1
 62
7
  6
CONTINUOUS
 10
202.728928
 20
193.880492
 11
202.728197
 21
193.874457
  0
LINE
  8
1
 62
7
  6
CONTINUOUS
 10
202.728197
 20
193.874457
 11
202.727678
 21
193.870103
  0
LINE
  8
1
 62
7
  6
CONTINUOUS
 10
202.727678
 20
193.870103
 11
202.727368
 21
193.867478
  0
LINE
  8
1
 62
7
  6
CONTINUOUS
 10
202.727368
 20
193.867478
 11
202.727266
 21
193.866602
  0
LINE
  8
1
 62
7
  6
CONTINUOUS
 10
202.727266
 20
193.866602
 11
202.727164
 21
193.865729
  0
LINE
  8
1
 62
7
  6
CONTINUOUS
 10
202.727164
 20
193.865729
 11
202.726865
 21
193.863154
  0
LINE
  8
1
 62
7
  6
CONTINUOUS
 10
202.726865
 20
193.863154
 11
202.726390
 21
193.859002
  0
LINE
  8
1
 62
7
  6
CONTINUOUS
 10
202.726390
 20
193.859002
 11
202.725771
 21
193.853463
  0
LINE
  8
1
 62
7
  6
CONTINUOUS
 10
202.725771
 20
193.853463
 11
202.725047
 21
193.846767
  0
LINE
  8
1
 62
7
  6
CONTINUOUS
 10
202.725047
 20
193.846767
 11
202.724263
 21
193.839163
  0
LINE
  8
1
 62
7
  6
CONTINUOUS
 10
202.724263
 20
193.839163
 11
202.723464
 21
193.830892
  0
LINE
  8
1
 62
7
  6
CONTINUOUS
 10
202.723464
 20
193.830892
 11
202.722692
 21
193.822175
  0
LINE
  8
1
 62
7
  6
CONTINUOUS
 10
202.722692
 20
193.822175
 11
202.721980
 21
193.813209
  0
LINE
  8
1
 62
7
  6
CONTINUOUS
 10
202.721980
 20
193.813209
 11
202.721355
 21
193.804170
  0
LINE
  8
1
 62
7
  6
CONTINUOUS
 10
202.721355
 20
193.804170
 11
202.720831
 21
193.795226
  0
LINE
  8
1
 62
7
  6
CONTINUOUS
 10
202.720831
 20
193.795226
 11
202.720415
 21
193.786550
  0
LINE
  8
1
 62
7
  6
CONTINUOUS
 10
202.720415
 20
193.786550
 11
202.720102
 21
193.778335
  0
LINE
  8
1
 62
7
  6
CONTINUOUS
 10
202.720102
 20
193.778335
 11
202.719881
 21
193.770796
  0
LINE
  8
1
 62
7
  6
CONTINUOUS
 10
202.719881
 20
193.770796
 11
202.719736
 21
193.764167
  0
LINE
  8
1
 62
7
  6
CONTINUOUS
 10
202.719736
 20
193.764167
 11
202.719648
 21
193.758689
  0
LINE
  8
1
 62
7
  6
CONTINUOUS
 10
202.719648
 20
193.758689
 11
202.719600
 21
193.754586
  0
LINE
  8
1
 62
7
  6
CONTINUOUS
 10
202.719600
 20
193.754586
 11
202.719577
 21
193.752043
  0
LINE
  8
1
 62
7
  6
CONTINUOUS
 10
202.719577
 20
193.752043
 11
202.719571
 21
193.751181
  0
LINE
  8
1
 62
7
  6
CONTINUOUS
 10
202.719571
 20
193.751181
 11
202.719565
 21
193.750316
  0
LINE
  8
1
 62
7
  6
CONTINUOUS
 10
202.719565
 20
193.750316
 11
202.719552
 21
193.747725
  0
LINE
  8
1
 62
7
  6
CONTINUOUS
 10
202.719552
 20
193.747725
 11
202.719542
 21
193.743426
  0
LINE
  8
1
 62
7
  6
CONTINUOUS
 10
202.719542
 20
193.743426
 11
202.719559
 21
193.737459
  0
LINE
  8
1
 62
7
  6
CONTINUOUS
 10
202.719559
 20
193.737459
 11
202.719633
 21
193.729899
  0
LINE
  8
1
 62
7
  6
CONTINUOUS
 10
202.719633
 20
193.729899
 11
202.719808
 21
193.720874
  0
LINE
  8
1
 62
7
  6
CONTINUOUS
 10
202.719808
 20
193.720874
 11
202.720136
 21
193.710571
  0
LINE
  8
1
 62
7
  6
CONTINUOUS
 10
202.720136
 20
193.710571
 11
202.720668
 21
193.699242
  0
LINE
  8
1
 62
7
  6
CONTINUOUS
 10
202.720668
 20
193.699242
 11
202.721451
 21
193.687201
  0
LINE
  8
1
 62
7
  6
CONTINUOUS
 10
202.721451
 20
193.687201
 11
202.722518
 21
193.674807
  0
LINE
  8
1
 62
7
  6
CONTINUOUS
 10
202.722518
 20
193.674807
 11
202.723870
 21
193.662451
  0
LINE
  8
1
 62
7
  6
CONTINUOUS
 10
202.723870
 20
193.662451
 11
202.725477
 21
193.650527
  0
LINE
  8
1
 62
7
  6
CONTINUOUS
 10
202.725477
 20
193.650527
 11
202.727270
 21
193.639413
  0
LINE
  8
1
 62
7
  6
CONTINUOUS
 10
202.727270
 20
193.639413
 11
202.729142
 21
193.629449
  0
LINE
  8
1
 62
7
  6
CONTINUOUS
 10
202.729142
 20
193.629449
 11
202.730961
 21
193.620923
  0
LINE
  8
1
 62
7
  6
CONTINUOUS
 10
202.730961
 20
193.620923
 11
202.732580
 21
193.614069
  0
LINE
  8
1
 62
7
  6
CONTINUOUS
 10
202.732580
 20
193.614069
 11
202.733859
 21
193.609057
  0
LINE
  8
1
 62
7
  6
CONTINUOUS
 10
202.733859
 20
193.609057
 11
202.734678
 21
193.606005
  0
LINE
  8
1
 62
7
  6
CONTINUOUS
 10
202.734678
 20
193.606005
 11
202.734961
 21
193.604981
  0
LINE
  8
1
 62
7
  6
CONTINUOUS
 10
202.734961
 20
193.604981
 11
202.735246
 21
193.603958
  0
LINE
  8
1
 62
7
  6
CONTINUOUS
 10
202.735246
 20
193.603958
 11
202.736115
 21
193.600922
  0
LINE
  8
1
 62
7
  6
CONTINUOUS
 10
202.736115
 20
193.600922
 11
202.737599
 21
193.595975
  0
LINE
  8
1
 62
7
  6
CONTINUOUS
 10
202.737599
 20
193.595975
 11
202.739738
 21
193.589282
  0
LINE
  8
1
 62
7
  6
CONTINUOUS
 10
202.739738
 20
193.589282
 11
202.742566
 21
193.581066
  0
LINE
  8
1
 62
7
  6
CONTINUOUS
 10
202.742566
 20
193.581066
 11
202.746094
 21
193.571595
  0
LINE
  8
1
 62
7
  6
CONTINUOUS
 10
202.746094
 20
193.571595
 11
202.750294
 21
193.561173
  0
LINE
  8
1
 62
7
  6
CONTINUOUS
 10
202.750294
 20
193.561173
 11
202.755091
 21
193.550130
  0
LINE
  8
1
 62
7
  6
CONTINUOUS
 10
202.755091
 20
193.550130
 11
202.760361
 21
193.538803
  0
LINE
  8
1
 62
7
  6
CONTINUOUS
 10
202.760361
 20
193.538803
 11
202.765939
 21
193.527525
  0
LINE
  8
1
 62
7
  6
CONTINUOUS
 10
202.765939
 20
193.527525
 11
202.771626
 21
193.516612
  0
LINE
  8
1
 62
7
  6
CONTINUOUS
 10
202.771626
 20
193.516612
 11
202.777211
 21
193.506352
  0
LINE
  8
1
 62
7
  6
CONTINUOUS
 10
202.777211
 20
193.506352
 11
202.782485
 21
193.496998
  0
LINE
  8
1
 62
7
  6
CONTINUOUS
 10
202.782485
 20
193.496998
 11
202.787257
 21
193.488762
  0
LINE
  8
1
 62
7
  6
CONTINUOUS
 10
202.787257
 20
193.488762
 11
202.791364
 21
193.481817
  0
LINE
  8
1
 62
7
  6
CONTINUOUS
 10
202.791364
 20
193.481817
 11
202.794679
 21
193.476292
  0
LINE
  8
1
 62
7
  6
CONTINUOUS
 10
202.794679
 20
193.476292
 11
202.797107
 21
193.472283
  0
LINE
  8
1
 62
7
  6
CONTINUOUS
 10
202.797107
 20
193.472283
 11
202.798586
 21
193.469854
  0
LINE
  8
1
 62
7
  6
CONTINUOUS
 10
202.798586
 20
193.469854
 11
202.799083
 21
193.469040
  0
LINE
  8
1
 62
7
  6
CONTINUOUS
 10
202.799083
 20
193.469040
 11
202.799580
 21
193.468229
  0
LINE
  8
1
 62
7
  6
CONTINUOUS
 10
202.799580
 20
193.468229
 11
202.801053
 21
193.465826
  0
LINE
  8
1
 62
7
  6
CONTINUOUS
 10
202.801053
 20
193.465826
 11
202.803455
 21
193.461929
  0
LINE
  8
1
 62
7
  6
CONTINUOUS
 10
202.803455
 20
193.461929
 11
202.806708
 21
193.456691
  0
LINE
  8
1
 62
7
  6
CONTINUOUS
 10
202.806708
 20
193.456691
 11
202.810711
 21
193.450313
  0
LINE
  8
1
 62
7
  6
CONTINUOUS
 10
202.810711
 20
193.450313
 11
202.815341
 21
193.443034
  0
LINE
  8
1
 62
7
  6
CONTINUOUS
 10
202.815341
 20
193.443034
 11
202.820460
 21
193.435114
  0
LINE
  8
1
 62
7
  6
CONTINUOUS
 10
202.820460
 20
193.435114
 11
202.825922
 21
193.426821
  0
LINE
  8
1
 62
7
  6
CONTINUOUS
 10
202.825922
 20
193.426821
 11
202.831574
 21
193.418422
  0
LINE
  8
1
 62
7
  6
CONTINUOUS
 10
202.831574
 20
193.418422
 11
202.837263
 21
193.410165
  0
LINE
  8
1
 62
7
  6
CONTINUOUS
 10
202.837263
 20
193.410165
 11
202.842838
 21
193.402275
  0
LINE
  8
1
 62
7
  6
CONTINUOUS
 10
202.842838
 20
193.402275
 11
202.848156
 21
193.394946
  0
LINE
  8
1
 62
7
  6
CONTINUOUS
 10
202.848156
 20
193.394946
 11
202.853079
 21
193.388338
  0
LINE
  8
1
 62
7
  6
CONTINUOUS
 10
202.853079
 20
193.388338
 11
202.857481
 21
193.382579
  0
LINE
  8
1
 62
7
  6
CONTINUOUS
 10
202.857481
 20
193.382579
 11
202.861250
 21
193.377765
  0
LINE
  8
1
 62
7
  6
CONTINUOUS
 10
202.861250
 20
193.377765
 11
202.864288
 21
193.373962
  0
LINE
  8
1
 62
7
  6
CONTINUOUS
 10
202.864288
 20
193.373962
 11
202.866517
 21
193.371219
  0
LINE
  8
1
 62
7
  6
CONTINUOUS
 10
202.866517
 20
193.371219
 11
202.867878
 21
193.369562
  0
LINE
  8
1
 62
7
  6
CONTINUOUS
 10
202.867878
 20
193.369562
 11
202.868336
 21
193.369009
  0
LINE
  8
1
 62
7
  6
CONTINUOUS
 10
202.868336
 20
193.369009
 11
202.868794
 21
193.368457
  0
LINE
  8
1
 62
7
  6
CONTINUOUS
 10
202.868794
 20
193.368457
 11
202.870154
 21
193.366826
  0
LINE
  8
1
 62
7
  6
CONTINUOUS
 10
202.870154
 20
193.366826
 11
202.872379
 21
193.364190
  0
LINE
  8
1
 62
7
  6
CONTINUOUS
 10
202.872379
 20
193.364190
 11
202.875406
 21
193.360664
  0
LINE
  8
1
 62
7
  6
CONTINUOUS
 10
202.875406
 20
193.360664
 11
202.879152
 21
193.356391
  0
LINE
  8
1
 62
7
  6
CONTINUOUS
 10
202.879152
 20
193.356391
 11
202.883511
 21
193.351537
  0
LINE
  8
1
 62
7
  6
CONTINUOUS
 10
202.883511
 20
193.351537
 11
202.888365
 21
193.346272
  0
LINE
  8
1
 62
7
  6
CONTINUOUS
 10
202.888365
 20
193.346272
 11
202.893579
 21
193.340765
  0
LINE
  8
1
 62
7
  6
CONTINUOUS
 10
202.893579
 20
193.340765
 11
202.899011
 21
193.335173
  0
LINE
  8
1
 62
7
  6
CONTINUOUS
 10
202.899011
 20
193.335173
 11
202.904513
 21
193.329642
  0
LINE
  8
1
 62
7
  6
CONTINUOUS
 10
202.904513
 20
193.329642
 11
202.909937
 21
193.324301
  0
LINE
  8
1
 62
7
  6
CONTINUOUS
 10
202.909937
 20
193.324301
 11
202.915134
 21
193.319268
  0
LINE
  8
1
 62
7
  6
CONTINUOUS
 10
202.915134
 20
193.319268
 11
202.919965
 21
193.314651
  0
LINE
  8
1
 62
7
  6
CONTINUOUS
 10
202.919965
 20
193.314651
 11
202.924298
 21
193.310546
  0
LINE
  8
1
 62
7
  6
CONTINUOUS
 10
202.924298
 20
193.310546
 11
202.928016
 21
193.307044
  0
LINE
  8
1
 62
7
  6
CONTINUOUS
 10
202.928016
 20
193.307044
 11
202.931018
 21
193.304226
  0
LINE
  8
1
 62
7
  6
CONTINUOUS
 10
202.931018
 20
193.304226
 11
202.933223
 21
193.302159
  0
LINE
  8
1
 62
7
  6
CONTINUOUS
 10
202.933223
 20
193.302159
 11
202.934571
 21
193.300896
  0
LINE
  8
1
 62
7
  6
CONTINUOUS
 10
202.934571
 20
193.300896
 11
202.935024
 21
193.300472
  0
LINE
  8
1
 62
7
  6
CONTINUOUS
 10
203.592332
 20
194.492996
 11
203.595727
 21
194.493203
  0
LINE
  8
1
 62
7
  6
CONTINUOUS
 10
203.595727
 20
194.493203
 11
203.605819
 21
194.493816
  0
LINE
  8
1
 62
7
  6
CONTINUOUS
 10
203.605819
 20
194.493816
 11
203.622325
 21
194.494816
  0
LINE
  8
1
 62
7
  6
CONTINUOUS
 10
203.622325
 20
194.494816
 11
203.644768
 21
194.496162
  0
LINE
  8
1
 62
7
  6
CONTINUOUS
 10
203.644768
 20
194.496162
 11
203.672472
 21
194.497787
  0
LINE
  8
1
 62
7
  6
CONTINUOUS
 10
203.672472
 20
194.497787
 11
203.704568
 21
194.499591
  0
LINE
  8
1
 62
7
  6
CONTINUOUS
 10
203.704568
 20
194.499591
 11
203.740014
 21
194.501445
  0
LINE
  8
1
 62
7
  6
CONTINUOUS
 10
203.740014
 20
194.501445
 11
203.777634
 21
194.503196
  0
LINE
  8
1
 62
7
  6
CONTINUOUS
 10
203.777634
 20
194.503196
 11
203.816173
 21
194.504686
  0
LINE
  8
1
 62
7
  6
CONTINUOUS
 10
203.816173
 20
194.504686
 11
203.854366
 21
194.505771
  0
LINE
  8
1
 62
7
  6
CONTINUOUS
 10
203.854366
 20
194.505771
 11
203.891019
 21
194.506346
  0
LINE
  8
1
 62
7
  6
CONTINUOUS
 10
203.891019
 20
194.506346
 11
203.925071
 21
194.506368
  0
LINE
  8
1
 62
7
  6
CONTINUOUS
 10
203.925071
 20
194.506368
 11
203.955654
 21
194.505865
  0
LINE
  8
1
 62
7
  6
CONTINUOUS
 10
203.955654
 20
194.505865
 11
203.982118
 21
194.504940
  0
LINE
  8
1
 62
7
  6
CONTINUOUS
 10
203.982118
 20
194.504940
 11
204.004033
 21
194.503759
  0
LINE
  8
1
 62
7
  6
CONTINUOUS
 10
204.004033
 20
194.503759
 11
204.021156
 21
194.502526
  0
LINE
  8
1
 62
7
  6
CONTINUOUS
 10
204.021156
 20
194.502526
 11
204.033388
 21
194.501455
  0
LINE
  8
1
 62
7
  6
CONTINUOUS
 10
204.033388
 20
194.501455
 11
204.040715
 21
194.500728
  0
LINE
  8
1
 62
7
  6
CONTINUOUS
 10
204.040715
 20
194.500728
 11
204.043154
 21
194.500472
  0
LINE
  8
1
 62
7
  6
CONTINUOUS
 10
204.043154
 20
194.500472
 11
204.045580
 21
194.500208
  0
LINE
  8
1
 62
7
  6
CONTINUOUS
 10
204.045580
 20
194.500208
 11
204.052715
 21
194.499389
  0
LINE
  8
1
 62
7
  6
CONTINUOUS
 10
204.052715
 20
194.499389
 11
204.064148
 21
194.497930
  0
LINE
  8
1
 62
7
  6
CONTINUOUS
 10
204.064148
 20
194.497930
 11
204.079248
 21
194.495717
  0
LINE
  8
1
 62
7
  6
CONTINUOUS
 10
204.079248
 20
194.495717
 11
204.097234
 21
194.492632
  0
LINE
  8
1
 62
7
  6
CONTINUOUS
 10
204.097234
 20
194.492632
 11
204.117261
 21
194.488586
  0
LINE
  8
1
 62
7
  6
CONTINUOUS
 10
204.117261
 20
194.488586
 11
204.138490
 21
194.483550
  0
LINE
  8
1
 62
7
  6
CONTINUOUS
 10
204.138490
 20
194.483550
 11
204.160159
 21
194.477570
  0
LINE
  8
1
 62
7
  6
CONTINUOUS
 10
204.160159
 20
194.477570
 11
204.181617
 21
194.470781
  0
LINE
  8
1
 62
7
  6
CONTINUOUS
 10
204.181617
 20
194.470781
 11
204.202337
 21
194.463397
  0
LINE
  8
1
 62
7
  6
CONTINUOUS
 10
204.202337
 20
194.463397
 11
204.221908
 21
194.455694
  0
LINE
  8
1
 62
7
  6
CONTINUOUS
 10
204.221908
 20
194.455694
 11
204.240009
 21
194.447985
  0
LINE
  8
1
 62
7
  6
CONTINUOUS
 10
204.240009
 20
194.447985
 11
204.256375
 21
194.440592
  0
LINE
  8
1
 62
7
  6
CONTINUOUS
 10
204.256375
 20
194.440592
 11
204.270770
 21
194.433817
  0
LINE
  8
1
 62
7
  6
CONTINUOUS
 10
204.270770
 20
194.433817
 11
204.282967
 21
194.427926
  0
LINE
  8
1
 62
7
  6
CONTINUOUS
 10
204.282967
 20
194.427926
 11
204.292747
 21
194.423135
  0
LINE
  8
1
 62
7
  6
CONTINUOUS
 10
204.292747
 20
194.423135
 11
204.299906
 21
194.419605
  0
LINE
  8
1
 62
7
  6
CONTINUOUS
 10
204.299906
 20
194.419605
 11
204.304276
 21
194.417445
  0
LINE
  8
1
 62
7
  6
CONTINUOUS
 10
204.304276
 20
194.417445
 11
204.305746
 21
194.416718
  0
LINE
  8
1
 62
7
  6
CONTINUOUS
 10
203.904528
 20
194.316076
 11
204.213399
 21
194.068290
  0
ARC
  8
1
 62
7
  6
CONTINUOUS
 10
203.804407
 20
194.191273
 40
0.160000
 50
51.262333
 51
165.155640
  0
LINE
  8
1
 62
7
  6
CONTINUOUS
 10
203.301127
 20
194.492996
 11
203.290619
 21
194.491350
  0
LINE
  8
1
 62
7
  6
CONTINUOUS
 10
203.290619
 20
194.491350
 11
203.280138
 21
194.489553
  0
LINE
  8
1
 62
7
  6
CONTINUOUS
 10
203.280138
 20
194.489553
 11
203.269688
 21
194.487605
  0
LINE
  8
1
 62
7
  6
CONTINUOUS
 10
203.269688
 20
194.487605
 11
203.259269
 21
194.485508
  0
LINE
  8
1
 62
7
  6
CONTINUOUS
 10
203.259269
 20
194.485508
 11
203.248886
 21
194.483261
  0
LINE
  8
1
 62
7
  6
CONTINUOUS
 10
203.248886
 20
194.483261
 11
203.238541
 21
194.480865
  0
LINE
  8
1
 62
7
  6
CONTINUOUS
 10
203.238541
 20
194.480865
 11
203.228237
 21
194.478321
  0
LINE
  8
1
 62
7
  6
CONTINUOUS
 10
203.228237
 20
194.478321
 11
203.217975
 21
194.475630
  0
LINE
  8
1
 62
7
  6
CONTINUOUS
 10
203.217975
 20
194.475630
 11
203.207759
 21
194.472792
  0
LINE
  8
1
 62
7
  6
CONTINUOUS
 10
203.207759
 20
194.472792
 11
203.197592
 21
194.469807
  0
LINE
  8
1
 62
7
  6
CONTINUOUS
 10
203.197592
 20
194.469807
 11
203.187475
 21
194.466678
  0
LINE
  8
1
 62
7
  6
CONTINUOUS
 10
203.187475
 20
194.466678
 11
203.177412
 21
194.463403
  0
LINE
  8
1
 62
7
  6
CONTINUOUS
 10
203.177412
 20
194.463403
 11
203.167405
 21
194.459986
  0
LINE
  8
1
 62
7
  6
CONTINUOUS
 10
203.167405
 20
194.459986
 11
203.157456
 21
194.456425
  0
LINE
  8
1
 62
7
  6
CONTINUOUS
 10
203.157456
 20
194.456425
 11
203.147569
 21
194.452722
  0
LINE
  8
1
 62
7
  6
CONTINUOUS
 10
203.147569
 20
194.452722
 11
203.137745
 21
194.448879
  0
LINE
  8
1
 62
7
  6
CONTINUOUS
 10
203.137745
 20
194.448879
 11
203.127988
 21
194.444895
  0
LINE
  8
1
 62
7
  6
CONTINUOUS
 10
203.127988
 20
194.444895
 11
203.118299
 21
194.440772
  0
LINE
  8
1
 62
7
  6
CONTINUOUS
 10
203.118299
 20
194.440772
 11
203.108682
 21
194.436512
  0
LINE
  8
1
 62
7
  6
CONTINUOUS
 10
203.108682
 20
194.436512
 11
203.099138
 21
194.432114
  0
LINE
  8
1
 62
7
  6
CONTINUOUS
 10
203.099138
 20
194.432114
 11
203.089670
 21
194.427581
  0
LINE
  8
1
 62
7
  6
CONTINUOUS
 10
203.089670
 20
194.427581
 11
203.080281
 21
194.422913
  0
LINE
  8
1
 62
7
  6
CONTINUOUS
 10
203.080281
 20
194.422913
 11
203.070972
 21
194.418112
  0
LINE
  8
1
 62
7
  6
CONTINUOUS
 10
203.070972
 20
194.418112
 11
203.061747
 21
194.413179
  0
LINE
  8
1
 62
7
  6
CONTINUOUS
 10
203.061747
 20
194.413179
 11
203.052608
 21
194.408115
  0
LINE
  8
1
 62
7
  6
CONTINUOUS
 10
203.052608
 20
194.408115
 11
203.043556
 21
194.402921
  0
LINE
  8
1
 62
7
  6
CONTINUOUS
 10
203.043556
 20
194.402921
 11
203.034595
 21
194.397599
  0
LINE
  8
1
 62
7
  6
CONTINUOUS
 10
203.034595
 20
194.397599
 11
203.025726
 21
194.392151
  0
LINE
  8
1
 62
7
  6
CONTINUOUS
 10
203.025726
 20
194.392151
 11
203.016952
 21
194.386576
  0
LINE
  8
1
 62
7
  6
CONTINUOUS
 10
203.016952
 20
194.386576
 11
203.008274
 21
194.380878
  0
LINE
  8
1
 62
7
  6
CONTINUOUS
 10
203.008274
 20
194.380878
 11
202.999697
 21
194.375057
  0
LINE
  8
1
 62
7
  6
CONTINUOUS
 10
202.999697
 20
194.375057
 11
202.991220
 21
194.369114
  0
LINE
  8
1
 62
7
  6
CONTINUOUS
 10
202.991220
 20
194.369114
 11
202.982848
 21
194.363052
  0
LINE
  8
1
 62
7
  6
CONTINUOUS
 10
202.982848
 20
194.363052
 11
202.974581
 21
194.356872
  0
LINE
  8
1
 62
7
  6
CONTINUOUS
 10
202.974581
 20
194.356872
 11
202.966421
 21
194.350576
  0
LINE
  8
1
 62
7
  6
CONTINUOUS
 10
202.966421
 20
194.350576
 11
202.958372
 21
194.344164
  0
LINE
  8
1
 62
7
  6
CONTINUOUS
 10
202.958372
 20
194.344164
 11
202.950435
 21
194.337640
  0
LINE
  8
1
 62
7
  6
CONTINUOUS
 10
202.950435
 20
194.337640
 11
202.942612
 21
194.331003
  0
LINE
  8
1
 62
7
  6
CONTINUOUS
 10
202.942612
 20
194.331003
 11
202.934905
 21
194.324257
  0
LINE
  8
1
 62
7
  6
CONTINUOUS
 10
202.934905
 20
194.324257
 11
202.927315
 21
194.317403
  0
LINE
  8
1
 62
7
  6
CONTINUOUS
 10
202.927315
 20
194.317403
 11
202.919846
 21
194.310442
  0
LINE
  8
1
 62
7
  6
CONTINUOUS
 10
202.919846
 20
194.310442
 11
202.912499
 21
194.303376
  0
LINE
  8
1
 62
7
  6
CONTINUOUS
 10
202.912499
 20
194.303376
 11
202.905275
 21
194.296208
  0
LINE
  8
1
 62
7
  6
CONTINUOUS
 10
202.905275
 20
194.296208
 11
202.898177
 21
194.288939
  0
LINE
  8
1
 62
7
  6
CONTINUOUS
 10
202.898177
 20
194.288939
 11
202.891206
 21
194.281570
  0
LINE
  8
1
 62
7
  6
CONTINUOUS
 10
202.891206
 20
194.281570
 11
202.884364
 21
194.274104
  0
LINE
  8
1
 62
7
  6
CONTINUOUS
 10
202.884364
 20
194.274104
 11
202.877653
 21
194.266543
  0
LINE
  8
1
 62
7
  6
CONTINUOUS
 10
202.877653
 20
194.266543
 11
202.871075
 21
194.258888
  0
LINE
  8
1
 62
7
  6
CONTINUOUS
 10
202.871075
 20
194.258888
 11
202.864631
 21
194.251142
  0
LINE
  8
1
 62
7
  6
CONTINUOUS
 10
202.864631
 20
194.251142
 11
202.858323
 21
194.243307
  0
LINE
  8
1
 62
7
  6
CONTINUOUS
 10
202.858323
 20
194.243307
 11
202.852153
 21
194.235383
  0
LINE
  8
1
 62
7
  6
CONTINUOUS
 10
202.852153
 20
194.235383
 11
202.846121
 21
194.227375
  0
LINE
  8
1
 62
7
  6
CONTINUOUS
 10
202.846121
 20
194.227375
 11
202.840230
 21
194.219282
  0
LINE
  8
1
 62
7
  6
CONTINUOUS
 10
202.840230
 20
194.219282
 11
202.834482
 21
194.211109
  0
LINE
  8
1
 62
7
  6
CONTINUOUS
 10
202.834482
 20
194.211109
 11
202.828877
 21
194.202856
  0
LINE
  8
1
 62
7
  6
CONTINUOUS
 10
202.828877
 20
194.202856
 11
202.823417
 21
194.194526
  0
LINE
  8
1
 62
7
  6
CONTINUOUS
 10
202.823417
 20
194.194526
 11
202.818104
 21
194.186121
  0
LINE
  8
1
 62
7
  6
CONTINUOUS
 10
202.818104
 20
194.186121
 11
202.812938
 21
194.177643
  0
LINE
  8
1
 62
7
  6
CONTINUOUS
 10
202.812938
 20
194.177643
 11
202.807921
 21
194.169094
  0
LINE
  8
1
 62
7
  6
CONTINUOUS
 10
202.807921
 20
194.169094
 11
202.803055
 21
194.160477
  0
LINE
  8
1
 62
7
  6
CONTINUOUS
 10
202.803055
 20
194.160477
 11
202.798341
 21
194.151793
  0
LINE
  8
1
 62
7
  6
CONTINUOUS
 10
202.798341
 20
194.151793
 11
202.793779
 21
194.143045
  0
LINE
  8
1
 62
7
  6
CONTINUOUS
 10
202.793779
 20
194.143045
 11
202.789372
 21
194.134235
  0
LINE
  8
1
 62
7
  6
CONTINUOUS
 10
202.789372
 20
194.134235
 11
202.785119
 21
194.125366
  0
LINE
  8
1
 62
7
  6
CONTINUOUS
 10
202.785119
 20
194.125366
 11
202.781023
 21
194.116439
  0
LINE
  8
1
 62
7
  6
CONTINUOUS
 10
202.781023
 20
194.116439
 11
202.777084
 21
194.107457
  0
LINE
  8
1
 62
7
  6
CONTINUOUS
 10
202.777084
 20
194.107457
 11
202.773303
 21
194.098422
  0
LINE
  8
1
 62
7
  6
CONTINUOUS
 10
202.773303
 20
194.098422
 11
202.769682
 21
194.089336
  0
LINE
  8
1
 62
7
  6
CONTINUOUS
 10
202.769682
 20
194.089336
 11
202.766220
 21
194.080203
  0
LINE
  8
1
 62
7
  6
CONTINUOUS
 10
202.766220
 20
194.080203
 11
202.762920
 21
194.071023
  0
LINE
  8
1
 62
7
  6
CONTINUOUS
 10
202.762920
 20
194.071023
 11
202.759782
 21
194.061800
  0
LINE
  8
1
 62
7
  6
CONTINUOUS
 10
202.759782
 20
194.061800
 11
202.756806
 21
194.052536
  0
LINE
  8
1
 62
7
  6
CONTINUOUS
 10
203.301127
 20
194.492996
 11
203.644768
 21
194.492996
  0
LINE
  8
1
 62
7
  6
CONTINUOUS
 10
203.649747
 20
194.232264
 11
203.456055
 21
193.501463
  0
ARC
  8
1
 62
7
  6
CONTINUOUS
 10
203.610715
 20
193.460472
 40
0.160000
 50
165.155640
 51
-90.000000
  0
LINE
  8
1
 62
7
  6
CONTINUOUS
 10
204.213399
 20
194.068290
 11
204.041438
 21
193.419480
  0
LINE
  8
1
 62
7
  6
CONTINUOUS
 10
203.610715
 20
193.300472
 11
203.886778
 21
193.300472
  0
ARC
  8
1
 62
7
  6
CONTINUOUS
 10
203.886778
 20
193.460472
 40
0.160000
 50
-90.000000
 51
-14.844412
  0
LINE
  8
1
 62
7
  6
CONTINUOUS
 10
202.161352
 20
193.300472
 11
202.935024
 21
193.300472
  0
LINE
  8
1
 62
7
  6
CONTINUOUS
 10
201.155119
 20
193.297212
 11
200.821015
 21
193.285683
  0
ARC
  8
1
 62
7
  6
CONTINUOUS
 10
200.812738
 20
193.525541
 40
0.240000
 50
165.155639
 51
-88.023783
  0
ARC
  8
1
 62
7
  6
CONTINUOUS
 10
201.146842
 20
193.537069
 40
0.240000
 50
-88.023783
 51
-14.844405
  0
ARC
  8
1
 62
7
  6
CONTINUOUS
 10
200.512261
 20
194.260472
 40
0.240000
 50
-4.637057
 51
90.000000
  0
LINE
  8
1
 62
7
  6
CONTINUOUS
 10
200.580748
 20
193.587027
 11
200.746659
 21
194.213013
  0
ARC
  8
1
 62
7
  6
CONTINUOUS
 10
200.591999
 20
194.254004
 40
0.160000
 50
-14.844361
 51
-4.637057
  0
LINE
  8
1
 62
7
  6
CONTINUOUS
 10
201.835147
 20
194.500472
 11
202.167504
 21
194.500472
  0
LINE
  8
1
 62
7
  6
CONTINUOUS
 10
201.378832
 20
193.475582
 11
201.603157
 21
194.321958
  0
ARC
  8
1
 62
7
  6
CONTINUOUS
 10
201.835147
 20
194.260472
 40
0.240000
 50
90.000000
 51
165.155595
  0
ARC
  8
1
 62
7
  6
CONTINUOUS
 10
205.045448
 20
193.460472
 40
0.160000
 50
165.155624
 51
-90.000000
  0
ARC
  8
1
 62
7
  6
CONTINUOUS
 10
206.712569
 20
193.505287
 40
0.160000
 50
90.164666
 51
165.155725
  0
LINE
  8
1
 62
7
  6
CONTINUOUS
 10
206.712109
 20
193.665286
 11
207.209061
 21
193.666715
  0
ARC
  8
1
 62
7
  6
CONTINUOUS
 10
207.209520
 20
193.506715
 40
0.160000
 50
-14.844374
 51
90.164666
  0
LINE
  8
1
 62
7
  6
CONTINUOUS
 10
206.524302
 20
193.419481
 11
206.557908
 21
193.546278
  0
LINE
  8
1
 62
7
  6
CONTINUOUS
 10
205.045448
 20
193.300472
 11
206.369642
 21
193.300472
  0
ARC
  8
1
 62
7
  6
CONTINUOUS
 10
206.369642
 20
193.460472
 40
0.160000
 50
-90.000000
 51
-14.844275
  0
LINE
  8
1
 62
7
  6
CONTINUOUS
 10
207.364181
 20
193.465724
 11
207.245908
 21
193.019480
  0
LINE
  8
1
 62
7
  6
CONTINUOUS
 10
202.156500
 20
192.900472
 11
207.091248
 21
192.900472
  0
ARC
  8
1
 62
7
  6
CONTINUOUS
 10
207.091248
 20
193.060472
 40
0.160000
 50
-90.000000
 51
-14.844374
  0
LINE
  8
1
 62
7
  6
CONTINUOUS
 10
202.176956
 20
192.900472
 11
202.282972
 21
193.300472
  0
LINE
  8
1
 62
7
  6
CONTINUOUS
 10
202.342480
 20
192.900472
 11
202.448496
 21
193.300472
  0
LINE
  8
1
 62
7
  6
CONTINUOUS
 10
202.508005
 20
192.900472
 11
202.614021
 21
193.300472
  0
LINE
  8
1
 62
7
  6
CONTINUOUS
 10
202.673529
 20
192.900472
 11
202.779545
 21
193.300472
  0
LINE
  8
1
 62
7
  6
CONTINUOUS
 10
203.504699
 20
192.900472
 11
203.610716
 21
193.300472
  0
LINE
  8
1
 62
7
  6
CONTINUOUS
 10
203.666675
 20
192.900472
 11
203.772691
 21
193.300472
  0
LINE
  8
1
 62
7
  6
CONTINUOUS
 10
203.834680
 20
192.909830
 11
203.940696
 21
193.309830
  0
LINE
  8
1
 62
7
  6
CONTINUOUS
 10
204.990870
 20
192.900472
 11
205.096886
 21
193.300472
  0
LINE
  8
1
 62
7
  6
CONTINUOUS
 10
205.156394
 20
192.900472
 11
205.262410
 21
193.300472
  0
LINE
  8
1
 62
7
  6
CONTINUOUS
 10
205.321919
 20
192.900472
 11
205.427935
 21
193.300472
  0
LINE
  8
1
 62
7
  6
CONTINUOUS
 10
205.487443
 20
192.900472
 11
205.593459
 21
193.300472
  0
LINE
  8
1
 62
7
  6
CONTINUOUS
 10
205.652967
 20
192.900472
 11
205.758983
 21
193.300472
  0
LINE
  8
1
 62
7
  6
CONTINUOUS
 10
205.818492
 20
192.900472
 11
205.924508
 21
193.300472
  0
LINE
  8
1
 62
7
  6
CONTINUOUS
 10
205.984016
 20
192.900472
 11
206.090032
 21
193.300472
  0
LINE
  8
1
 62
7
  6
CONTINUOUS
 10
206.149540
 20
192.900472
 11
206.255556
 21
193.300472
  0
LINE
  8
1
 62
7
  6
CONTINUOUS
 10
206.317545
 20
192.909830
 11
206.423561
 21
193.309830
  0
LINE
  8
1
 62
7
  6
CONTINUOUS
 10
207.330972
 20
193.610877
 11
207.145166
 21
192.909830
  0
LINE
  8
1
 62
7
  6
CONTINUOUS
 10
207.180225
 20
193.666632
 11
206.977162
 21
192.900472
  0
LINE
  8
1
 62
7
  6
CONTINUOUS
 10
207.014575
 20
193.666156
 11
206.811637
 21
192.900472
  0
LINE
  8
1
 62
7
  6
CONTINUOUS
 10
206.848924
 20
193.665680
 11
206.646113
 21
192.900472
  0
LINE
  8
1
 62
7
  6
CONTINUOUS
 10
206.682543
 20
193.662444
 11
206.480589
 21
192.900472
  0
LINE
  8
1
 62
7
  6
CONTINUOUS
 10
204.822636
 20
192.890246
 11
204.941525
 21
193.338816
  0
LINE
  8
1
 62
7
  6
CONTINUOUS
 10
204.495767
 20
192.906016
 11
204.957341
 21
194.647542
  0
LINE
  8
1
 62
7
  6
CONTINUOUS
 10
204.327371
 20
192.895184
 11
204.791633
 21
194.646848
  0
LINE
  8
1
 62
7
  6
CONTINUOUS
 10
204.164047
 20
192.903483
 11
204.625924
 21
194.646153
  0
LINE
  8
1
 62
7
  6
CONTINUOUS
 10
204.890788
 20
193.501463
 11
205.114555
 21
194.345740
  0
ARC
  8
1
 62
7
  6
CONTINUOUS
 10
204.882565
 20
194.407227
 40
0.240000
 50
-14.844376
 51
90.240224
  0
LINE
  8
1
 62
7
  6
CONTINUOUS
 10
204.881559
 20
194.647225
 11
204.549602
 21
194.645833
  0
LINE
  8
1
 62
7
  6
CONTINUOUS
 10
204.318001
 20
194.464943
 11
204.305746
 21
194.416718
  0
ARC
  8
1
 62
7
  6
CONTINUOUS
 10
204.550608
 20
194.405835
 40
0.240000
 50
90.240224
 51
165.742271
  0
LINE
  8
1
 62
7
  6
CONTINUOUS
 10
204.660140
 20
192.901672
 11
205.090798
 21
194.526554
  0
LINE
  8
1
 62
7
  6
CONTINUOUS
 10
203.996090
 20
192.894305
 11
204.455058
 21
194.625994
  0
LINE
  8
1
 62
7
  6
CONTINUOUS
 10
203.336891
 20
192.905243
 11
203.465975
 21
193.392278
  0
LINE
  8
1
 62
7
  6
CONTINUOUS
 10
203.170202
 20
192.900848
 11
203.592185
 21
194.492996
  0
LINE
  8
1
 62
7
  6
CONTINUOUS
 10
203.009803
 20
192.920186
 11
203.426661
 21
194.492996
  0
LINE
  8
1
 62
7
  6
CONTINUOUS
 10
202.829008
 20
192.900472
 11
203.248487
 21
194.483171
  0
LINE
  8
1
 62
7
  6
CONTINUOUS
 10
202.822198
 20
193.461400
 11
203.076529
 21
194.420995
  0
LINE
  8
1
 62
7
  6
CONTINUOUS
 10
202.718952
 20
193.696376
 11
202.866631
 21
194.253570
  0
LINE
  8
1
 62
7
  6
CONTINUOUS
 10
203.760198
 20
194.502384
 11
203.712442
 21
194.322202
  0
LINE
  8
1
 62
7
  6
CONTINUOUS
 10
203.926771
 20
194.506340
 11
203.880560
 21
194.331988
  0
LINE
  8
1
 62
7
  6
CONTINUOUS
 10
204.089034
 20
194.494038
 11
204.017786
 21
194.225217
  0
LINE
  8
1
 62
7
  6
CONTINUOUS
 10
204.242102
 20
194.447040
 11
204.154287
 21
194.115711
  0
ARC
  8
1
 62
7
  6
CONTINUOUS
 10
199.772726
 20
192.420472
 40
0.080000
 50
90.000000
 51
160.640811
  0
ARC
  8
1
 62
7
  6
CONTINUOUS
 10
201.227715
 20
192.580472
 40
0.080000
 50
-90.000000
 51
-14.844395
  0
LINE
  8
1
 62
7
  6
CONTINUOUS
 10
201.227715
 20
192.500472
 11
199.772726
 21
192.500472
  0
ARC
  8
1
 62
7
  6
CONTINUOUS
 10
197.773011
 20
193.472205
 40
0.160000
 50
-89.590062
 51
-14.844379
  0
LINE
  8
1
 62
7
  6
CONTINUOUS
 10
197.927671
 20
193.431213
 11
198.182081
 21
194.391108
  0
ARC
  8
1
 62
7
  6
CONTINUOUS
 10
198.336741
 20
194.350117
 40
0.160000
 50
90.000000
 51
165.155621
  0
LINE
  8
1
 62
7
  6
CONTINUOUS
 10
198.336741
 20
194.510117
 11
198.833314
 21
194.510117
  0
LINE
  8
1
 62
7
  6
CONTINUOUS
 10
198.987974
 20
194.309126
 11
198.723197
 21
193.310117
  0
ARC
  8
1
 62
7
  6
CONTINUOUS
 10
198.833314
 20
194.350117
 40
0.160000
 50
-14.844371
 51
90.000000
  0
LINE
  8
1
 62
7
  6
CONTINUOUS
 10
198.723751
 20
193.312209
 11
199.681598
 21
193.312209
  0
LINE
  8
1
 62
7
  6
CONTINUOUS
 10
201.305045
 20
192.559976
 11
201.361616
 21
192.819733
  0
ARC
  8
1
 62
7
  6
CONTINUOUS
 10
201.283656
 20
192.837687
 40
0.080000
 50
-12.968616
 51
90.000000
  0
LINE
  8
1
 62
7
  6
CONTINUOUS
 10
196.554075
 20
192.915315
 11
201.283656
 21
192.915315
  0
LINE
  8
1
 62
7
  6
CONTINUOUS
 10
201.304596
 20
193.356199
 11
201.187744
 21
192.915315
  0
LINE
  8
1
 62
7
  6
CONTINUOUS
 10
201.123145
 20
193.296108
 11
201.022220
 21
192.915315
  0
LINE
  8
1
 62
7
  6
CONTINUOUS
 10
200.956093
 20
193.290344
 11
200.856695
 21
192.915315
  0
LINE
  8
1
 62
7
  6
CONTINUOUS
 10
200.789592
 20
193.286659
 11
200.691171
 21
192.915315
  0
LINE
  8
1
 62
7
  6
CONTINUOUS
 10
200.642534
 20
193.356335
 11
200.525646
 21
192.915315
  0
LINE
  8
1
 62
7
  6
CONTINUOUS
 10
200.738140
 20
194.341581
 11
200.360122
 21
192.915315
  0
LINE
  8
1
 62
7
  6
CONTINUOUS
 10
200.609297
 20
194.479980
 11
200.194598
 21
192.915315
  0
LINE
  8
1
 62
7
  6
CONTINUOUS
 10
200.446791
 20
194.491369
 11
200.029074
 21
192.915315
  0
LINE
  8
1
 62
7
  6
CONTINUOUS
 10
200.281267
 20
194.491369
 11
199.863549
 21
192.915315
  0
LINE
  8
1
 62
7
  6
CONTINUOUS
 10
200.115743
 20
194.491369
 11
199.698025
 21
192.915315
  0
LINE
  8
1
 62
7
  6
CONTINUOUS
 10
198.590783
 20
192.915315
 11
198.984751
 21
194.401760
  0
LINE
  8
1
 62
7
  6
CONTINUOUS
 10
198.425259
 20
192.915315
 11
198.847772
 21
194.509462
  0
LINE
  8
1
 62
7
  6
CONTINUOUS
 10
198.259735
 20
192.915315
 11
198.682421
 21
194.510117
  0
LINE
  8
1
 62
7
  6
CONTINUOUS
 10
197.763161
 20
192.915315
 11
197.878989
 21
193.352336
  0
LINE
  8
1
 62
7
  6
CONTINUOUS
 10
197.928686
 20
192.915315
 11
198.351373
 21
194.510117
  0
LINE
  8
1
 62
7
  6
CONTINUOUS
 10
198.094210
 20
192.915315
 11
198.516897
 21
194.510117
  0
LINE
  8
1
 62
7
  6
CONTINUOUS
 10
197.490927
 20
193.312209
 11
197.774155
 21
193.312209
  0
LINE
  8
1
 62
7
  6
CONTINUOUS
 10
198.803504
 20
193.312209
 11
198.698311
 21
192.915315
  0
LINE
  8
1
 62
7
  6
CONTINUOUS
 10
198.912242
 20
193.312209
 11
198.807049
 21
192.915315
  0
LINE
  8
1
 62
7
  6
CONTINUOUS
 10
199.024226
 20
193.312209
 11
198.919033
 21
192.915315
  0
LINE
  8
1
 62
7
  6
CONTINUOUS
 10
199.163800
 20
193.312209
 11
199.058607
 21
192.915315
  0
LINE
  8
1
 62
7
  6
CONTINUOUS
 10
199.269292
 20
193.312209
 11
199.164099
 21
192.915315
  0
LINE
  8
1
 62
7
  6
CONTINUOUS
 10
199.407244
 20
193.312209
 11
199.302051
 21
192.915315
  0
LINE
  8
1
 62
7
  6
CONTINUOUS
 10
199.543572
 20
193.312209
 11
199.438379
 21
192.915315
  0
LINE
  8
1
 62
7
  6
CONTINUOUS
 10
199.683146
 20
193.312209
 11
199.577953
 21
192.915315
  0
LINE
  8
1
 62
7
  6
CONTINUOUS
 10
48.891154
 20
189.254094
 11
48.891154
 21
188.754094
  0
LINE
  8
1
 62
7
  6
CONTINUOUS
 10
54.891154
 20
188.754094
 11
54.891154
 21
189.254094
  0
LINE
  8
2
 62
7
  6
CONTINUOUS
 10
44.893569
 20
248.054094
 11
58.893569
 21
248.054094
  0
LINE
  8
1
 62
7
  6
CONTINUOUS
 10
151.734053
 20
189.254094
 11
151.734053
 21
188.754094
  0
LINE
  8
1
 62
7
  6
CONTINUOUS
 10
157.734053
 20
188.754094
 11
157.734053
 21
189.254094
  0
CIRCLE
  8
1
 62
7
  6
CONTINUOUS
 10
51.893569
 20
254.954094
 40
2.472198
  0
LINE
  8
1
 62
7
  6
CONTINUOUS
 10
50.728164
 20
253.788689
 11
53.058975
 21
256.119499
  0
LINE
  8
1
 62
7
  6
CONTINUOUS
 10
53.058975
 20
253.788689
 11
50.728164
 21
256.119499
  0
CIRCLE
  8
1
 62
7
  6
CONTINUOUS
 10
51.893569
 20
254.954094
 40
2.763662
  0
LINE
  8
1
 62
7
  6
CONTINUOUS
 10
183.405589
 20
192.458728
 11
183.321264
 21
192.298728
  0
ARC
  8
1
 62
7
  6
CONTINUOUS
 10
183.396741
 20
192.272209
 40
0.080000
 50
160.640811
 51
-90.000000
  0
ARC
  8
1
 62
7
  6
CONTINUOUS
 10
185.593299
 20
192.352209
 40
0.160000
 50
-90.000000
 51
-14.844376
  0
LINE
  8
1
 62
7
  6
CONTINUOUS
 10
185.747959
 20
192.311218
 11
185.864840
 21
192.912209
  0
LINE
  8
1
 62
7
  6
CONTINUOUS
 10
183.396741
 20
192.192209
 11
185.593299
 21
192.192209
  0
LINE
  8
1
 62
7
  6
CONTINUOUS
 10
183.477294
 20
192.512120
 11
183.372314
 21
192.196029
  0
LINE
  8
1
 62
7
  6
CONTINUOUS
 10
183.536825
 20
192.192209
 11
183.634280
 21
192.479908
  0
LINE
  8
1
 62
7
  6
CONTINUOUS
 10
183.808366
 20
192.512209
 11
183.702350
 21
192.192209
  0
LINE
  8
1
 62
7
  6
CONTINUOUS
 10
183.867874
 20
192.192209
 11
183.973890
 21
192.512209
  0
LINE
  8
1
 62
7
  6
CONTINUOUS
 10
184.033399
 20
192.192209
 11
184.139415
 21
192.512209
  0
LINE
  8
1
 62
7
  6
CONTINUOUS
 10
184.198923
 20
192.192209
 11
184.304939
 21
192.512209
  0
LINE
  8
1
 62
7
  6
CONTINUOUS
 10
184.364447
 20
192.192209
 11
184.470463
 21
192.512209
  0
LINE
  8
1
 62
7
  6
CONTINUOUS
 10
184.529972
 20
192.192209
 11
184.635988
 21
192.512209
  0
LINE
  8
1
 62
7
  6
CONTINUOUS
 10
184.695497
 20
192.192209
 11
184.801513
 21
192.512209
  0
LINE
  8
1
 62
7
  6
CONTINUOUS
 10
184.862891
 20
192.199266
 11
184.968907
 21
192.519266
  0
LINE
  8
1
 62
7
  6
CONTINUOUS
 10
185.030023
 20
192.205331
 11
185.637508
 21
194.657380
  0
LINE
  8
1
 62
7
  6
CONTINUOUS
 10
185.197271
 20
192.211832
 11
185.803216
 21
194.658074
  0
LINE
  8
1
 62
7
  6
CONTINUOUS
 10
185.359767
 20
192.200408
 11
185.968924
 21
194.658769
  0
LINE
  8
1
 62
7
  6
CONTINUOUS
 10
185.524359
 20
192.196891
 11
186.134633
 21
194.659464
  0
LINE
  8
1
 62
7
  6
CONTINUOUS
 10
186.300341
 20
194.660159
 11
185.706617
 21
192.260029
  0
LINE
  8
1
 62
7
  6
CONTINUOUS
 10
199.697250
 20
192.446991
 11
199.612924
 21
192.283271
  0
ARC
  8
1
 62
7
  6
CONTINUOUS
 10
199.688401
 20
192.256751
 40
0.080000
 50
160.640811
 51
-90.000000
  0
ARC
  8
1
 62
7
  6
CONTINUOUS
 10
201.884960
 20
192.336751
 40
0.160000
 50
-90.000000
 51
-14.844376
  0
LINE
  8
1
 62
7
  6
CONTINUOUS
 10
202.039620
 20
192.295760
 11
202.156500
 21
192.900472
  0
LINE
  8
1
 62
7
  6
CONTINUOUS
 10
199.688401
 20
192.176751
 11
201.884960
 21
192.176751
  0
LINE
  8
1
 62
7
  6
CONTINUOUS
 10
199.817209
 20
192.500472
 11
199.711193
 21
192.176751
  0
LINE
  8
1
 62
7
  6
CONTINUOUS
 10
199.982733
 20
192.500472
 11
199.876717
 21
192.176751
  0
LINE
  8
1
 62
7
  6
CONTINUOUS
 10
200.148257
 20
192.500472
 11
200.042241
 21
192.176751
  0
LINE
  8
1
 62
7
  6
CONTINUOUS
 10
200.313781
 20
192.500472
 11
200.207765
 21
192.176751
  0
LINE
  8
1
 62
7
  6
CONTINUOUS
 10
200.479306
 20
192.500472
 11
200.373290
 21
192.176751
  0
LINE
  8
1
 62
7
  6
CONTINUOUS
 10
200.644831
 20
192.500472
 11
200.538814
 21
192.176751
  0
LINE
  8
1
 62
7
  6
CONTINUOUS
 10
200.810354
 20
192.500472
 11
200.704338
 21
192.176751
  0
LINE
  8
1
 62
7
  6
CONTINUOUS
 10
200.975879
 20
192.500472
 11
200.869863
 21
192.176751
  0
LINE
  8
1
 62
7
  6
CONTINUOUS
 10
201.141404
 20
192.500472
 11
201.035387
 21
192.176751
  0
LINE
  8
1
 62
7
  6
CONTINUOUS
 10
201.202701
 20
192.183503
 11
201.771091
 21
194.491766
  0
LINE
  8
1
 62
7
  6
CONTINUOUS
 10
201.370533
 20
192.192209
 11
201.938923
 21
194.500472
  0
LINE
  8
1
 62
7
  6
CONTINUOUS
 10
201.536057
 20
192.192209
 11
202.104447
 21
194.500472
  0
LINE
  8
1
 62
7
  6
CONTINUOUS
 10
201.696151
 20
192.171717
 11
202.264541
 21
194.479980
  0
LINE
  8
1
 62
7
  6
CONTINUOUS
 10
201.863396
 20
192.178211
 11
202.393383
 21
194.341580
  0
CIRCLE
  8
1
 62
7
  6
CONTINUOUS
 10
198.753474
 20
195.190255
 40
0.411998
  0
LINE
  8
1
 62
7
  6
CONTINUOUS
 10
198.586467
 20
195.566886
 11
198.421850
 21
194.945782
  0
LINE
  8
1
 62
7
  6
CONTINUOUS
 10
198.761345
 20
195.602178
 11
198.556292
 21
194.828508
  0
LINE
  8
1
 62
7
  6
CONTINUOUS
 10
198.917825
 20
195.568053
 11
198.709132
 21
194.780651
  0
LINE
  8
1
 62
7
  6
CONTINUOUS
 10
199.050406
 20
195.443756
 11
198.879234
 21
194.797921
  0
LINE
  8
1
 62
7
  6
CONTINUOUS
 10
199.154749
 20
195.212921
 11
199.096987
 21
194.994984
  0
CIRCLE
  8
1
 62
7
  6
CONTINUOUS
 10
187.691957
 20
195.192347
 40
0.411998
  0
LINE
  8
1
 62
7
  6
CONTINUOUS
 10
187.524950
 20
195.568978
 11
187.360332
 21
194.947874
  0
LINE
  8
1
 62
7
  6
CONTINUOUS
 10
187.699828
 20
195.604270
 11
187.494774
 21
194.830600
  0
LINE
  8
1
 62
7
  6
CONTINUOUS
 10
187.856308
 20
195.570145
 11
187.647614
 21
194.782743
  0
LINE
  8
1
 62
7
  6
CONTINUOUS
 10
187.988889
 20
195.445848
 11
187.817716
 21
194.800013
  0
LINE
  8
1
 62
7
  6
CONTINUOUS
 10
188.093232
 20
195.215013
 11
188.035470
 21
194.997076
  0
ARC
  8
1
 62
7
  6
CONTINUOUS
 10
157.912617
 20
253.458098
 40
0.890643
 50
-163.742975
 51
-95.000020
  0
LINE
  8
1
 62
7
  6
CONTINUOUS
 10
157.834992
 20
252.570844
 11
158.589589
 21
252.504824
  0
ARC
  8
1
 62
7
  6
CONTINUOUS
 10
157.912617
 20
256.450090
 40
0.890643
 50
95.000020
 51
163.742975
  0
ARC
  8
1
 62
7
  6
CONTINUOUS
 10
163.042806
 20
254.954094
 40
6.234504
 50
163.742981
 51
-163.742981
  0
LINE
  8
1
 62
7
  6
CONTINUOUS
 10
157.834992
 20
257.337344
 11
158.589589
 21
257.403363
  0
LINE
  8
1
 62
7
  6
CONTINUOUS
 10
157.552544
 20
254.067141
 11
156.808302
 21
254.954094
  0
LINE
  8
1
 62
7
  6
CONTINUOUS
 10
156.808299
 20
254.954094
 11
157.552545
 21
255.841051
  0
LINE
  8
2
 62
7
  6
DIVIDE
 10
45.893569
 20
190.754094
 11
57.893569
 21
190.754094
  0
LINE
  8
2
 62
7
  6
DIVIDE
 10
57.893569
 20
190.754094
 11
57.893569
 21
248.254094
  0
LINE
  8
2
 62
7
  6
DIVIDE
 10
45.893569
 20
235.954094
 11
45.893569
 21
228.554094
  0
LINE
  8
1
 62
7
  6
CONTINUOUS
 10
58.893569
 20
248.254094
 11
44.893569
 21
248.254094
  0
LINE
  8
2
 62
7
  6
DIVIDE
 10
55.989835
 20
190.704094
 11
55.989835
 21
189.254094
  0
LINE
  8
2
 62
7
  6
DIVIDE
 10
54.891154
 20
191.754094
 11
54.891154
 21
189.254094
  0
LINE
  8
2
 62
7
  6
DIVIDE
 10
47.889835
 20
190.704094
 11
47.889835
 21
189.254094
  0
LINE
  8
2
 62
7
  6
DIVIDE
 10
48.891154
 20
191.754094
 11
48.891154
 21
189.254094
  0
LINE
  8
1
 62
7
  6
CONTINUOUS
 10
47.889835
 20
187.204094
 11
55.989835
 21
187.204094
  0
LINE
  8
2
 62
7
  6
DIVIDE
 10
55.989835
 20
190.704094
 11
47.889835
 21
190.704094
  0
LINE
  8
1
 62
7
  6
CONTINUOUS
 10
47.889835
 20
189.254094
 11
47.889835
 21
187.204094
  0
LINE
  8
1
 62
7
  6
CONTINUOUS
 10
55.989835
 20
187.204094
 11
55.989835
 21
189.254094
  0
LINE
  8
2
 62
7
  6
DIVIDE
 10
44.893569
 20
236.254094
 11
45.893569
 21
236.254094
  0
LINE
  8
2
 62
7
  6
DIVIDE
 10
44.893569
 20
233.254094
 11
45.893569
 21
233.254094
  0
LINE
  8
2
 62
7
  6
DIVIDE
 10
44.893569
 20
231.254094
 11
45.893569
 21
231.254094
  0
LINE
  8
2
 62
7
  6
DIVIDE
 10
44.893569
 20
228.254094
 11
45.893569
 21
228.254094
  0
LINE
  8
2
 62
7
  6
DIVIDE
 10
58.893569
 20
236.254094
 11
57.893569
 21
236.254094
  0
LINE
  8
2
 62
7
  6
DIVIDE
 10
58.893569
 20
233.254094
 11
57.893569
 21
233.254094
  0
LINE
  8
2
 62
7
  6
DIVIDE
 10
58.893569
 20
231.254094
 11
57.893569
 21
231.254094
  0
LINE
  8
2
 62
7
  6
DIVIDE
 10
58.893569
 20
228.254094
 11
57.893569
 21
228.254094
  0
LINE
  8
2
 62
7
  6
DIVIDE
 10
51.993569
 20
234.254094
 11
51.793569
 21
234.254094
  0
LINE
  8
2
 62
7
  6
DIVIDE
 10
51.793569
 20
234.254094
 11
48.893569
 21
236.254094
  0
LINE
  8
2
 62
7
  6
DIVIDE
 10
48.893569
 20
236.254094
 11
46.193569
 21
236.254094
  0
ARC
  8
2
 62
7
  6
DIVIDE
 10
46.193569
 20
235.954094
 40
0.300000
 50
90.000000
 51
180.000000
  0
LINE
  8
2
 62
7
  6
DIVIDE
 10
45.893569
 20
234.254094
 11
45.893569
 21
248.254094
  0
LINE
  8
2
 62
7
  6
DIVIDE
 10
51.793569
 20
234.254094
 11
51.993569
 21
234.254094
  0
LINE
  8
2
 62
7
  6
DIVIDE
 10
51.993569
 20
234.254094
 11
54.893569
 21
236.254094
  0
LINE
  8
2
 62
7
  6
DIVIDE
 10
54.893569
 20
236.254094
 11
57.593569
 21
236.254094
  0
ARC
  8
2
 62
7
  6
DIVIDE
 10
57.593569
 20
235.954094
 40
0.300000
 50
0.000000
 51
90.000000
  0
LINE
  8
2
 62
7
  6
DIVIDE
 10
51.893569
 20
227.254094
 11
49.893569
 21
227.254094
  0
LINE
  8
2
 62
7
  6
DIVIDE
 10
49.893569
 20
227.254094
 11
47.893569
 21
228.254094
  0
LINE
  8
2
 62
7
  6
DIVIDE
 10
47.893569
 20
228.254094
 11
46.193569
 21
228.254094
  0
ARC
  8
2
 62
7
  6
DIVIDE
 10
46.193569
 20
228.554094
 40
0.300000
 50
180.000000
 51
-90.000000
  0
LINE
  8
2
 62
7
  6
DIVIDE
 10
57.893569
 20
229.754094
 11
53.893569
 21
227.254094
  0
LINE
  8
2
 62
7
  6
DIVIDE
 10
51.793569
 20
227.254094
 11
53.893569
 21
227.254094
  0
LINE
  8
2
 62
7
  6
DIVIDE
 10
45.893569
 20
230.391896
 11
45.893569
 21
190.754094
  0
LINE
  8
2
 62
7
  6
DIVIDE
 10
54.891154
 20
191.754094
 11
48.891154
 21
191.754094
  0
LINE
  8
2
 62
7
  6
DIVIDE
 10
51.803569
 20
191.754094
 11
51.803569
 21
246.954094
  0
LINE
  8
2
 62
7
  6
DIVIDE
 10
51.983569
 20
246.954094
 11
51.983569
 21
191.754094
  0
LINE
  8
2
 62
7
  6
DIVIDE
 10
51.803569
 20
246.954094
 11
51.983569
 21
246.954094
  0
LINE
  8
2
 62
7
  6
DIVIDE
 10
148.734053
 20
190.754094
 11
158.684053
 21
190.754094
  0
LINE
  8
2
 62
7
  6
DIVIDE
 10
154.810636
 20
233.254094
 11
150.810636
 21
233.254094
  0
LINE
  8
2
 62
7
  6
DIVIDE
 10
154.810636
 20
231.254094
 11
150.810636
 21
231.254094
  0
LINE
  8
2
 62
7
  6
DIVIDE
 10
154.834053
 20
234.254094
 11
154.634053
 21
234.254094
  0
LINE
  8
2
 62
7
  6
DIVIDE
 10
154.634053
 20
234.254094
 11
153.234053
 21
232.254094
  0
LINE
  8
2
 62
7
  6
DIVIDE
 10
153.234053
 20
232.254094
 11
153.734053
 21
226.754094
  0
LINE
  8
2
 62
7
  6
DIVIDE
 10
153.734053
 20
226.754094
 11
154.734053
 21
226.754094
  0
LINE
  8
2
 62
7
  6
DIVIDE
 10
154.687218
 20
234.254094
 11
154.887218
 21
234.254094
  0
LINE
  8
2
 62
7
  6
DIVIDE
 10
154.887218
 20
234.254094
 11
156.287218
 21
232.254094
  0
LINE
  8
2
 62
7
  6
DIVIDE
 10
156.287218
 20
232.254094
 11
155.787218
 21
226.754094
  0
LINE
  8
2
 62
7
  6
DIVIDE
 10
155.787218
 20
226.754094
 11
154.787218
 21
226.754094
  0
LINE
  8
2
 62
7
  6
DIVIDE
 10
152.984053
 20
236.254094
 11
156.484053
 21
236.254094
  0
LINE
  8
2
 62
7
  6
DIVIDE
 10
154.541349
 20
242.407623
 11
152.984053
 21
236.254094
  0
LINE
  8
2
 62
7
  6
DIVIDE
 10
156.484053
 20
236.254094
 11
154.926757
 21
242.407623
  0
ARC
  8
2
 62
7
  6
DIVIDE
 10
154.734053
 20
242.354094
 40
0.200000
 50
15.524111
 51
164.475889
  0
LINE
  8
2
 62
7
  6
DIVIDE
 10
148.734053
 20
247.254094
 11
148.734053
 21
190.754094
  0
LINE
  8
2
 62
7
  6
DIVIDE
 10
154.734053
 20
246.954094
 11
150.734053
 21
236.254094
  0
LINE
  8
2
 62
7
  6
DIVIDE
 10
154.734053
 20
246.954094
 11
158.734053
 21
236.254094
  0
LINE
  8
2
 62
7
  6
DIVIDE
 10
151.734053
 20
194.754094
 11
152.634053
 21
193.754094
  0
LINE
  8
2
 62
7
  6
DIVIDE
 10
157.734053
 20
194.754094
 11
156.834053
 21
193.754094
  0
LINE
  8
2
 62
7
  6
DIVIDE
 10
154.810636
 20
236.254094
 11
154.810636
 21
228.254094
  0
LINE
  8
2
 62
7
  6
DIVIDE
 10
154.810636
 20
228.254094
 11
150.810636
 21
228.254094
  0
LINE
  8
2
 62
7
  6
DIVIDE
 10
150.810636
 20
236.254094
 11
154.810636
 21
236.254094
  0
LINE
  8
2
 62
7
  6
DIVIDE
 10
150.734053
 20
236.254094
 11
151.734053
 21
194.754094
  0
LINE
  8
2
 62
7
  6
DIVIDE
 10
158.734053
 20
236.254094
 11
157.734053
 21
194.754094
  0
LINE
  8
2
 62
7
  6
DIVIDE
 10
150.785392
 20
236.254094
 11
150.785392
 21
228.254094
  0
LINE
  8
2
 62
7
  6
DIVIDE
 10
158.684053
 20
247.254094
 11
148.734053
 21
247.254094
  0
LINE
  8
2
 62
7
  6
DIVIDE
 10
157.734053
 20
191.754094
 11
151.734053
 21
191.754094
  0
LINE
  8
2
 62
7
  6
DIVIDE
 10
152.634053
 20
193.754094
 11
152.634053
 21
191.754094
  0
LINE
  8
2
 62
7
  6
DIVIDE
 10
156.834053
 20
193.754094
 11
156.834053
 21
191.754094
  0
LINE
  8
2
 62
7
  6
DIVIDE
 10
151.734053
 20
191.754094
 11
151.734053
 21
189.254094
  0
LINE
  8
2
 62
7
  6
DIVIDE
 10
157.734053
 20
191.754094
 11
157.734053
 21
189.254094
  0
ARC
  8
1
 62
7
  6
CONTINUOUS
 10
168.046324
 20
172.484617
 40
2.200000
 50
180.000000
 51
-90.000000
  0
ARC
  8
1
 62
7
  6
CONTINUOUS
 10
168.046324
 20
172.484617
 40
2.200000
 50
90.000000
 51
180.000000
  0
LINE
  8
1
 62
7
  6
CONTINUOUS
 10
170.934053
 20
174.684617
 11
168.046324
 21
174.684617
  0
LINE
  8
1
 62
7
  6
CONTINUOUS
 10
168.046324
 20
170.284617
 11
170.934053
 21
170.284617
  0
ARC
  8
1
 62
7
  6
CONTINUOUS
 10
173.821782
 20
172.484617
 40
2.200000
 50
-90.000000
 51
0.000000
  0
ARC
  8
1
 62
7
  6
CONTINUOUS
 10
173.821782
 20
172.484617
 40
2.200000
 50
0.000000
 51
90.000000
  0
LINE
  8
1
 62
7
  6
CONTINUOUS
 10
170.934053
 20
174.684617
 11
173.821782
 21
174.684617
  0
LINE
  8
1
 62
7
  6
CONTINUOUS
 10
173.821782
 20
170.284617
 11
170.934053
 21
170.284617
  0
LINE
  8
2
 62
7
  6
DASHDOT
 10
164.809235
 20
172.484617
 11
176.696722
 21
172.484617
  0
ARC
  8
1
 62
7
  6
CONTINUOUS
 10
215.821782
 20
172.484617
 40
2.200000
 50
-90.000000
 51
0.000000
  0
ARC
  8
1
 62
7
  6
CONTINUOUS
 10
215.821782
 20
172.484617
 40
2.200000
 50
0.000000
 51
90.000000
  0
LINE
  8
1
 62
7
  6
CONTINUOUS
 10
212.934053
 20
174.684617
 11
215.821782
 21
174.684617
  0
LINE
  8
1
 62
7
  6
CONTINUOUS
 10
215.821782
 20
170.284617
 11
212.934053
 21
170.284617
  0
ARC
  8
1
 62
7
  6
CONTINUOUS
 10
210.046324
 20
172.484617
 40
2.200000
 50
180.000000
 51
-90.000000
  0
ARC
  8
1
 62
7
  6
CONTINUOUS
 10
210.046324
 20
172.484617
 40
2.200000
 50
90.000000
 51
180.000000
  0
LINE
  8
1
 62
7
  6
CONTINUOUS
 10
212.934053
 20
174.684617
 11
210.046324
 21
174.684617
  0
LINE
  8
1
 62
7
  6
CONTINUOUS
 10
210.046324
 20
170.284617
 11
212.934053
 21
170.284617
  0
LINE
  8
2
 62
7
  6
DASHDOT
 10
206.749368
 20
172.484617
 11
218.574617
 21
172.484617
  0
ARC
  8
1
 62
7
  6
CONTINUOUS
 10
168.061941
 20
172.484617
 40
6.000000
 50
180.000000
 51
-90.000000
  0
LINE
  8
1
 62
7
  6
CONTINUOUS
 10
168.061941
 20
166.484617
 11
216.061941
 21
166.484617
  0
ARC
  8
1
 62
7
  6
CONTINUOUS
 10
216.061941
 20
172.484617
 40
6.000000
 50
-90.000000
 51
0.000000
  0
LINE
  8
1
 62
7
  6
CONTINUOUS
 10
162.061941
 20
175.789910
 11
162.061941
 21
172.484617
  0
LINE
  8
1
 62
7
  6
CONTINUOUS
 10
222.061941
 20
172.484617
 11
222.061941
 21
175.789910
  0
LINE
  8
2
 62
7
  6
DASHDOT
 10
212.934053
 20
175.789910
 11
212.934053
 21
168.365764
  0
LINE
  8
2
 62
7
  6
DASHDOT
 10
170.934053
 20
175.789910
 11
170.934053
 21
168.676955
  0
LINE
  8
2
 62
7
  6
DASHDOT
 10
39.081749
 20
190.454094
 11
45.839242
 21
190.454094
  0
LINE
  8
2
 62
7
  6
DASHDOT
 10
38.467426
 20
281.954094
 11
45.629036
 21
281.954094
  0
LINE
  8
2
 62
7
  6
CONTINUOUS
 10
42.493648
 20
240.454094
 11
40.493648
 21
240.454094
  0
LINE
  8
2
 62
7
  6
CONTINUOUS
 10
42.493648
 20
238.054094
 11
40.493648
 21
238.054094
  0
LINE
  8
1
 62
7
  6
CONTINUOUS
 10
40.493648
 20
240.454094
 11
40.493648
 21
238.054094
  0
LINE
  8
1
 62
7
  6
CONTINUOUS
 10
42.450696
 20
203.454094
 11
40.450696
 21
203.454094
  0
LINE
  8
2
 62
7
  6
CONTINUOUS
 10
42.450696
 20
203.654094
 11
40.450696
 21
203.654094
  0
LINE
  8
1
 62
7
  6
CONTINUOUS
 10
42.450696
 20
201.454094
 11
40.450696
 21
201.454094
  0
LINE
  8
2
 62
7
  6
CONTINUOUS
 10
42.450696
 20
201.254094
 11
40.450696
 21
201.254094
  0
LINE
  8
1
 62
7
  6
CONTINUOUS
 10
40.450696
 20
203.654094
 11
40.450696
 21
201.254094
  0
ARC
  8
1
 62
7
  6
CONTINUOUS
 10
40.557715
 20
188.958095
 40
0.890643
 50
-163.742975
 51
-95.000020
  0
ARC
  8
1
 62
7
  6
CONTINUOUS
 10
40.557715
 20
191.950086
 40
0.890643
 50
95.000020
 51
163.742975
  0
ARC
  8
1
 62
7
  6
CONTINUOUS
 10
45.687904
 20
190.454091
 40
6.234504
 50
163.742981
 51
-163.742981
  0
LINE
  8
1
 62
7
  6
CONTINUOUS
 10
40.197642
 20
189.567137
 11
39.453400
 21
190.454091
  0
LINE
  8
1
 62
7
  6
CONTINUOUS
 10
39.453398
 20
190.454091
 11
40.197643
 21
191.341048
  0
LINE
  8
1
 62
7
  6
CONTINUOUS
 10
40.480090
 20
192.837341
 11
41.255506
 21
192.905181
  0
LINE
  8
1
 62
7
  6
CONTINUOUS
 10
41.250696
 20
186.328274
 11
39.250696
 21
186.328274
  0
LINE
  8
2
 62
7
  6
CONTINUOUS
 10
41.250696
 20
186.128274
 11
39.250696
 21
186.128274
  0
LINE
  8
1
 62
7
  6
CONTINUOUS
 10
39.250696
 20
188.528274
 11
39.250696
 21
186.128274
  0
LINE
  8
2
 62
7
  6
CONTINUOUS
 10
39.777651
 20
188.528274
 11
39.250696
 21
188.528274
  0
LINE
  8
1
 62
7
  6
CONTINUOUS
 10
39.927976
 20
188.328274
 11
39.250696
 21
188.328274
  0
LINE
  8
1
 62
7
  6
CONTINUOUS
 10
40.480090
 20
188.070841
 11
41.239835
 21
188.004371
  0
ARC
  8
1
 62
7
  6
CONTINUOUS
 10
40.372696
 20
280.458095
 40
0.890643
 50
-163.742975
 51
-95.000020
  0
ARC
  8
1
 62
7
  6
CONTINUOUS
 10
40.372696
 20
283.450086
 40
0.890643
 50
95.000020
 51
163.742975
  0
ARC
  8
1
 62
7
  6
CONTINUOUS
 10
45.502885
 20
281.954091
 40
6.234504
 50
163.742981
 51
-163.742981
  0
LINE
  8
1
 62
7
  6
CONTINUOUS
 10
40.012623
 20
281.067137
 11
39.268381
 21
281.954091
  0
LINE
  8
1
 62
7
  6
CONTINUOUS
 10
39.268379
 20
281.954091
 11
40.012624
 21
282.841048
  0
LINE
  8
1
 62
7
  6
CONTINUOUS
 10
40.295071
 20
284.337341
 11
41.070487
 21
284.405181
  0
LINE
  8
1
 62
7
  6
CONTINUOUS
 10
40.295071
 20
279.570841
 11
41.054816
 21
279.504371
  0
LINE
  8
2
 62
7
  6
CONTINUOUS
 10
42.478905
 20
225.454094
 11
40.263591
 21
225.454094
  0
LINE
  8
2
 62
7
  6
CONTINUOUS
 10
42.478905
 20
223.054094
 11
40.263591
 21
223.054094
  0
LINE
  8
1
 62
7
  6
CONTINUOUS
 10
40.263591
 20
225.454094
 11
40.263591
 21
223.054094
  0
LINE
  8
2
 62
7
  6
DASHDOT
 10
37.891313
 20
190.454094
 11
43.641857
 21
190.454094
  0
LINE
  8
1
 62
7
  6
CONTINUOUS
 10
42.439835
 20
225.254094
 11
40.263591
 21
225.254094
  0
LINE
  8
1
 62
7
  6
CONTINUOUS
 10
42.439835
 20
223.254094
 11
40.263591
 21
223.254094
  0
LINE
  8
1
 62
7
  6
CONTINUOUS
 10
42.439835
 20
240.254094
 11
40.493648
 21
240.254094
  0
LINE
  8
1
 62
7
  6
CONTINUOUS
 10
42.439835
 20
238.254094
 11
40.493648
 21
238.254094
  0
LINE
  8
1
 62
7
  6
CONTINUOUS
 10
42.436204
 20
255.254094
 11
40.436204
 21
255.254094
  0
LINE
  8
2
 62
7
  6
CONTINUOUS
 10
42.436204
 20
255.454094
 11
40.436204
 21
255.454094
  0
LINE
  8
1
 62
7
  6
CONTINUOUS
 10
42.436204
 20
253.254094
 11
40.436204
 21
253.254094
  0
LINE
  8
2
 62
7
  6
CONTINUOUS
 10
42.436204
 20
253.054094
 11
40.436204
 21
253.054094
  0
LINE
  8
1
 62
7
  6
CONTINUOUS
 10
40.436204
 20
255.454094
 11
40.436204
 21
253.054094
  0
LINE
  8
2
 62
7
  6
DASHDOT
 10
41.207149
 20
254.254094
 11
43.083044
 21
254.254094
  0
LINE
  8
2
 62
7
  6
DASHDOT
 10
40.305378
 20
281.954094
 11
43.743036
 21
281.954094
  0
DIMENSION
  8
3
 62
7
  6
CONTINUOUS
  2
*D1
 10
247.184053
 20
300.954094
 11
247.184053
 21
233.625711
 70
     0
  1
128.5
 13
192.434053
 23
300.954094
 14
213.434053
 24
172.484617
 50
-90.000000
  0
DIMENSION
  8
3
 62
7
  6
CONTINUOUS
  2
*D2
 10
235.823920
 20
293.789910
 11
235.823920
 21
238.137184
 70
     0
  1
118
 13
225.684053
 23
293.789910
 14
225.684053
 24
175.954094
 50
-90.000000
  0
DIMENSION
  8
3
 62
7
  6
CONTINUOUS
  2
*D3
 10
247.184053
 20
300.954094
 11
244.791299
 21
305.934702
 70
     0
  1
10.5
 13
192.434053
 23
300.954094
 14
192.434053
 24
311.454094
 50
90.000000
  0
DIMENSION
  8
3
 62
7
  6
CONTINUOUS
  2
*D4
 10
257.587453
 20
166.484617
 11
257.587453
 21
231.375711
 70
     0
  1
145
 13
192.434053
 23
166.484617
 14
192.434053
 24
311.454094
 50
90.000000
  0
DIMENSION
  8
3
 62
7
  6
CONTINUOUS
  2
*D5
 10
241.148142
 20
56.193483
 11
241.148142
 21
71.093483
 70
     0
  1
28.6
 13
222.561941
 23
56.193483
 14
225.684053
 24
85.993483
 50
90.000000
  0
DIMENSION
  8
3
 62
7
  6
CONTINUOUS
  2
*D6
 10
170.934053
 20
151.484617
 11
192.018466
 21
151.484617
 70
     0
  1
42
 13
170.934053
 23
171.984617
 14
212.934053
 24
171.984617
 50
0.000000
  0
DIMENSION
  8
3
 62
7
  6
CONTINUOUS
  2
*D7
 10
191.934053
 20
134.415154
 11
175.534053
 21
134.415154
 70
     0
  1
39.2
 13
191.934053
 23
102.790955
 14
154.734053
 24
74.668564
 50
180.000000
  0
DIMENSION
  8
3
 62
7
  6
CONTINUOUS
  2
*D8
 10
130.902292
 20
248.254094
 11
130.902292
 21
218.754094
 70
     0
  1
60
 13
147.234053
 23
248.254094
 14
147.234053
 24
189.254094
 50
-90.000000
  0
DIMENSION
  8
2
 62
7
  6
CONTINUOUS
  2
*D9
 10
183.647386
 20
93.453552
 11
190.298024
 21
87.495356
 70
     0
  1
 
 13
183.647386
 23
93.453552
 14
200.256685
 24
78.573558
 50
-41.856631
  0
DIMENSION
  8
3
 62
7
  6
CONTINUOUS
  2
*D10
 10
225.184053
 20
139.415154
 11
198.132675
 21
139.415154
 70
     0
  1
78.7
 13
225.184053
 23
105.493106
 14
147.734053
 24
72.717293
 50
180.000000
  0
DIMENSION
  8
3
 62
7
  6
CONTINUOUS
  2
*D11
 10
160.734053
 20
50.369301
 11
191.934053
 21
50.369301
 70
     0
  1
62.4
 13
160.734053
 23
63.493483
 14
223.134053
 24
63.493483
 50
0.000000
  0
DIMENSION
  8
3
 62
7
  6
CONTINUOUS
  2
*D12
 10
225.184053
 20
129.415154
 11
170.922902
 21
129.415154
 70
     0
  1
65.4
 13
225.184053
 23
91.447373
 14
158.684053
 24
93.043823
 50
180.000000
  0
DIMENSION
  8
3
 62
7
  6
CONTINUOUS
  2
*D13
 10
191.934053
 20
134.415154
 11
210.309053
 21
134.415154
 70
     0
  1
32.7
 13
191.934053
 23
88.251836
 14
225.184053
 24
94.073238
 50
0.000000
  0
DIMENSION
  8
3
 62
7
  6
CONTINUOUS
  2
*D14
 10
135.950534
 20
72.217293
 11
135.950534
 21
64.707162
 70
     0
  1
16.1
 13
151.234053
 23
72.217293
 14
161.561941
 24
56.193483
 50
-90.000000
  0
DIMENSION
  8
3
 62
7
  6
CONTINUOUS
  2
*D15
 10
35.839835
 20
150.954094
 11
70.358963
 21
150.954094
 70
     0
  1
63.6
 13
35.839835
 23
165.954094
 14
99.439835
 24
175.454094
 50
0.000000
  0
LINE
  8
2
 62
7
  6
CONTINUOUS
 10
218.472953
 20
78.700599
 11
229.960994
 21
89.226801
  0
LINE
  8
2
 62
7
  6
CONTINUOUS
 10
229.960994
 20
89.226801
 11
254.548644
 21
89.226801
  0
TEXT
  8
2
 62
7
  6
CONTINUOUS
 10
230.548644
 20
89.141130
 40
4.000000
 41
1.000000
  1
外部接地端子
  7
KANJI
 50
0.000000
 51
0.000000
  0
LINE
  8
2
 62
7
  6
CONTINUOUS
 10
218.472953
 20
78.700599
 11
220.084930
 21
81.230724
  0
LINE
  8
2
 62
7
  6
CONTINUOUS
 10
218.472953
 20
78.700599
 11
221.134028
 21
80.085763
  0
LINE
  8
2
 62
7
  6
CONTINUOUS
 10
193.442666
 20
302.414945
 11
209.434053
 21
313.756471
  0
LINE
  8
2
 62
7
  6
CONTINUOUS
 10
209.434053
 20
313.756471
 11
241.720227
 21
313.756471
  0
TEXT
  8
2
 62
7
  6
CONTINUOUS
 10
209.720227
 20
314.192063
 40
4.000000
 41
1.000000
  1
φ4.2穴(取付用）
  7
KANJI
 50
0.000000
 51
0.000000
  0
LINE
  8
2
 62
7
  6
CONTINUOUS
 10
193.442666
 20
302.414945
 11
195.357144
 21
304.724658
  0
LINE
  8
2
 62
7
  6
CONTINUOUS
 10
193.442666
 20
302.414945
 11
196.255509
 21
303.457976
  0
LINE
  8
2
 62
7
  6
CONTINUOUS
 10
171.373925
 20
269.576464
 11
130.902292
 21
301.777677
  0
LINE
  8
2
 62
7
  6
CONTINUOUS
 10
130.902292
 20
301.777677
 11
171.279349
 21
301.777677
  0
TEXT
  8
2
 62
7
  6
CONTINUOUS
 10
131.279349
 20
301.777677
 40
4.000000
 41
1.000000
  1
東京消防庁合格ラベル
  7
KANJI
 50
0.000000
 51
0.000000
  0
LINE
  8
2
 62
7
  6
CONTINUOUS
 10
171.373925
 20
269.576464
 11
168.622901
 21
270.773070
  0
LINE
  8
2
 62
7
  6
CONTINUOUS
 10
171.373925
 20
269.576464
 11
169.589771
 21
271.988267
  0
TEXT
  8
1
 62
7
  6
CONTINUOUS
 10
200.934053
 20
236.789910
 40
4.000000
 41
1.000000
  1
ゆっくり
  7
KANJI
 50
0.000000
 51
0.000000
  0
TEXT
  8
1
 62
7
  6
CONTINUOUS
 10
200.934053
 20
232.789910
 40
4.000000
 41
1.000000
  1
リセット
  7
KANJI
 50
0.000000
 51
0.000000
  0
TEXT
  8
1
 62
7
  6
CONTINUOUS
 10
178.292286
 20
266.204624
 40
3.000000
 41
1.000000
  1
証
  7
KANJI
 50
0.000000
 51
0.000000
  0
TEXT
  8
1
 62
7
  6
CONTINUOUS
 10
176.066297
 20
268.186621
 40
3.000000
 41
1.000000
  1
感
  7
KANJI
 50
62.956709
 51
0.000000
  0
TEXT
  8
1
 62
7
  6
CONTINUOUS
 10
177.344588
 20
270.722719
 40
3.000000
 41
1.000000
  1
震
  7
KANJI
 50
19.420491
 51
0.000000
  0
TEXT
  8
1
 62
7
  6
CONTINUOUS
 10
179.570576
 20
272.089168
 40
3.000000
 41
1.000000
  1
装
  7
KANJI
 50
-39.494522
 51
0.000000
  0
TEXT
  8
1
 62
7
  6
CONTINUOUS
 10
182.149196
 20
270.546403
 40
3.000000
 41
1.000000
  1
置
  7
KANJI
 50
-65.642878
 51
0.000000
  0
TEXT
  8
1
 62
7
  6
CONTINUOUS
 10
172.892611
 20
267.262519
 40
3.000000
 41
1.000000
  1
東
  7
KANJI
 50
-70.497551
 51
0.000000
  0
TEXT
  8
1
 62
7
  6
CONTINUOUS
 10
174.768896
 20
262.812511
 40
3.000000
 41
1.000000
  1
京
  7
KANJI
 50
-29.228052
 51
0.000000
  0
TEXT
  8
1
 62
7
  6
CONTINUOUS
 10
178.153265
 20
260.960864
 40
3.000000
 41
1.000000
  1
消
  7
KANJI
 50
0.000000
 51
0.000000
  0
TEXT
  8
1
 62
7
  6
CONTINUOUS
 10
181.928801
 20
261.951002
 40
3.000000
 41
1.000000
  1
防
  7
KANJI
 50
24.015102
 51
0.000000
  0
TEXT
  8
1
 62
7
  6
CONTINUOUS
 10
184.727817
 20
264.221070
 40
3.000000
 41
1.000000
  1
庁
  7
KANJI
 50
51.981057
 51
0.000000
  0
TEXT
  8
1
 62
7
  6
CONTINUOUS
 10
182.307653
 20
221.098310
 40
4.000000
 41
0.550000
  1
MAGMASTAT
  7
KANJI
 50
0.000000
 51
0.000000
  0
LINE
  8
2
 62
7
  6
CONTINUOUS
 10
183.452022
 20
93.660689
 11
174.394282
 21
102.041550
  0
LINE
  8
2
 62
7
  6
CONTINUOUS
 10
174.394282
 20
102.041550
 11
206.544938
 21
102.041550
  0
TEXT
  8
2
 62
7
  6
CONTINUOUS
 10
174.544938
 20
102.041550
 40
4.000000
 41
1.000000
  1
φ22.3電線引出口
  7
KANJI
 50
0.000000
 51
0.000000
  0
LINE
  8
2
 62
7
  6
CONTINUOUS
 10
217.478168
 20
171.036728
 11
228.763890
 21
152.475170
  0
LINE
  8
2
 62
7
  6
CONTINUOUS
 10
228.763890
 20
152.475170
 11
257.957150
 21
152.475170
  0
TEXT
  8
2
 62
7
  6
CONTINUOUS
 10
229.957150
 20
152.475170
 40
4.000000
 41
1.000000
  1
R2.2（取付用）
  7
KANJI
 50
0.000000
 51
0.000000
  0
LINE
  8
2
 62
7
  6
CONTINUOUS
 10
217.478168
 20
171.036728
 11
219.647080
 21
168.964091
  0
LINE
  8
2
 62
7
  6
CONTINUOUS
 10
217.478168
 20
171.036728
 11
218.320182
 21
168.157316
  0
LINE
  8
3
 62
7
  6
CONTINUOUS
 10
147.061941
 20
174.684617
 11
146.285484
 21
177.582394
  0
LINE
  8
3
 62
7
  6
CONTINUOUS
 10
147.061941
 20
174.684617
 11
147.838398
 21
177.582394
  0
LINE
  8
3
 62
7
  6
CONTINUOUS
 10
147.061941
 20
170.284617
 11
147.838398
 21
167.386839
  0
LINE
  8
3
 62
7
  6
CONTINUOUS
 10
147.061941
 20
170.284617
 11
146.285484
 21
167.386839
  0
LINE
  8
3
 62
7
  6
CONTINUOUS
 10
146.561941
 20
174.684617
 11
170.434053
 21
174.684617
  0
LINE
  8
3
 62
7
  6
CONTINUOUS
 10
146.561941
 20
170.284617
 11
170.434053
 21
170.284617
  0
LINE
  8
3
 62
7
  6
CONTINUOUS
 10
167.934053
 20
156.484617
 11
165.036276
 21
155.708160
  0
LINE
  8
3
 62
7
  6
CONTINUOUS
 10
167.934053
 20
156.484617
 11
165.036276
 21
157.261074
  0
LINE
  8
3
 62
7
  6
CONTINUOUS
 10
173.934053
 20
156.484617
 11
176.831830
 21
157.261074
  0
LINE
  8
3
 62
7
  6
CONTINUOUS
 10
173.934053
 20
156.484617
 11
176.831830
 21
155.708160
  0
LINE
  8
3
 62
7
  6
CONTINUOUS
 10
167.934053
 20
155.984617
 11
167.934053
 21
174.181750
  0
LINE
  8
3
 62
7
  6
CONTINUOUS
 10
173.934053
 20
155.984617
 11
173.934053
 21
174.181750
  0
TEXT
  8
3
 62
7
  6
CONTINUOUS
 10
147.061941
 20
160.126522
 40
4.000000
 41
0.500000
  1
4.4
  7
KANJI
 50
90.000000
 51
0.000000
  0
TEXT
  8
3
 62
7
  6
CONTINUOUS
 10
178.092955
 20
156.484617
 40
4.000000
 41
0.500000
  1
6
  7
KANJI
 50
0.000000
 51
0.000000
  0
TEXT
  8
2
 62
7
  6
CONTINUOUS
 10
126.084281
 20
10.976689
 40
12.000000
 41
0.500000
  1
CJS-C117T
  7
KANJI
 50
0.000000
 51
0.000000
  0
TEXT
  8
2
 62
7
  6
CONTINUOUS
 10
91.168009
 20
10.976689
 40
12.000000
 41
0.500000
  1
1:2
  7
KANJI
 50
0.000000
 51
0.000000
  0
LINE
  8
3
 62
7
  6
CONTINUOUS
 10
147.061941
 20
178.655877
 11
147.061941
 21
159.203989
  0
LINE
  8
3
 62
7
  6
CONTINUOUS
 10
130.902292
 20
189.254094
 11
130.125835
 21
192.151871
  0
LINE
  8
3
 62
7
  6
CONTINUOUS
 10
130.902292
 20
189.254094
 11
131.678749
 21
192.151871
  0
LINE
  8
3
 62
7
  6
CONTINUOUS
 10
130.902292
 20
175.789910
 11
131.678749
 21
172.892132
  0
LINE
  8
3
 62
7
  6
CONTINUOUS
 10
130.902292
 20
175.789910
 11
130.125835
 21
172.892132
  0
LINE
  8
3
 62
7
  6
CONTINUOUS
 10
130.402292
 20
189.254094
 11
147.234053
 21
189.254094
  0
LINE
  8
3
 62
7
  6
CONTINUOUS
 10
130.402292
 20
175.789910
 11
164.595903
 21
175.789910
  0
LINE
  8
3
 62
7
  6
CONTINUOUS
 10
130.902292
 20
192.254094
 11
130.902292
 21
171.244094
  0
LINE
  8
3
 62
7
  6
CONTINUOUS
 10
163.880496
 20
156.484617
 11
181.229660
 21
156.484617
  0
LINE
  8
3
 62
7
  6
CONTINUOUS
 10
247.184053
 20
172.484617
 11
246.407596
 21
175.382394
  0
LINE
  8
3
 62
7
  6
CONTINUOUS
 10
247.184053
 20
172.484617
 11
247.960510
 21
175.382394
  0
LINE
  8
3
 62
7
  6
CONTINUOUS
 10
247.184053
 20
166.484617
 11
247.960510
 21
163.586839
  0
LINE
  8
3
 62
7
  6
CONTINUOUS
 10
247.184053
 20
166.484617
 11
246.407596
 21
163.586839
  0
LINE
  8
3
 62
7
  6
CONTINUOUS
 10
247.684053
 20
172.484617
 11
213.434053
 21
172.484617
  0
LINE
  8
3
 62
7
  6
CONTINUOUS
 10
247.684053
 20
166.484617
 11
213.434053
 21
166.484617
  0
LINE
  8
3
 62
7
  6
CONTINUOUS
 10
247.184053
 20
175.484617
 11
247.184053
 21
162.082925
  0
TEXT
  8
3
 62
7
  6
CONTINUOUS
 10
247.086852
 20
168.594223
 40
4.000000
 41
0.500000
  1
6
  7
KANJI
 50
90.000000
 51
0.000000
  0
TEXT
  8
3
 62
7
  6
CONTINUOUS
 10
130.902292
 20
178.522002
 40
4.000000
 41
0.500000
  1
11.3
  7
KANJI
 50
90.000000
 51
0.000000
  0
ENDSEC
  0
EOF
