  0
SECTION
  2
HEADER
  9
$ACADVER
  1
AC1003
  9
$INSBASE
 10
0.000000
 20
0.000000
  9
$EXTMIN
 10
0.000000
 20
0.000000
  9
$EXTMAX
 10
514.000000
 20
364.000000
  9
$LIMMIN
 10
0.000000
 20
0.000000
  9
$LIMMAX
 10
514.000000
 20
364.000000
  9
$VIEWCTR
 10
257.000000
 20
182.000000
  9
$VIEWSIZE
 40
364.000000
  9
$PEXTMIN
 10
0.000000
 20
0.000000
 30
0.000000
  9
$PEXTMAX
 10
257.000000
 20
182.000000
 30
0.000000
  9
$SNAPMODE
 70
     0
  9
$SNAPUNIT
 10
1.000000
 20
1.000000
  9
$SNAPBASE
 10
0.000000
 20
0.000000
  9
$SNAPANG
 50
0.000000
  9
$SNAPISOPAIR
 70
     0
  9
$SNAPSTYLE
 70
     0
  9
$GRIDMODE
 70
     0
  9
$GRIDUNIT
 10
0.000000
 20
0.000000
  9
$ORTHOMODE
 70
     0
  9
$REGENMODE
 70
     1
  9
$FILLMODE
 70
     1
  9
$QTEXTMODE
 70
     0
  9
$DRAGMODE
 70
     2
  9
$LTSCALE
 40
0.500000
  9
$OSMODE
 70
     0
  9
$ATTMODE
 70
     1
  9
$TEXTSIZE
 40
10.000000
  9
$TRACEWID
 40
0.050000
  9
$TEXTSTYLE
  7
STANDARD
  9
$CLAYER
  8
0
  9
$CELTYPE
  6
BYLAYER
  9
$CECOLOR
 62
   256
  9
$DIMSCALE
 40
1.000000
  9
$DIMASZ
 40
1.000000
  9
$DIMEXO
 40
0.000000
  9
$DIMDLI
 40
0.500000
  9
$DIMRND
 40
0.000000
  9
$DIMDLE
 40
0.000000
  9
$DIMEXE
 40
0.000000
  9
$DIMTP
 40
0.000000
  9
$DIMTM
 40
0.000000
  9
$DIMTXT
 40
4.000000
  9
$DIMCEN
 40
0.000000
  9
$DIMTSZ
 40
0.000000
  9
$DIMTOL
 70
     0
  9
$DIMLIM
 70
     0
  9
$DIMTIH
 70
     1
  9
$DIMTOH
 70
     1
  9
$DIMSE1
 70
     0
  9
$DIMSE2
 70
     0
  9
$DIMTAD
 70
     0
  9
$DIMZIN
 70
     0
  9
$DIMBLK
  1

  9
$DIMASO
 70
     0
  9
$DIMSHO
 70
     0
  9
$DIMPOST
  1

  9
$DIMAPOST
  1

  9
$DIMALT
 70
     0
  9
$DIMALTD
 70
     0
  9
$DIMALTF
 40
25.400000
  9
$DIMLFAC
 40
1.000000
  9
$DIMTOFL
 70
     0
  9
$DIMTVP
 40
0.000000
  9
$DIMTIX
 70
     0
  9
$DIMSOXD
 70
     0
  9
$DIMSAH
 70
     0
  9
$DIMBLKL
  1

  9
$DIMBLKR
  1

  9
$LUNITS
 70
     2
  9
$LUPREC
 70
     2
  9
$AXISMODE
 70
     0
  9
$AXISUNIT
 10
1.000000
 20
1.000000
  9
$SKETCHINC
 40
0.000000
  9
$FILLETRAD
 40
0.000000
  9
$AUNITS
 70
     1
  9
$AUPREC
 70
     2
  9
$MENU
  1
ACAD
  9
$ELEVATION
 40
0.000000
  9
$THICKNESS
 40
0.000000
  9
$VIEWDIR
 10
0.000000
 20
0.000000
 30
1.000000
  9
$LIMCHECK
 70
     1
  9
$BLIPMODE
 70
     1
  9
$CHAMFERA
 40
0.000000
  9
$CHAMFERB
 40
0.000000
  9
$FASTZOOM
 70
     1
  9
$SKPOLY
 70
     0
  9
$TDCREATE
 40
0.000000
  9
$TDUPDATE
 40
0.000000
  9
$TDINDWG
 40
0.000000
  9
$TDUSRTIMER
 40
0.000000
  9
$USRTIMER
 70
     1
  9
$ANGBASE
 50
0.000000
  9
$ANGDIR
 70
     0
  9
$PDMODE
 70
     0
  9
$PDSIZE
 40
0.000000
  9
$PLINEWID
 40
0.000000
  9
$COORDS
 70
     2
  9
$USERI1
 70
     0
  9
$USERI2
 70
     0
  9
$USERI3
 70
     0
  9
$USERI4
 70
     0
  9
$USERI5
 70
     0
  9
$USERR1
 40
0.000000
  9
$USERR2
 40
0.000000
  9
$USERR3
 40
0.000000
  9
$USERR4
 40
0.000000
  9
$USERR5
 40
0.000000
  0
ENDSEC
  0
SECTION
  2
TABLES
  0
TABLE
  2
LTYPE
 70
     5
  0
LTYPE
  2
CONTINUOUS
 70
    64
  3
Solid line
 72
    65
 73
     0
 40
0.0
  0
LTYPE
  2
HIDDEN
 70
    64
  3
------------------------
 72
    65
 73
     2
 40
12.6
 49
8.4
 49
-4.2
  0
LTYPE
  2
DOT
 70
    64
  3
････････････････････････
 72
    65
 73
     2
 40
8.0
 49
6.0
 49
-2.0
  0
LTYPE
  2
DASHDOT
 70
    64
  3
--･--･--･--･--･--･--･--
 72
    65
 73
     4
 40
50.5
 49
30.0
 49
-9.0
 49
2.5
 49
-9.0
  0
LTYPE
  2
DIVIDE
 70
    64
  3
--･･--･･--･･--･･--･･--
 72
    65
 73
     6
 40
58.0
 49
30.0
 49
-9.0
 49
2.5
 49
-5.0
 49
2.5
 49
-9.0
  0
LTYPE
  2
ACAD_ISO06W100
 70
    64
  3
____ ... ____ ... ____
 72
    65
 73
     8
 40
37.5
 49
24.0
 49
-3.0
 49
0.5
 49
-3.0
 49
0.5
 49
-3.0
 49
0.5
 49
-3.0
  0
LTYPE
  2
ACAD_ISO14W100
 70
    64
  3
__ . . . __ . . . __ . . . 
 72
    65
 73
     8
 40
25.5
 49
12.0
 49
-3.0
 49
0.5
 49
-3.0
 49
0.5
 49
-3.0
 49
0.5
 49
-3.0
  0
ENDTAB
  0
TABLE
  2
LAYER
 70
2
  0
LAYER
  2
1
 70
64
 62
7
  6
CONTINUOUS
  0
LAYER
  2
2
 70
64
 62
7
  6
CONTINUOUS
  0
ENDTAB
  0
TABLE
  2
STYLE
 70
     2
  0
STYLE
  2
STANDARD
 70
    64
 40
0.0
 41
1.0
 50
0.0
 71
     0
 42
0.2
  3
TXT
  4

  0
STYLE
  2
KANJI
 70
    64
 40
0.0
 41
1.0
 50
0.0
 71
     0
 42
0.2
  3
TXT
  4
BIGFONT
  0
ENDTAB
  0
TABLE
  2
VIEW
 70
     0
  0
ENDTAB
  0
ENDSEC
  0
SECTION
  2
BLOCKS
  0
BLOCK
  8
2
 62
7
  6
CONTINUOUS
  2
*D1
 70
    65
 10
0.0
 20
0.0
  0
LINE
  8
2
 62
7
  6
CONTINUOUS
 10
322.825956
 20
249.773379
 11
386.680870
 21
249.773379
  0
LINE
  8
2
 62
7
  6
CONTINUOUS
 10
322.825956
 20
251.763379
 11
322.825956
 21
200.538817
  0
LINE
  8
2
 62
7
  6
CONTINUOUS
 10
386.680870
 20
251.763379
 11
386.680870
 21
200.538817
  0
LINE
  8
2
 62
7
  6
CONTINUOUS
 10
322.825956
 20
249.773379
 11
325.723734
 21
250.549836
  0
LINE
  8
2
 62
7
  6
CONTINUOUS
 10
322.825956
 20
249.773379
 11
325.723734
 21
248.996921
  0
LINE
  8
2
 62
7
  6
CONTINUOUS
 10
386.680870
 20
249.773379
 11
383.783093
 21
248.996921
  0
LINE
  8
2
 62
7
  6
CONTINUOUS
 10
386.680870
 20
249.773379
 11
383.783093
 21
250.549836
  0
TEXT
  8
2
 62
7
  6
CONTINUOUS
 10
352.753413
 20
249.773379
 40
4.000000
 41
0.500000
  1
64
  7
KANJI
 50
0.000000
 51
0.000000
  0
ENDBLK
  0
BLOCK
  8
2
 62
7
  6
CONTINUOUS
  2
*D2
 70
    65
 10
0.0
 20
0.0
  0
LINE
  8
2
 62
7
  6
CONTINUOUS
 10
267.126965
 20
47.466685
 11
267.126965
 21
235.848631
  0
LINE
  8
2
 62
7
  6
CONTINUOUS
 10
265.136965
 20
47.466685
 11
353.759413
 21
47.466685
  0
LINE
  8
2
 62
7
  6
CONTINUOUS
 10
265.136965
 20
235.848631
 11
329.565159
 21
235.848631
  0
LINE
  8
2
 62
7
  6
CONTINUOUS
 10
267.126965
 20
47.466685
 11
266.350508
 21
50.364463
  0
LINE
  8
2
 62
7
  6
CONTINUOUS
 10
267.126965
 20
47.466685
 11
267.903422
 21
50.364463
  0
LINE
  8
2
 62
7
  6
CONTINUOUS
 10
267.126965
 20
235.848631
 11
267.903422
 21
232.950854
  0
LINE
  8
2
 62
7
  6
CONTINUOUS
 10
267.126965
 20
235.848631
 11
266.350508
 21
232.950854
  0
TEXT
  8
2
 62
7
  6
CONTINUOUS
 10
267.126965
 20
136.657658
 40
4.000000
 41
0.500000
  1
(189)
  7
KANJI
 50
90.000000
 51
0.000000
  0
ENDBLK
  0
BLOCK
  8
2
 62
7
  6
CONTINUOUS
  2
*D3
 70
    65
 10
0.0
 20
0.0
  0
LINE
  8
2
 62
7
  6
CONTINUOUS
 10
281.051712
 20
47.466685
 11
281.051712
 21
135.988295
  0
LINE
  8
2
 62
7
  6
CONTINUOUS
 10
279.061712
 20
135.988295
 11
346.772174
 21
135.988295
  0
LINE
  8
2
 62
7
  6
CONTINUOUS
 10
281.051712
 20
47.466685
 11
280.275255
 21
50.364463
  0
LINE
  8
2
 62
7
  6
CONTINUOUS
 10
281.051712
 20
47.466685
 11
281.828169
 21
50.364463
  0
LINE
  8
2
 62
7
  6
CONTINUOUS
 10
281.051712
 20
135.988295
 11
281.828169
 21
133.090517
  0
LINE
  8
2
 62
7
  6
CONTINUOUS
 10
281.051712
 20
135.988295
 11
280.275255
 21
133.090517
  0
TEXT
  8
2
 62
7
  6
CONTINUOUS
 10
281.051712
 20
89.727490
 40
4.000000
 41
0.500000
  1
89
  7
KANJI
 50
90.000000
 51
0.000000
  0
ENDBLK
  0
BLOCK
  8
2
 62
7
  6
CONTINUOUS
  2
*D4
 70
    65
 10
0.0
 20
0.0
  0
LINE
  8
2
 62
7
  6
CONTINUOUS
 10
294.976459
 20
77.305429
 11
294.976459
 21
135.988295
  0
LINE
  8
2
 62
7
  6
CONTINUOUS
 10
292.986459
 20
77.305429
 11
353.759413
 21
77.305429
  0
LINE
  8
2
 62
7
  6
CONTINUOUS
 10
294.976459
 20
77.305429
 11
294.200002
 21
80.203206
  0
LINE
  8
2
 62
7
  6
CONTINUOUS
 10
294.976459
 20
77.305429
 11
295.752916
 21
80.203206
  0
LINE
  8
2
 62
7
  6
CONTINUOUS
 10
294.976459
 20
135.988295
 11
295.752916
 21
133.090517
  0
LINE
  8
2
 62
7
  6
CONTINUOUS
 10
294.976459
 20
135.988295
 11
294.200002
 21
133.090517
  0
TEXT
  8
2
 62
7
  6
CONTINUOUS
 10
294.976459
 20
104.646862
 40
4.000000
 41
0.500000
  1
59
  7
KANJI
 50
90.000000
 51
0.000000
  0
ENDBLK
  0
BLOCK
  8
2
 62
7
  6
CONTINUOUS
  2
*D5
 70
    65
 10
0.0
 20
0.0
  0
LINE
  8
2
 62
7
  6
CONTINUOUS
 10
308.901209
 20
138.474860
 11
308.901209
 21
150.410357
  0
LINE
  8
2
 62
7
  6
CONTINUOUS
 10
306.911209
 20
150.410357
 11
337.918250
 21
150.410357
  0
LINE
  8
2
 62
7
  6
CONTINUOUS
 10
308.901209
 20
138.474860
 11
308.124752
 21
141.372637
  0
LINE
  8
2
 62
7
  6
CONTINUOUS
 10
308.901209
 20
138.474860
 11
309.677666
 21
141.372637
  0
LINE
  8
2
 62
7
  6
CONTINUOUS
 10
308.901209
 20
150.410357
 11
309.677666
 21
147.512580
  0
LINE
  8
2
 62
7
  6
CONTINUOUS
 10
308.901209
 20
150.410357
 11
308.124752
 21
147.512580
  0
TEXT
  8
2
 62
7
  6
CONTINUOUS
 10
308.901209
 20
143.442608
 40
4.000000
 41
0.500000
  1
L
  7
KANJI
 50
90.000000
 51
0.000000
  0
ENDBLK
  0
BLOCK
  8
2
 62
7
  6
CONTINUOUS
  2
*D6
 70
    65
 10
0.0
 20
0.0
  0
LINE
  8
2
 62
7
  6
CONTINUOUS
 10
340.828666
 20
27.574189
 11
368.678163
 21
27.574189
  0
LINE
  8
2
 62
7
  6
CONTINUOUS
 10
340.828666
 20
25.584189
 11
340.828666
 21
49.921048
  0
LINE
  8
2
 62
7
  6
CONTINUOUS
 10
368.678163
 20
25.584189
 11
368.678163
 21
49.921048
  0
LINE
  8
2
 62
7
  6
CONTINUOUS
 10
340.828666
 20
27.574189
 11
343.726444
 21
28.350647
  0
LINE
  8
2
 62
7
  6
CONTINUOUS
 10
340.828666
 20
27.574189
 11
343.726444
 21
26.797732
  0
LINE
  8
2
 62
7
  6
CONTINUOUS
 10
368.678163
 20
27.574189
 11
365.780386
 21
26.797732
  0
LINE
  8
2
 62
7
  6
CONTINUOUS
 10
368.678163
 20
27.574189
 11
365.780386
 21
28.350647
  0
TEXT
  8
2
 62
7
  6
CONTINUOUS
 10
352.753415
 20
27.574189
 40
4.000000
 41
0.500000
  1
28
  7
KANJI
 50
0.000000
 51
0.000000
  0
ENDBLK
  0
BLOCK
  8
2
 62
7
  6
CONTINUOUS
  2
*D7
 70
    65
 10
0.0
 20
0.0
  0
LINE
  8
2
 62
7
  6
CONTINUOUS
 10
281.051712
 20
138.474860
 11
281.051712
 21
235.848631
  0
LINE
  8
2
 62
7
  6
CONTINUOUS
 10
279.061712
 20
138.474860
 11
339.786613
 21
138.474860
  0
LINE
  8
2
 62
7
  6
CONTINUOUS
 10
281.051712
 20
138.474860
 11
280.275255
 21
141.372637
  0
LINE
  8
2
 62
7
  6
CONTINUOUS
 10
281.051712
 20
138.474860
 11
281.828169
 21
141.372637
  0
LINE
  8
2
 62
7
  6
CONTINUOUS
 10
281.051712
 20
235.848631
 11
281.828169
 21
232.950854
  0
LINE
  8
2
 62
7
  6
CONTINUOUS
 10
281.051712
 20
235.848631
 11
280.275255
 21
232.950854
  0
TEXT
  8
2
 62
7
  6
CONTINUOUS
 10
281.051712
 20
183.161746
 40
4.000000
 41
0.500000
  1
98.5
  7
KANJI
 50
90.000000
 51
0.000000
  0
ENDBLK
  0
BLOCK
  8
2
 62
7
  6
CONTINUOUS
  2
*D8
 70
    65
 10
0.0
 20
0.0
  0
LINE
  8
2
 62
7
  6
CONTINUOUS
 10
140.382296
 20
249.773379
 11
169.474015
 21
249.773379
  0
LINE
  8
2
 62
7
  6
CONTINUOUS
 10
140.382296
 20
251.763379
 11
140.382296
 21
200.538824
  0
LINE
  8
2
 62
7
  6
CONTINUOUS
 10
169.474015
 20
251.763379
 11
169.474015
 21
240.080140
  0
LINE
  8
2
 62
7
  6
CONTINUOUS
 10
140.382296
 20
249.773379
 11
143.280074
 21
250.549836
  0
LINE
  8
2
 62
7
  6
CONTINUOUS
 10
140.382296
 20
249.773379
 11
143.280074
 21
248.996921
  0
LINE
  8
2
 62
7
  6
CONTINUOUS
 10
169.474015
 20
249.773379
 11
166.576237
 21
248.996921
  0
LINE
  8
2
 62
7
  6
CONTINUOUS
 10
169.474015
 20
249.773379
 11
166.576237
 21
250.549836
  0
TEXT
  8
2
 62
7
  6
CONTINUOUS
 10
152.928156
 20
249.773379
 40
4.000000
 41
0.500000
  1
29
  7
KANJI
 50
0.000000
 51
0.000000
  0
ENDBLK
  0
BLOCK
  8
2
 62
7
  6
CONTINUOUS
  2
*D9
 70
    65
 10
0.0
 20
0.0
  0
LINE
  8
2
 62
7
  6
CONTINUOUS
 10
169.474015
 20
249.773379
 11
219.473965
 21
249.773379
  0
LINE
  8
2
 62
7
  6
CONTINUOUS
 10
219.473965
 20
251.763379
 11
219.473965
 21
219.387079
  0
LINE
  8
2
 62
7
  6
CONTINUOUS
 10
169.474015
 20
249.773379
 11
172.371792
 21
250.549836
  0
LINE
  8
2
 62
7
  6
CONTINUOUS
 10
169.474015
 20
249.773379
 11
172.371792
 21
248.996921
  0
LINE
  8
2
 62
7
  6
CONTINUOUS
 10
219.473965
 20
249.773379
 11
216.576188
 21
248.996921
  0
LINE
  8
2
 62
7
  6
CONTINUOUS
 10
219.473965
 20
249.773379
 11
216.576188
 21
250.549836
  0
TEXT
  8
2
 62
7
  6
CONTINUOUS
 10
192.473990
 20
249.773379
 40
4.000000
 41
0.500000
  1
50
  7
KANJI
 50
0.000000
 51
0.000000
  0
ENDBLK
  0
BLOCK
  8
2
 62
7
  6
CONTINUOUS
  2
*D10
 70
    65
 10
0.0
 20
0.0
  0
LINE
  8
2
 62
7
  6
CONTINUOUS
 10
308.866900
 20
101.176427
 11
308.866900
 21
135.988295
  0
LINE
  8
2
 62
7
  6
CONTINUOUS
 10
306.876900
 20
101.176427
 11
353.766880
 21
101.176427
  0
LINE
  8
2
 62
7
  6
CONTINUOUS
 10
308.866900
 20
101.176427
 11
308.090443
 21
104.074204
  0
LINE
  8
2
 62
7
  6
CONTINUOUS
 10
308.866900
 20
101.176427
 11
309.643357
 21
104.074204
  0
LINE
  8
2
 62
7
  6
CONTINUOUS
 10
308.866900
 20
135.988295
 11
309.643357
 21
133.090517
  0
LINE
  8
2
 62
7
  6
CONTINUOUS
 10
308.866900
 20
135.988295
 11
308.090443
 21
133.090517
  0
TEXT
  8
2
 62
7
  6
CONTINUOUS
 10
308.866900
 20
116.582361
 40
4.000000
 41
0.500000
  1
35
  7
KANJI
 50
90.000000
 51
0.000000
  0
ENDBLK
  0
ENDSEC
  0
SECTION
  2
ENTITIES
  0
LINE
  8
1
 62
7
  6
CONTINUOUS
 10
81.925322
 20
79.633130
 11
81.925322
 21
13.633131
  0
LINE
  8
1
 62
7
  6
CONTINUOUS
 10
46.925322
 20
79.633130
 11
46.925322
 21
13.633131
  0
LINE
  8
1
 62
7
  6
CONTINUOUS
 10
46.925322
 20
79.633130
 11
108.477322
 21
79.633130
  0
LINE
  8
1
 62
7
  6
CONTINUOUS
 10
108.477322
 20
13.633129
 11
108.477322
 21
79.633130
  0
LINE
  8
1
 62
7
  6
CONTINUOUS
 10
96.925293
 20
79.633130
 11
96.925293
 21
13.633131
  0
LINE
  8
1
 62
7
  6
CONTINUOUS
 10
46.925435
 20
49.654931
 11
108.477435
 21
49.654931
  0
LINE
  8
1
 62
7
  6
CONTINUOUS
 10
46.925322
 20
13.633131
 11
108.477322
 21
13.633131
  0
LINE
  8
1
 62
7
  6
CONTINUOUS
 10
46.925378
 20
61.579731
 11
108.477378
 21
61.579731
  0
LINE
  8
2
 62
7
  6
CONTINUOUS
 10
46.925322
 20
67.747731
 11
108.477408
 21
67.747731
  0
LINE
  8
1
 62
7
  6
CONTINUOUS
 10
46.719806
 20
55.411731
 11
108.477408
 21
55.411731
  0
LINE
  8
1
 62
7
  6
CONTINUOUS
 10
46.925463
 20
43.692531
 11
108.477322
 21
43.692531
  0
LINE
  8
1
 62
7
  6
CONTINUOUS
 10
46.925491
 20
37.730131
 11
108.477322
 21
37.730131
  0
LINE
  8
1
 62
7
  6
CONTINUOUS
 10
46.925322
 20
31.562131
 11
108.477327
 21
31.562131
  0
LINE
  8
1
 62
7
  6
CONTINUOUS
 10
46.925322
 20
25.599731
 11
108.477327
 21
25.599731
  0
LINE
  8
1
 62
7
  6
CONTINUOUS
 10
46.925575
 20
19.226131
 11
108.477322
 21
19.226131
  0
TEXT
  8
2
 62
7
  6
CONTINUOUS
 10
85.072423
 20
71.508332
 40
4.000000
 41
1.000000
  1
配管
  7
KANJI
 50
0.000000
 51
0.000000
  0
TEXT
  8
2
 62
7
  6
CONTINUOUS
 10
100.848121
 20
62.633131
 40
4.000000
 41
0.500000
  1
1B
  7
KANJI
 50
0.000000
 51
0.000000
  0
TEXT
  8
2
 62
7
  6
CONTINUOUS
 10
100.848121
 20
56.633131
 40
4.000000
 41
0.500000
  1
1B
  7
KANJI
 50
0.000000
 51
0.000000
  0
TEXT
  8
2
 62
7
  6
CONTINUOUS
 10
100.848121
 20
50.633130
 40
4.000000
 41
0.500000
  1
1B
  7
KANJI
 50
0.000000
 51
0.000000
  0
TEXT
  8
2
 62
7
  6
CONTINUOUS
 10
100.848121
 20
44.633131
 40
4.000000
 41
0.500000
  1
2B
  7
KANJI
 50
0.000000
 51
0.000000
  0
TEXT
  8
2
 62
7
  6
CONTINUOUS
 10
100.848121
 20
38.633131
 40
4.000000
 41
0.500000
  1
2B
  7
KANJI
 50
0.000000
 51
0.000000
  0
TEXT
  8
2
 62
7
  6
CONTINUOUS
 10
100.848121
 20
32.633131
 40
4.000000
 41
0.500000
  1
3B
  7
KANJI
 50
0.000000
 51
0.000000
  0
TEXT
  8
2
 62
7
  6
CONTINUOUS
 10
100.848121
 20
26.633132
 40
4.000000
 41
0.500000
  1
3B
  7
KANJI
 50
0.000000
 51
0.000000
  0
TEXT
  8
2
 62
7
  6
CONTINUOUS
 10
100.848121
 20
20.633130
 40
4.000000
 41
0.500000
  1
3B
  7
KANJI
 50
0.000000
 51
0.000000
  0
TEXT
  8
2
 62
7
  6
CONTINUOUS
 10
100.848121
 20
14.633131
 40
4.000000
 41
0.500000
  1
3B
  7
KANJI
 50
0.000000
 51
0.000000
  0
TEXT
  8
2
 62
7
  6
CONTINUOUS
 10
98.073023
 20
71.508332
 40
4.000000
 41
0.750000
  1
パドル
  7
KANJI
 50
0.000000
 51
0.000000
  0
TEXT
  8
2
 62
7
  6
CONTINUOUS
 10
48.925322
 20
62.633131
 40
4.000000
 41
0.500000
  1
 FQS-010G
  7
KANJI
 50
0.000000
 51
0.000000
  0
TEXT
  8
2
 62
7
  6
CONTINUOUS
 10
48.925322
 20
56.633131
 40
4.000000
 41
0.500000
  1
 FQS-012G
  7
KANJI
 50
0.000000
 51
0.000000
  0
TEXT
  8
2
 62
7
  6
CONTINUOUS
 10
48.925322
 20
50.633130
 40
4.000000
 41
0.500000
  1
 FQS-014G
  7
KANJI
 50
0.000000
 51
0.000000
  0
TEXT
  8
2
 62
7
  6
CONTINUOUS
 10
48.925322
 20
44.633131
 40
4.000000
 41
0.500000
  1
 FQS-020G
  7
KANJI
 50
0.000000
 51
0.000000
  0
TEXT
  8
2
 62
7
  6
CONTINUOUS
 10
48.925322
 20
38.633131
 40
4.000000
 41
0.500000
  1
 FQS-024G
  7
KANJI
 50
0.000000
 51
0.000000
  0
TEXT
  8
2
 62
7
  6
CONTINUOUS
 10
48.925322
 20
32.633131
 40
4.000000
 41
0.500000
  1
 FQS-030G
  7
KANJI
 50
0.000000
 51
0.000000
  0
TEXT
  8
2
 62
7
  6
CONTINUOUS
 10
48.925322
 20
26.633132
 40
4.000000
 41
0.500000
  1
 FQS-040G
  7
KANJI
 50
0.000000
 51
0.000000
  0
TEXT
  8
2
 62
7
  6
CONTINUOUS
 10
48.925322
 20
20.633130
 40
4.000000
 41
0.500000
  1
 FQS-050G
  7
KANJI
 50
0.000000
 51
0.000000
  0
TEXT
  8
2
 62
7
  6
CONTINUOUS
 10
48.925322
 20
14.633131
 40
4.000000
 41
0.500000
  1
 FQS-060G
  7
KANJI
 50
0.000000
 51
0.000000
  0
TEXT
  8
2
 62
7
  6
CONTINUOUS
 10
52.473738
 20
71.633131
 40
4.000000
 41
1.000000
  1
カタログ番号
  7
KANJI
 50
0.000000
 51
0.000000
  0
TEXT
  8
2
 62
7
  6
CONTINUOUS
 10
85.354584
 20
62.633131
 40
4.000000
 41
0.500000
  1
 25A
  7
KANJI
 50
0.000000
 51
0.000000
  0
TEXT
  8
2
 62
7
  6
CONTINUOUS
 10
83.476580
 20
56.633131
 40
4.000000
 41
0.500000
  1
  32A
  7
KANJI
 50
0.000000
 51
0.000000
  0
TEXT
  8
2
 62
7
  6
CONTINUOUS
 10
83.476580
 20
50.633130
 40
4.000000
 41
0.500000
  1
  40A
  7
KANJI
 50
0.000000
 51
0.000000
  0
TEXT
  8
2
 62
7
  6
CONTINUOUS
 10
83.476580
 20
44.633131
 40
4.000000
 41
0.500000
  1
  50A
  7
KANJI
 50
0.000000
 51
0.000000
  0
TEXT
  8
2
 62
7
  6
CONTINUOUS
 10
83.476580
 20
38.633131
 40
4.000000
 41
0.500000
  1
  65A
  7
KANJI
 50
0.000000
 51
0.000000
  0
TEXT
  8
2
 62
7
  6
CONTINUOUS
 10
83.476580
 20
32.633131
 40
4.000000
 41
0.500000
  1
  80A
  7
KANJI
 50
0.000000
 51
0.000000
  0
TEXT
  8
2
 62
7
  6
CONTINUOUS
 10
83.476580
 20
26.633132
 40
4.000000
 41
0.500000
  1
 100A
  7
KANJI
 50
0.000000
 51
0.000000
  0
TEXT
  8
2
 62
7
  6
CONTINUOUS
 10
83.476580
 20
20.633130
 40
4.000000
 41
0.500000
  1
 125A
  7
KANJI
 50
0.000000
 51
0.000000
  0
TEXT
  8
2
 62
7
  6
CONTINUOUS
 10
83.476580
 20
14.633131
 40
4.000000
 41
0.500000
  1
 150A
  7
KANJI
 50
0.000000
 51
0.000000
  0
LINE
  8
1
 62
7
  6
CONTINUOUS
 10
124.194120
 20
67.870546
 11
149.059743
 21
67.870546
  0
LINE
  8
1
 62
7
  6
CONTINUOUS
 10
149.059743
 20
67.870546
 11
149.059743
 21
69.901026
  0
LINE
  8
1
 62
7
  6
CONTINUOUS
 10
149.059743
 20
69.901026
 11
156.022116
 21
65.881296
  0
LINE
  8
1
 62
7
  6
CONTINUOUS
 10
156.022116
 20
65.881296
 11
149.059743
 21
61.861570
  0
LINE
  8
1
 62
7
  6
CONTINUOUS
 10
149.059743
 20
61.861570
 11
149.059743
 21
63.892047
  0
LINE
  8
1
 62
7
  6
CONTINUOUS
 10
149.059743
 20
63.892047
 11
124.194120
 21
63.892047
  0
LINE
  8
1
 62
7
  6
CONTINUOUS
 10
124.194120
 20
63.892047
 11
124.194120
 21
67.870546
  0
ARC
  8
1
 62
7
  6
CONTINUOUS
 10
150.599194
 20
277.301238
 40
9.946248
 50
180.000000
 51
-90.000000
  0
ARC
  8
1
 62
7
  6
CONTINUOUS
 10
150.599194
 20
321.064735
 40
9.946248
 50
90.000000
 51
180.000000
  0
ARC
  8
1
 62
7
  6
CONTINUOUS
 10
150.804614
 20
321.064735
 40
7.459686
 50
90.000000
 51
180.000000
  0
ARC
  8
1
 62
7
  6
CONTINUOUS
 10
150.804614
 20
277.301238
 40
7.459686
 50
180.000000
 51
-90.000000
  0
LINE
  8
1
 62
7
  6
CONTINUOUS
 10
143.344928
 20
277.301238
 11
143.344928
 21
321.064735
  0
ARC
  8
1
 62
7
  6
CONTINUOUS
 10
151.157149
 20
320.506777
 40
5.729038
 50
104.310999
 51
164.349668
  0
ARC
  8
1
 62
7
  6
CONTINUOUS
 10
151.157149
 20
277.859193
 40
5.729038
 50
-162.980766
 51
-106.816081
  0
LINE
  8
1
 62
7
  6
CONTINUOUS
 10
145.428111
 20
278.906866
 11
145.428111
 21
319.796624
  0
LINE
  8
1
 62
7
  6
CONTINUOUS
 10
150.599194
 20
331.010980
 11
209.282063
 21
331.010980
  0
LINE
  8
1
 62
7
  6
CONTINUOUS
 10
209.282063
 20
267.354993
 11
150.599194
 21
267.354993
  0
LINE
  8
1
 62
7
  6
CONTINUOUS
 10
150.804614
 20
328.524421
 11
209.076643
 21
328.524421
  0
LINE
  8
1
 62
7
  6
CONTINUOUS
 10
209.076643
 20
269.841555
 11
150.804614
 21
269.841555
  0
LINE
  8
1
 62
7
  6
CONTINUOUS
 10
151.878967
 20
326.235818
 11
207.974444
 21
326.235818
  0
LINE
  8
1
 62
7
  6
CONTINUOUS
 10
207.970880
 20
272.130154
 11
152.110257
 21
272.130154
  0
LINE
  8
1
 62
7
  6
CONTINUOUS
 10
140.652946
 20
277.301238
 11
140.603699
 21
324.048609
  0
ARC
  8
1
 62
7
  6
CONTINUOUS
 10
209.282063
 20
321.064735
 40
9.946248
 50
0.000000
 51
90.000000
  0
ARC
  8
1
 62
7
  6
CONTINUOUS
 10
209.282063
 20
277.301238
 40
9.946248
 50
-90.000000
 51
0.000000
  0
ARC
  8
1
 62
7
  6
CONTINUOUS
 10
209.076643
 20
321.064735
 40
7.459686
 50
0.000000
 51
90.000000
  0
ARC
  8
1
 62
7
  6
CONTINUOUS
 10
209.076643
 20
277.301238
 40
7.459686
 50
-90.000000
 51
0.000000
  0
ARC
  8
1
 62
7
  6
CONTINUOUS
 10
208.724108
 20
320.506777
 40
5.729038
 50
14.995948
 51
75.780071
  0
ARC
  8
1
 62
7
  6
CONTINUOUS
 10
208.724108
 20
277.859193
 40
5.729038
 50
-72.372300
 51
-13.328771
  0
LINE
  8
1
 62
7
  6
CONTINUOUS
 10
214.453147
 20
319.623437
 11
214.453147
 21
278.701219
  0
LINE
  8
1
 62
7
  6
CONTINUOUS
 10
219.228311
 20
316.588923
 11
217.483076
 21
316.588923
  0
LINE
  8
1
 62
7
  6
CONTINUOUS
 10
217.483076
 20
316.588923
 11
217.483076
 21
281.777049
  0
LINE
  8
1
 62
7
  6
CONTINUOUS
 10
217.483076
 20
281.777049
 11
219.228311
 21
281.777049
  0
LINE
  8
1
 62
7
  6
CONTINUOUS
 10
216.536329
 20
321.064735
 11
216.536329
 21
277.301238
  0
LINE
  8
1
 62
7
  6
CONTINUOUS
 10
219.228311
 20
321.064735
 11
219.266351
 21
274.317367
  0
LINE
  8
1
 62
7
  6
CONTINUOUS
 10
137.841563
 20
317.473975
 11
136.232589
 21
319.082952
  0
LINE
  8
1
 62
7
  6
CONTINUOUS
 10
136.232589
 20
319.082952
 11
137.841563
 21
320.691929
  0
LINE
  8
1
 62
7
  6
CONTINUOUS
 10
138.818612
 20
318.690251
 11
139.813236
 21
319.052267
  0
LINE
  8
1
 62
7
  6
CONTINUOUS
 10
138.818612
 20
319.113634
 11
139.813236
 21
319.475646
  0
ARC
  8
1
 62
7
  6
CONTINUOUS
 10
137.973078
 20
317.173374
 40
1.491937
 50
-165.167985
 51
-95.000021
  0
LINE
  8
1
 62
7
  6
CONTINUOUS
 10
138.818612
 20
315.601762
 11
137.843047
 21
315.687114
  0
ARC
  8
1
 62
7
  6
CONTINUOUS
 10
137.973078
 20
320.992527
 40
1.491937
 50
95.000021
 51
165.167985
  0
LINE
  8
1
 62
7
  6
CONTINUOUS
 10
138.818612
 20
322.564136
 11
137.843047
 21
322.478784
  0
ARC
  8
1
 62
7
  6
CONTINUOUS
 10
145.184215
 20
319.082949
 40
8.951626
 50
165.167980
 51
-165.167980
  0
LINE
  8
1
 62
7
  6
CONTINUOUS
 10
138.818612
 20
315.303374
 11
138.818612
 21
322.862524
  0
LINE
  8
1
 62
7
  6
CONTINUOUS
 10
138.818612
 20
315.303374
 11
139.813236
 21
315.303374
  0
LINE
  8
1
 62
7
  6
CONTINUOUS
 10
138.818612
 20
322.862524
 11
139.813236
 21
322.862524
  0
LINE
  8
1
 62
7
  6
CONTINUOUS
 10
139.813236
 20
314.102358
 11
139.813236
 21
324.048609
  0
LINE
  8
1
 62
7
  6
CONTINUOUS
 10
139.813236
 20
314.102358
 11
140.608937
 21
314.102358
  0
LINE
  8
1
 62
7
  6
CONTINUOUS
 10
139.813236
 20
324.048609
 11
140.608937
 21
324.048609
  0
LINE
  8
1
 62
7
  6
CONTINUOUS
 10
222.029679
 20
280.891998
 11
223.638653
 21
279.283021
  0
LINE
  8
1
 62
7
  6
CONTINUOUS
 10
223.638653
 20
279.283021
 11
222.029679
 21
277.674044
  0
LINE
  8
1
 62
7
  6
CONTINUOUS
 10
221.052630
 20
279.675721
 11
220.058005
 21
279.313706
  0
LINE
  8
1
 62
7
  6
CONTINUOUS
 10
221.052630
 20
279.252338
 11
220.058005
 21
278.890323
  0
ARC
  8
1
 62
7
  6
CONTINUOUS
 10
221.898164
 20
281.192602
 40
1.491937
 50
14.832015
 51
84.999979
  0
LINE
  8
1
 62
7
  6
CONTINUOUS
 10
221.052630
 20
282.764211
 11
222.028195
 21
282.678859
  0
ARC
  8
1
 62
7
  6
CONTINUOUS
 10
221.898164
 20
277.373449
 40
1.491937
 50
-84.999979
 51
-14.832015
  0
LINE
  8
1
 62
7
  6
CONTINUOUS
 10
221.052630
 20
275.801837
 11
222.028195
 21
275.887189
  0
ARC
  8
1
 62
7
  6
CONTINUOUS
 10
214.687027
 20
279.283024
 40
8.951626
 50
-14.832020
 51
14.832020
  0
LINE
  8
1
 62
7
  6
CONTINUOUS
 10
221.052630
 20
283.062599
 11
221.052630
 21
275.503449
  0
LINE
  8
1
 62
7
  6
CONTINUOUS
 10
221.052630
 20
283.062599
 11
220.058005
 21
283.062599
  0
LINE
  8
1
 62
7
  6
CONTINUOUS
 10
221.052630
 20
275.503449
 11
220.058005
 21
275.503449
  0
LINE
  8
1
 62
7
  6
CONTINUOUS
 10
220.058005
 20
284.263615
 11
220.058005
 21
274.317367
  0
LINE
  8
1
 62
7
  6
CONTINUOUS
 10
220.058005
 20
284.263615
 11
219.262305
 21
284.263615
  0
LINE
  8
1
 62
7
  6
CONTINUOUS
 10
220.058005
 20
274.317367
 11
219.262305
 21
274.317367
  0
LINE
  8
1
 62
7
  6
CONTINUOUS
 10
167.982078
 20
136.187219
 11
167.982078
 21
101.375351
  0
LINE
  8
1
 62
7
  6
CONTINUOUS
 10
168.181002
 20
138.480347
 11
168.181002
 21
123.257097
  0
LINE
  8
1
 62
7
  6
CONTINUOUS
 10
167.783153
 20
136.187219
 11
167.783153
 21
77.504353
  0
LINE
  8
1
 62
7
  6
CONTINUOUS
 10
167.584229
 20
136.187219
 11
167.584229
 21
47.665609
  0
LINE
  8
1
 62
7
  6
CONTINUOUS
 10
168.181002
 20
124.749034
 11
167.385301
 21
124.749034
  0
LINE
  8
1
 62
7
  6
CONTINUOUS
 10
167.385301
 20
124.749034
 11
167.385301
 21
121.765159
  0
LINE
  8
1
 62
7
  6
CONTINUOUS
 10
167.385301
 20
121.765159
 11
168.181002
 21
121.765159
  0
LINE
  8
1
 62
7
  6
CONTINUOUS
 10
155.489590
 20
138.474860
 11
183.458443
 21
138.474860
  0
LINE
  8
1
 62
7
  6
CONTINUOUS
 10
170.767031
 20
132.208720
 11
171.164879
 21
132.208720
  0
LINE
  8
1
 62
7
  6
CONTINUOUS
 10
171.164879
 20
132.208720
 11
171.164879
 21
128.230221
  0
LINE
  8
1
 62
7
  6
CONTINUOUS
 10
170.767031
 20
123.257097
 11
170.767031
 21
138.479289
  0
LINE
  8
1
 62
7
  6
CONTINUOUS
 10
171.164879
 20
128.230221
 11
170.767031
 21
128.230221
  0
LINE
  8
1
 62
7
  6
CONTINUOUS
 10
170.767031
 20
124.749034
 11
169.850658
 21
124.749034
  0
LINE
  8
1
 62
7
  6
CONTINUOUS
 10
169.850658
 20
124.749034
 11
169.850658
 21
121.765159
  0
LINE
  8
1
 62
7
  6
CONTINUOUS
 10
169.850658
 20
121.765159
 11
170.815731
 21
121.765159
  0
ARC
  8
1
 62
7
  6
CONTINUOUS
 10
193.643401
 20
123.257097
 40
22.876370
 50
180.000000
 51
-127.451811
  0
ARC
  8
1
 62
7
  6
CONTINUOUS
 10
193.643401
 20
123.257097
 40
25.462396
 50
180.000000
 51
-127.325723
  0
LINE
  8
1
 62
7
  6
CONTINUOUS
 10
178.131231
 20
103.065363
 11
179.707088
 21
105.115775
  0
LINE
  8
1
 62
7
  6
CONTINUOUS
 10
185.000110
 20
139.966797
 11
183.458443
 21
138.474860
  0
LINE
  8
1
 62
7
  6
CONTINUOUS
 10
165.612555
 20
128.610496
 11
164.003578
 21
130.219473
  0
LINE
  8
1
 62
7
  6
CONTINUOUS
 10
164.003578
 20
130.219473
 11
165.612555
 21
131.828450
  0
LINE
  8
1
 62
7
  6
CONTINUOUS
 10
166.589604
 20
129.826773
 11
167.584229
 21
130.188785
  0
LINE
  8
1
 62
7
  6
CONTINUOUS
 10
166.589604
 20
130.250156
 11
167.584229
 21
130.612171
  0
ARC
  8
1
 62
7
  6
CONTINUOUS
 10
165.744071
 20
128.309895
 40
1.491937
 50
-165.167985
 51
-95.000021
  0
LINE
  8
1
 62
7
  6
CONTINUOUS
 10
166.589604
 20
126.738283
 11
165.614040
 21
126.823635
  0
ARC
  8
1
 62
7
  6
CONTINUOUS
 10
165.744071
 20
132.129048
 40
1.491937
 50
95.000021
 51
165.167985
  0
LINE
  8
1
 62
7
  6
CONTINUOUS
 10
166.589604
 20
133.700657
 11
165.614040
 21
133.615305
  0
ARC
  8
1
 62
7
  6
CONTINUOUS
 10
172.955208
 20
130.219470
 40
8.951626
 50
165.167980
 51
-165.167980
  0
LINE
  8
1
 62
7
  6
CONTINUOUS
 10
166.589604
 20
126.439895
 11
166.589604
 21
133.999045
  0
LINE
  8
1
 62
7
  6
CONTINUOUS
 10
166.589604
 20
126.439895
 11
167.584229
 21
126.439895
  0
LINE
  8
1
 62
7
  6
CONTINUOUS
 10
166.589604
 20
133.999045
 11
167.584229
 21
133.999045
  0
LINE
  8
1
 62
7
  6
CONTINUOUS
 10
185.606830
 20
159.361980
 11
185.000110
 21
139.966797
  0
LINE
  8
1
 62
7
  6
CONTINUOUS
 10
185.480376
 20
155.319623
 11
153.467654
 21
155.319623
  0
LINE
  8
1
 62
7
  6
CONTINUOUS
 10
155.489590
 20
138.474860
 11
153.947923
 21
139.966797
  0
LINE
  8
1
 62
7
  6
CONTINUOUS
 10
151.570769
 20
159.361980
 11
148.785819
 21
160.969871
  0
ARC
  8
1
 62
7
  6
CONTINUOUS
 10
169.474015
 20
193.569403
 40
34.207426
 50
-107.587962
 51
-72.412038
  0
LINE
  8
1
 62
7
  6
CONTINUOUS
 10
187.377264
 20
159.361980
 11
151.570769
 21
159.361980
  0
ARC
  8
1
 62
7
  6
CONTINUOUS
 10
190.602105
 20
193.324853
 40
34.115634
 50
-108.440851
 51
-95.424084
  0
ARC
  8
1
 62
7
  6
CONTINUOUS
 10
148.345927
 20
193.324853
 40
34.115634
 50
-84.575916
 51
-71.559149
  0
LINE
  8
1
 62
7
  6
CONTINUOUS
 10
187.377264
 20
159.361980
 11
190.162211
 21
160.969871
  0
LINE
  8
1
 62
7
  6
CONTINUOUS
 10
153.341199
 20
159.361980
 11
153.947923
 21
139.966797
  0
LINE
  8
1
 62
7
  6
CONTINUOUS
 10
159.137572
 20
178.259851
 11
159.137572
 21
160.961035
  0
LINE
  8
1
 62
7
  6
CONTINUOUS
 10
179.810461
 20
178.259851
 11
179.810461
 21
160.961035
  0
LINE
  8
1
 62
7
  6
CONTINUOUS
 10
143.265107
 20
198.247531
 11
143.293328
 21
181.540287
  0
LINE
  8
1
 62
7
  6
CONTINUOUS
 10
140.382296
 20
180.149640
 11
219.473965
 21
180.149640
  0
LINE
  8
1
 62
7
  6
CONTINUOUS
 10
140.382296
 20
180.149640
 11
140.382296
 21
199.544824
  0
LINE
  8
1
 62
7
  6
CONTINUOUS
 10
190.162211
 20
160.969871
 11
190.162211
 21
180.149640
  0
LINE
  8
1
 62
7
  6
CONTINUOUS
 10
148.785819
 20
160.969871
 11
148.785819
 21
180.149640
  0
LINE
  8
1
 62
7
  6
CONTINUOUS
 10
137.614928
 20
184.210027
 11
136.005952
 21
185.819004
  0
LINE
  8
1
 62
7
  6
CONTINUOUS
 10
138.591977
 20
185.426303
 11
139.586602
 21
185.788319
  0
LINE
  8
1
 62
7
  6
CONTINUOUS
 10
138.591977
 20
185.849689
 11
139.586602
 21
186.211702
  0
ARC
  8
1
 62
7
  6
CONTINUOUS
 10
137.746444
 20
183.909426
 40
1.491937
 50
-165.167985
 51
-95.000021
  0
LINE
  8
1
 62
7
  6
CONTINUOUS
 10
138.591977
 20
182.337817
 11
137.616413
 21
182.423169
  0
LINE
  8
1
 62
7
  6
CONTINUOUS
 10
138.591977
 20
182.039429
 11
138.591977
 21
189.598579
  0
LINE
  8
1
 62
7
  6
CONTINUOUS
 10
138.591977
 20
182.039429
 11
139.586602
 21
182.039429
  0
LINE
  8
1
 62
7
  6
CONTINUOUS
 10
139.586602
 20
180.838413
 11
139.586602
 21
190.784661
  0
LINE
  8
1
 62
7
  6
CONTINUOUS
 10
139.586602
 20
180.838413
 11
140.382303
 21
180.838413
  0
LINE
  8
1
 62
7
  6
CONTINUOUS
 10
148.115496
 20
235.848631
 11
211.719657
 21
235.848631
  0
LINE
  8
1
 62
7
  6
CONTINUOUS
 10
140.382296
 20
199.544824
 11
143.161295
 21
231.308944
  0
ARC
  8
1
 62
7
  6
CONTINUOUS
 10
148.115496
 20
230.875508
 40
4.973124
 50
90.000000
 51
174.999999
  0
LINE
  8
1
 62
7
  6
CONTINUOUS
 10
143.265107
 20
201.440713
 11
145.105163
 21
232.304599
  0
LINE
  8
1
 62
7
  6
CONTINUOUS
 10
144.445011
 20
199.557712
 11
214.742110
 21
199.557712
  0
LINE
  8
1
 62
7
  6
CONTINUOUS
 10
140.959847
 20
199.544824
 11
142.743207
 21
199.544824
  0
LINE
  8
1
 62
7
  6
CONTINUOUS
 10
136.005952
 20
185.819004
 11
137.614928
 21
187.427981
  0
ARC
  8
1
 62
7
  6
CONTINUOUS
 10
137.746444
 20
187.728579
 40
1.491937
 50
95.000021
 51
165.167985
  0
LINE
  8
1
 62
7
  6
CONTINUOUS
 10
138.591977
 20
189.300191
 11
137.616413
 21
189.214839
  0
ARC
  8
1
 62
7
  6
CONTINUOUS
 10
144.957581
 20
185.819001
 40
8.951626
 50
165.167980
 51
-165.167980
  0
LINE
  8
1
 62
7
  6
CONTINUOUS
 10
138.591977
 20
189.598579
 11
139.586602
 21
189.598579
  0
LINE
  8
1
 62
7
  6
CONTINUOUS
 10
139.586602
 20
190.784661
 11
140.382303
 21
190.784661
  0
ARC
  8
1
 62
7
  6
CONTINUOUS
 10
218.976653
 20
218.393079
 40
0.497312
 50
0.000000
 51
90.000000
  0
ARC
  8
1
 62
7
  6
CONTINUOUS
 10
218.150133
 20
219.387707
 40
0.497312
 50
-174.999995
 51
-90.000000
  0
LINE
  8
1
 62
7
  6
CONTINUOUS
 10
218.976653
 20
218.890395
 11
218.150133
 21
218.890395
  0
LINE
  8
1
 62
7
  6
CONTINUOUS
 10
219.473965
 20
180.149640
 11
219.473965
 21
218.393079
  0
ARC
  8
1
 62
7
  6
CONTINUOUS
 10
211.719657
 20
230.875508
 40
4.973124
 50
4.686262
 51
90.000000
  0
LINE
  8
1
 62
7
  6
CONTINUOUS
 10
214.722879
 20
232.304599
 11
216.562934
 21
201.440713
  0
LINE
  8
1
 62
7
  6
CONTINUOUS
 10
216.562934
 20
198.213416
 11
216.562934
 21
181.367958
  0
LINE
  8
1
 62
7
  6
CONTINUOUS
 10
216.880554
 20
199.544824
 11
218.873781
 21
199.544824
  0
LINE
  8
1
 62
7
  6
CONTINUOUS
 10
216.676158
 20
231.281810
 11
219.473965
 21
199.582621
  0
LINE
  8
1
 62
7
  6
CONTINUOUS
 10
205.163474
 20
179.371740
 11
206.772451
 21
177.762766
  0
ARC
  8
1
 62
7
  6
CONTINUOUS
 10
206.772447
 20
186.714392
 40
8.951626
 50
-104.832020
 51
-75.167980
  0
LINE
  8
1
 62
7
  6
CONTINUOUS
 10
206.772451
 20
177.762766
 11
208.381427
 21
179.371740
  0
ARC
  8
1
 62
7
  6
CONTINUOUS
 10
208.682025
 20
179.503255
 40
1.491937
 50
-75.167985
 51
-5.000021
  0
ARC
  8
1
 62
7
  6
CONTINUOUS
 10
204.862873
 20
179.503255
 40
1.491937
 50
-174.999979
 51
-104.832015
  0
LINE
  8
1
 62
7
  6
CONTINUOUS
 10
167.484765
 20
178.160391
 11
167.484765
 21
180.149640
  0
LINE
  8
1
 62
7
  6
CONTINUOUS
 10
171.463264
 20
178.160391
 11
167.484765
 21
178.160391
  0
LINE
  8
1
 62
7
  6
CONTINUOUS
 10
171.463264
 20
180.149640
 11
171.463264
 21
178.160391
  0
LINE
  8
1
 62
7
  6
CONTINUOUS
 10
190.162211
 20
178.259851
 11
171.463264
 21
178.259851
  0
LINE
  8
1
 62
7
  6
CONTINUOUS
 10
167.484765
 20
178.259851
 11
148.785819
 21
178.259851
  0
LINE
  8
1
 62
7
  6
CONTINUOUS
 10
203.308687
 20
180.149640
 11
203.376613
 21
179.373224
  0
LINE
  8
1
 62
7
  6
CONTINUOUS
 10
210.236211
 20
180.149640
 11
210.168282
 21
179.373224
  0
LINE
  8
1
 62
7
  6
CONTINUOUS
 10
222.241333
 20
187.427974
 11
223.850307
 21
185.818998
  0
LINE
  8
1
 62
7
  6
CONTINUOUS
 10
223.850307
 20
185.818998
 11
222.241333
 21
184.210021
  0
LINE
  8
1
 62
7
  6
CONTINUOUS
 10
221.264284
 20
186.211698
 11
220.269660
 21
185.849683
  0
LINE
  8
1
 62
7
  6
CONTINUOUS
 10
221.264284
 20
185.788315
 11
220.269660
 21
185.426300
  0
ARC
  8
1
 62
7
  6
CONTINUOUS
 10
222.109818
 20
187.728579
 40
1.491937
 50
14.832015
 51
84.999979
  0
LINE
  8
1
 62
7
  6
CONTINUOUS
 10
221.264284
 20
189.300188
 11
222.239849
 21
189.214836
  0
ARC
  8
1
 62
7
  6
CONTINUOUS
 10
222.109818
 20
183.909426
 40
1.491937
 50
-84.999979
 51
-14.832015
  0
LINE
  8
1
 62
7
  6
CONTINUOUS
 10
221.264284
 20
182.337814
 11
222.239849
 21
182.423166
  0
ARC
  8
1
 62
7
  6
CONTINUOUS
 10
214.898681
 20
185.819001
 40
8.951626
 50
-14.832020
 51
14.832020
  0
LINE
  8
1
 62
7
  6
CONTINUOUS
 10
221.264284
 20
189.598576
 11
221.264284
 21
182.039426
  0
LINE
  8
1
 62
7
  6
CONTINUOUS
 10
221.264284
 20
189.598576
 11
220.269660
 21
189.598576
  0
LINE
  8
1
 62
7
  6
CONTINUOUS
 10
221.264284
 20
182.039426
 11
220.269660
 21
182.039426
  0
LINE
  8
1
 62
7
  6
CONTINUOUS
 10
220.269660
 20
190.799591
 11
220.269660
 21
180.853344
  0
LINE
  8
1
 62
7
  6
CONTINUOUS
 10
220.269660
 20
190.799591
 11
219.473959
 21
190.799591
  0
LINE
  8
1
 62
7
  6
CONTINUOUS
 10
220.269660
 20
180.853344
 11
219.473959
 21
180.853344
  0
LINE
  8
1
 62
7
  6
CONTINUOUS
 10
199.833125
 20
283.268990
 11
160.048130
 21
283.268990
  0
ARC
  8
1
 62
7
  6
CONTINUOUS
 10
199.833125
 20
287.247489
 40
3.978499
 50
-90.000000
 51
0.000000
  0
LINE
  8
1
 62
7
  6
CONTINUOUS
 10
160.048130
 20
315.096986
 11
199.833125
 21
315.096986
  0
ARC
  8
1
 62
7
  6
CONTINUOUS
 10
160.048130
 20
311.118484
 40
3.978499
 50
90.000000
 51
180.000000
  0
LINE
  8
1
 62
7
  6
CONTINUOUS
 10
156.069631
 20
307.637300
 11
203.811624
 21
307.637300
  0
LINE
  8
1
 62
7
  6
CONTINUOUS
 10
201.822374
 20
303.161486
 11
201.822374
 21
295.204487
  0
ARC
  8
1
 62
7
  6
CONTINUOUS
 10
199.833125
 20
311.118484
 40
3.978499
 50
0.000000
 51
90.000000
  0
LINE
  8
1
 62
7
  6
CONTINUOUS
 10
201.822374
 20
295.204487
 11
203.811624
 21
294.209862
  0
LINE
  8
1
 62
7
  6
CONTINUOUS
 10
203.811624
 20
294.209862
 11
203.811624
 21
287.247489
  0
LINE
  8
1
 62
7
  6
CONTINUOUS
 10
156.069631
 20
311.118484
 11
156.069631
 21
287.247489
  0
ARC
  8
1
 62
7
  6
CONTINUOUS
 10
160.048130
 20
287.247489
 40
3.978499
 50
180.000000
 51
-90.000000
  0
LINE
  8
1
 62
7
  6
CONTINUOUS
 10
203.811624
 20
304.156110
 11
203.811624
 21
311.118484
  0
LINE
  8
1
 62
7
  6
CONTINUOUS
 10
203.811624
 20
304.156110
 11
201.822374
 21
303.161486
  0
LINE
  8
2
 62
7
  6
DASHDOT
 10
141.202554
 20
319.082949
 11
135.697943
 21
319.082949
  0
LINE
  8
2
 62
7
  6
DASHDOT
 10
218.668688
 20
279.283024
 11
224.173299
 21
279.283024
  0
LINE
  8
2
 62
7
  6
DASHDOT
 10
225.732716
 20
299.182986
 11
129.525780
 21
299.182986
  0
LINE
  8
2
 62
7
  6
DASHDOT
 10
165.462107
 20
123.058172
 11
171.932145
 21
123.058172
  0
LINE
  8
2
 62
7
  6
CONTINUOUS
 10
170.767031
 20
131.860601
 11
171.164879
 21
131.860601
  0
LINE
  8
2
 62
7
  6
CONTINUOUS
 10
170.767031
 20
128.578339
 11
171.164879
 21
128.578339
  0
LINE
  8
2
 62
7
  6
CONTINUOUS
 10
183.995538
 20
155.383481
 11
183.468387
 21
138.474860
  0
LINE
  8
2
 62
7
  6
DASHDOT
 10
163.468936
 20
130.219470
 11
171.701710
 21
130.219470
  0
LINE
  8
2
 62
7
  6
DASHDOT
 10
169.474015
 20
239.086140
 11
169.474015
 21
103.926620
  0
LINE
  8
2
 62
7
  6
CONTINUOUS
 10
153.341199
 20
159.361980
 11
154.952492
 21
155.383481
  0
LINE
  8
2
 62
7
  6
CONTINUOUS
 10
154.952492
 20
155.383481
 11
155.479643
 21
138.474860
  0
LINE
  8
2
 62
7
  6
CONTINUOUS
 10
185.606830
 20
159.361980
 11
183.995538
 21
155.383481
  0
LINE
  8
2
 62
7
  6
DASHDOT
 10
140.975920
 20
185.819001
 11
135.471309
 21
185.819001
  0
LINE
  8
2
 62
7
  6
DASHDOT
 10
221.538856
 20
198.553174
 11
215.101047
 21
198.553174
  0
LINE
  8
2
 62
7
  6
CONTINUOUS
 10
167.832884
 20
180.149640
 11
167.832884
 21
178.160391
  0
LINE
  8
2
 62
7
  6
CONTINUOUS
 10
171.115146
 20
180.149640
 11
171.115146
 21
178.160391
  0
LINE
  8
2
 62
7
  6
DASHDOT
 10
206.772447
 20
177.228120
 11
206.772447
 21
182.211185
  0
LINE
  8
2
 62
7
  6
DASHDOT
 10
218.880342
 20
185.819001
 11
224.384953
 21
185.819001
  0
LINE
  8
2
 62
7
  6
CONTINUOUS
 10
160.799802
 20
313.387282
 11
158.371925
 21
313.387282
  0
LINE
  8
2
 62
7
  6
CONTINUOUS
 10
160.799802
 20
312.392657
 11
159.366550
 21
312.392657
  0
LINE
  8
2
 62
7
  6
CONTINUOUS
 10
161.085261
 20
309.337169
 11
163.238408
 21
309.337169
  0
LINE
  8
2
 62
7
  6
CONTINUOUS
 10
163.238408
 20
309.337169
 11
163.568698
 21
309.632174
  0
LINE
  8
2
 62
7
  6
CONTINUOUS
 10
162.079886
 20
310.331794
 11
162.858894
 21
310.331794
  0
LINE
  8
2
 62
7
  6
CONTINUOUS
 10
162.858894
 20
310.331794
 11
162.906135
 21
310.373986
  0
LINE
  8
2
 62
7
  6
CONTINUOUS
 10
163.358974
 20
310.338308
 11
163.724895
 21
309.696084
  0
LINE
  8
2
 62
7
  6
CONTINUOUS
 10
163.724895
 20
309.696084
 11
164.252105
 21
309.337169
  0
LINE
  8
2
 62
7
  6
CONTINUOUS
 10
164.252105
 20
309.337169
 11
165.346353
 21
309.337169
  0
LINE
  8
2
 62
7
  6
CONTINUOUS
 10
165.346353
 20
309.337169
 11
165.961713
 21
309.692894
  0
LINE
  8
2
 62
7
  6
CONTINUOUS
 10
165.961713
 20
309.692894
 11
166.222500
 21
310.333453
  0
LINE
  8
2
 62
7
  6
CONTINUOUS
 10
166.222500
 20
310.333453
 11
166.243160
 21
312.357702
  0
LINE
  8
2
 62
7
  6
CONTINUOUS
 10
165.913732
 20
313.014884
 11
165.334071
 21
313.387282
  0
LINE
  8
2
 62
7
  6
CONTINUOUS
 10
165.334071
 20
313.387282
 11
164.214473
 21
313.387282
  0
LINE
  8
2
 62
7
  6
CONTINUOUS
 10
164.214473
 20
313.387282
 11
163.655653
 21
313.001341
  0
LINE
  8
2
 62
7
  6
CONTINUOUS
 10
163.655653
 20
313.001341
 11
163.358974
 21
312.350462
  0
LINE
  8
2
 62
7
  6
CONTINUOUS
 10
163.358974
 20
312.350462
 11
163.358974
 21
310.338308
  0
LINE
  8
2
 62
7
  6
CONTINUOUS
 10
164.353598
 20
310.601781
 11
164.475045
 21
310.388630
  0
LINE
  8
2
 62
7
  6
CONTINUOUS
 10
164.475045
 20
310.388630
 11
164.558533
 21
310.331794
  0
LINE
  8
2
 62
7
  6
CONTINUOUS
 10
164.558533
 20
310.331794
 11
165.079553
 21
310.331794
  0
LINE
  8
2
 62
7
  6
CONTINUOUS
 10
165.079553
 20
310.331794
 11
165.168973
 21
310.383485
  0
LINE
  8
2
 62
7
  6
CONTINUOUS
 10
165.168973
 20
310.383485
 11
165.229861
 21
310.533037
  0
LINE
  8
2
 62
7
  6
CONTINUOUS
 10
165.229861
 20
310.533037
 11
165.246130
 21
312.127164
  0
LINE
  8
2
 62
7
  6
CONTINUOUS
 10
165.246130
 20
312.127164
 11
165.146744
 21
312.325432
  0
LINE
  8
2
 62
7
  6
CONTINUOUS
 10
165.146744
 20
312.325432
 11
165.042107
 21
312.392657
  0
LINE
  8
2
 62
7
  6
CONTINUOUS
 10
165.042107
 20
312.392657
 11
164.524551
 21
312.392657
  0
LINE
  8
2
 62
7
  6
CONTINUOUS
 10
164.524551
 20
312.392657
 11
164.446809
 21
312.338965
  0
LINE
  8
2
 62
7
  6
CONTINUOUS
 10
164.446809
 20
312.338965
 11
164.353598
 21
312.134472
  0
LINE
  8
2
 62
7
  6
CONTINUOUS
 10
164.353598
 20
312.134472
 11
164.353598
 21
310.601781
  0
LINE
  8
2
 62
7
  6
CONTINUOUS
 10
177.718371
 20
312.392657
 11
177.718371
 21
310.331794
  0
LINE
  8
2
 62
7
  6
CONTINUOUS
 10
160.799802
 20
313.387282
 11
160.799802
 21
312.392657
  0
LINE
  8
2
 62
7
  6
CONTINUOUS
 10
158.371925
 20
313.387282
 11
158.371925
 21
309.337169
  0
LINE
  8
2
 62
7
  6
CONTINUOUS
 10
158.371925
 20
309.337169
 11
159.366550
 21
309.337169
  0
LINE
  8
2
 62
7
  6
CONTINUOUS
 10
161.085261
 20
309.337169
 11
161.085261
 21
313.387282
  0
LINE
  8
2
 62
7
  6
CONTINUOUS
 10
162.079886
 20
310.331794
 11
162.079886
 21
313.387282
  0
LINE
  8
2
 62
7
  6
CONTINUOUS
 10
161.085261
 20
313.387282
 11
162.079886
 21
313.387282
  0
LINE
  8
2
 62
7
  6
CONTINUOUS
 10
162.906135
 20
310.373986
 11
163.568698
 21
309.632174
  0
LINE
  8
2
 62
7
  6
CONTINUOUS
 10
166.243160
 20
312.357702
 11
165.913732
 21
313.014884
  0
LINE
  8
2
 62
7
  6
CONTINUOUS
 10
166.855153
 20
309.337169
 11
167.681996
 21
309.337169
  0
LINE
  8
2
 62
7
  6
CONTINUOUS
 10
168.050688
 20
309.337169
 11
168.877914
 21
309.337169
  0
LINE
  8
2
 62
7
  6
CONTINUOUS
 10
166.855153
 20
309.337169
 11
166.417444
 21
313.387282
  0
LINE
  8
2
 62
7
  6
CONTINUOUS
 10
167.681996
 20
309.337169
 11
167.873367
 21
310.042653
  0
LINE
  8
2
 62
7
  6
CONTINUOUS
 10
167.873367
 20
310.042653
 11
168.050688
 21
309.337169
  0
LINE
  8
2
 62
7
  6
CONTINUOUS
 10
168.877914
 20
309.337169
 11
169.380222
 21
313.387282
  0
LINE
  8
2
 62
7
  6
CONTINUOUS
 10
166.417444
 20
313.387282
 11
167.417861
 21
313.387282
  0
LINE
  8
2
 62
7
  6
CONTINUOUS
 10
168.377978
 20
313.387282
 11
169.380222
 21
313.387282
  0
LINE
  8
2
 62
7
  6
CONTINUOUS
 10
168.272345
 20
312.535577
 11
168.377978
 21
313.387282
  0
LINE
  8
2
 62
7
  6
CONTINUOUS
 10
167.512509
 20
312.511499
 11
167.417861
 21
313.387282
  0
LINE
  8
2
 62
7
  6
CONTINUOUS
 10
167.750078
 20
313.387282
 11
168.058276
 21
313.387282
  0
LINE
  8
2
 62
7
  6
CONTINUOUS
 10
167.512509
 20
312.511499
 11
167.750078
 21
313.387282
  0
LINE
  8
2
 62
7
  6
CONTINUOUS
 10
168.058276
 20
313.387282
 11
168.272345
 21
312.535577
  0
LINE
  8
2
 62
7
  6
CONTINUOUS
 10
176.226434
 20
313.387282
 11
178.215683
 21
313.387282
  0
LINE
  8
2
 62
7
  6
CONTINUOUS
 10
176.723746
 20
312.392657
 11
176.723746
 21
310.331794
  0
LINE
  8
2
 62
7
  6
CONTINUOUS
 10
176.226434
 20
309.337169
 11
178.215683
 21
309.337169
  0
LINE
  8
2
 62
7
  6
CONTINUOUS
 10
177.718371
 20
310.331794
 11
178.215683
 21
310.331794
  0
LINE
  8
2
 62
7
  6
CONTINUOUS
 10
177.718371
 20
312.392657
 11
178.215683
 21
312.392657
  0
LINE
  8
2
 62
7
  6
CONTINUOUS
 10
178.215683
 20
313.387282
 11
178.215683
 21
312.392657
  0
LINE
  8
2
 62
7
  6
CONTINUOUS
 10
178.215683
 20
310.331794
 11
178.215683
 21
309.337169
  0
LINE
  8
2
 62
7
  6
CONTINUOUS
 10
176.226434
 20
309.337169
 11
176.226434
 21
310.331794
  0
LINE
  8
2
 62
7
  6
CONTINUOUS
 10
176.226434
 20
310.331794
 11
176.723746
 21
310.331794
  0
LINE
  8
2
 62
7
  6
CONTINUOUS
 10
176.226434
 20
313.387282
 11
176.226434
 21
312.392657
  0
LINE
  8
2
 62
7
  6
CONTINUOUS
 10
176.226434
 20
312.392657
 11
176.723746
 21
312.392657
  0
LINE
  8
2
 62
7
  6
CONTINUOUS
 10
159.366550
 20
311.859536
 11
160.381066
 21
311.859536
  0
LINE
  8
2
 62
7
  6
CONTINUOUS
 10
160.381066
 20
311.859536
 11
160.381066
 21
310.864912
  0
LINE
  8
2
 62
7
  6
CONTINUOUS
 10
160.381066
 20
310.864912
 11
159.366550
 21
310.864912
  0
LINE
  8
2
 62
7
  6
CONTINUOUS
 10
159.366550
 20
312.392657
 11
159.366550
 21
311.859536
  0
LINE
  8
2
 62
7
  6
CONTINUOUS
 10
159.366550
 20
310.864912
 11
159.366550
 21
309.337169
  0
LINE
  8
2
 62
7
  6
CONTINUOUS
 10
173.565389
 20
309.337169
 11
174.392232
 21
309.337169
  0
LINE
  8
2
 62
7
  6
CONTINUOUS
 10
174.760924
 20
309.337169
 11
175.588150
 21
309.337169
  0
LINE
  8
2
 62
7
  6
CONTINUOUS
 10
173.565389
 20
309.337169
 11
173.127680
 21
313.387282
  0
LINE
  8
2
 62
7
  6
CONTINUOUS
 10
174.392232
 20
309.337169
 11
174.583603
 21
310.042653
  0
LINE
  8
2
 62
7
  6
CONTINUOUS
 10
174.583603
 20
310.042653
 11
174.760924
 21
309.337169
  0
LINE
  8
2
 62
7
  6
CONTINUOUS
 10
175.588150
 20
309.337169
 11
176.090458
 21
313.387282
  0
LINE
  8
2
 62
7
  6
CONTINUOUS
 10
173.127680
 20
313.387282
 11
174.128097
 21
313.387282
  0
LINE
  8
2
 62
7
  6
CONTINUOUS
 10
175.088214
 20
313.387282
 11
176.090458
 21
313.387282
  0
LINE
  8
2
 62
7
  6
CONTINUOUS
 10
174.982581
 20
312.535577
 11
175.088214
 21
313.387282
  0
LINE
  8
2
 62
7
  6
CONTINUOUS
 10
174.460314
 20
313.387282
 11
174.768512
 21
313.387282
  0
LINE
  8
2
 62
7
  6
CONTINUOUS
 10
174.222745
 20
312.511499
 11
174.460314
 21
313.387282
  0
LINE
  8
2
 62
7
  6
CONTINUOUS
 10
174.768512
 20
313.387282
 11
174.982581
 21
312.535577
  0
LINE
  8
2
 62
7
  6
CONTINUOUS
 10
181.516713
 20
313.387282
 11
178.532839
 21
313.387282
  0
LINE
  8
2
 62
7
  6
CONTINUOUS
 10
178.532839
 20
312.392657
 11
179.527464
 21
312.392657
  0
LINE
  8
2
 62
7
  6
CONTINUOUS
 10
179.527464
 20
312.392657
 11
179.527464
 21
309.337169
  0
LINE
  8
2
 62
7
  6
CONTINUOUS
 10
179.527464
 20
309.337169
 11
180.522089
 21
309.337169
  0
LINE
  8
2
 62
7
  6
CONTINUOUS
 10
178.532839
 20
313.387282
 11
178.532839
 21
312.392657
  0
LINE
  8
2
 62
7
  6
CONTINUOUS
 10
180.522089
 20
309.337169
 11
180.522089
 21
312.392657
  0
LINE
  8
2
 62
7
  6
CONTINUOUS
 10
180.522089
 20
312.392657
 11
181.516713
 21
312.392657
  0
LINE
  8
2
 62
7
  6
CONTINUOUS
 10
181.516713
 20
312.392657
 11
181.516713
 21
313.387282
  0
LINE
  8
2
 62
7
  6
CONTINUOUS
 10
185.559316
 20
313.387282
 11
184.564691
 21
313.387282
  0
LINE
  8
2
 62
7
  6
CONTINUOUS
 10
185.559316
 20
311.859536
 11
185.559316
 21
313.387282
  0
LINE
  8
2
 62
7
  6
CONTINUOUS
 10
184.564691
 20
309.337169
 11
185.559316
 21
309.337169
  0
LINE
  8
2
 62
7
  6
CONTINUOUS
 10
185.559316
 20
309.337169
 11
185.559316
 21
310.864912
  0
LINE
  8
2
 62
7
  6
CONTINUOUS
 10
187.150717
 20
309.337169
 11
187.150717
 21
313.387282
  0
LINE
  8
2
 62
7
  6
CONTINUOUS
 10
187.150717
 20
313.387282
 11
186.156092
 21
313.387282
  0
LINE
  8
2
 62
7
  6
CONTINUOUS
 10
186.156092
 20
313.387282
 11
186.156092
 21
311.859536
  0
LINE
  8
2
 62
7
  6
CONTINUOUS
 10
186.156092
 20
311.859536
 11
185.559316
 21
311.859536
  0
LINE
  8
2
 62
7
  6
CONTINUOUS
 10
186.156092
 20
310.864912
 11
186.156092
 21
309.337169
  0
LINE
  8
2
 62
7
  6
CONTINUOUS
 10
186.156092
 20
309.337169
 11
187.150717
 21
309.337169
  0
LINE
  8
2
 62
7
  6
CONTINUOUS
 10
185.559316
 20
310.864912
 11
186.156092
 21
310.864912
  0
LINE
  8
2
 62
7
  6
CONTINUOUS
 10
184.564691
 20
313.387282
 11
184.564691
 21
309.337169
  0
LINE
  8
2
 62
7
  6
CONTINUOUS
 10
184.138364
 20
313.010607
 11
183.538952
 21
313.387282
  0
LINE
  8
2
 62
7
  6
CONTINUOUS
 10
183.538952
 20
313.387282
 11
182.479753
 21
313.387282
  0
LINE
  8
2
 62
7
  6
CONTINUOUS
 10
182.479753
 20
313.387282
 11
181.842681
 21
313.019817
  0
LINE
  8
2
 62
7
  6
CONTINUOUS
 10
181.795070
 20
309.680550
 11
182.425585
 21
309.337169
  0
LINE
  8
2
 62
7
  6
CONTINUOUS
 10
182.425585
 20
309.337169
 11
183.414598
 21
309.337169
  0
LINE
  8
2
 62
7
  6
CONTINUOUS
 10
183.414598
 20
309.337169
 11
184.097196
 21
309.678468
  0
LINE
  8
2
 62
7
  6
CONTINUOUS
 10
184.097196
 20
309.678468
 11
184.319986
 21
310.250174
  0
LINE
  8
2
 62
7
  6
CONTINUOUS
 10
184.333697
 20
312.440486
 11
184.138364
 21
313.010607
  0
LINE
  8
2
 62
7
  6
CONTINUOUS
 10
183.311409
 20
312.355563
 11
183.252381
 21
312.392657
  0
LINE
  8
2
 62
7
  6
CONTINUOUS
 10
183.252381
 20
312.392657
 11
182.746043
 21
312.392657
  0
LINE
  8
2
 62
7
  6
CONTINUOUS
 10
182.746043
 20
312.392657
 11
182.590437
 21
312.302901
  0
LINE
  8
2
 62
7
  6
CONTINUOUS
 10
182.590437
 20
312.302901
 11
182.514429
 21
312.157286
  0
LINE
  8
2
 62
7
  6
CONTINUOUS
 10
182.514429
 20
312.157286
 11
182.514429
 21
310.554843
  0
LINE
  8
2
 62
7
  6
CONTINUOUS
 10
182.514429
 20
310.554843
 11
182.583643
 21
310.383650
  0
LINE
  8
2
 62
7
  6
CONTINUOUS
 10
182.583643
 20
310.383650
 11
182.678861
 21
310.331794
  0
LINE
  8
2
 62
7
  6
CONTINUOUS
 10
182.678861
 20
310.331794
 11
183.179800
 21
310.331794
  0
LINE
  8
2
 62
7
  6
CONTINUOUS
 10
183.179800
 20
310.331794
 11
183.309606
 21
310.396697
  0
LINE
  8
2
 62
7
  6
CONTINUOUS
 10
183.309606
 20
310.396697
 11
183.393243
 21
310.611321
  0
LINE
  8
2
 62
7
  6
CONTINUOUS
 10
183.392764
 20
312.118110
 11
183.311409
 21
312.355563
  0
LINE
  8
2
 62
7
  6
CONTINUOUS
 10
183.392764
 20
312.118110
 11
184.333697
 21
312.440486
  0
LINE
  8
2
 62
7
  6
CONTINUOUS
 10
183.393243
 20
310.611321
 11
184.319986
 21
310.250174
  0
LINE
  8
2
 62
7
  6
CONTINUOUS
 10
181.519804
 20
312.401254
 11
181.519804
 21
310.361381
  0
LINE
  8
2
 62
7
  6
CONTINUOUS
 10
181.519804
 20
310.361381
 11
181.795070
 21
309.680550
  0
LINE
  8
2
 62
7
  6
CONTINUOUS
 10
172.059707
 20
312.061259
 11
172.994941
 21
312.399803
  0
LINE
  8
2
 62
7
  6
CONTINUOUS
 10
172.994941
 20
312.399803
 11
172.769776
 21
313.021827
  0
LINE
  8
2
 62
7
  6
CONTINUOUS
 10
172.769776
 20
313.021827
 11
172.135112
 21
313.387282
  0
LINE
  8
2
 62
7
  6
CONTINUOUS
 10
172.135112
 20
313.387282
 11
171.070937
 21
313.387282
  0
LINE
  8
2
 62
7
  6
CONTINUOUS
 10
171.070937
 20
313.387282
 11
170.367993
 21
312.680385
  0
LINE
  8
2
 62
7
  6
CONTINUOUS
 10
170.367993
 20
312.680385
 11
170.367993
 21
311.898389
  0
LINE
  8
2
 62
7
  6
CONTINUOUS
 10
170.367993
 20
311.898389
 11
170.626906
 21
311.185065
  0
LINE
  8
2
 62
7
  6
CONTINUOUS
 10
170.626906
 20
311.185065
 11
172.005934
 21
310.737165
  0
LINE
  8
2
 62
7
  6
CONTINUOUS
 10
172.005934
 20
310.737165
 11
172.030012
 21
310.697609
  0
LINE
  8
2
 62
7
  6
CONTINUOUS
 10
172.030012
 20
310.697609
 11
172.030012
 21
310.433309
  0
LINE
  8
2
 62
7
  6
CONTINUOUS
 10
172.030012
 20
310.433309
 11
171.943555
 21
310.331794
  0
LINE
  8
2
 62
7
  6
CONTINUOUS
 10
171.943555
 20
310.331794
 11
171.369182
 21
310.331794
  0
LINE
  8
2
 62
7
  6
CONTINUOUS
 10
171.369182
 20
310.331794
 11
171.245609
 21
310.406006
  0
LINE
  8
2
 62
7
  6
CONTINUOUS
 10
171.245609
 20
310.406006
 11
171.090275
 21
310.717376
  0
LINE
  8
2
 62
7
  6
CONTINUOUS
 10
171.090275
 20
310.717376
 11
170.200252
 21
310.273374
  0
LINE
  8
2
 62
7
  6
CONTINUOUS
 10
170.200252
 20
310.273374
 11
170.485005
 21
309.702580
  0
LINE
  8
2
 62
7
  6
CONTINUOUS
 10
170.485005
 20
309.702580
 11
171.093474
 21
309.337169
  0
LINE
  8
2
 62
7
  6
CONTINUOUS
 10
171.093474
 20
309.337169
 11
172.402924
 21
309.337169
  0
LINE
  8
2
 62
7
  6
CONTINUOUS
 10
172.402924
 20
309.337169
 11
173.024637
 21
310.067160
  0
LINE
  8
2
 62
7
  6
CONTINUOUS
 10
173.024637
 20
310.067160
 11
173.024637
 21
310.976514
  0
LINE
  8
2
 62
7
  6
CONTINUOUS
 10
173.024637
 20
310.976514
 11
172.663844
 21
311.569253
  0
LINE
  8
2
 62
7
  6
CONTINUOUS
 10
172.663844
 20
311.569253
 11
171.396126
 21
311.980999
  0
LINE
  8
2
 62
7
  6
CONTINUOUS
 10
171.396126
 20
311.980999
 11
171.362618
 21
312.270031
  0
LINE
  8
2
 62
7
  6
CONTINUOUS
 10
171.362618
 20
312.270031
 11
171.484560
 21
312.392657
  0
LINE
  8
2
 62
7
  6
CONTINUOUS
 10
171.484560
 20
312.392657
 11
171.869215
 21
312.392657
  0
LINE
  8
2
 62
7
  6
CONTINUOUS
 10
171.869215
 20
312.392657
 11
171.958317
 21
312.341349
  0
LINE
  8
2
 62
7
  6
CONTINUOUS
 10
171.958317
 20
312.341349
 11
172.059707
 21
312.061259
  0
LINE
  8
2
 62
7
  6
CONTINUOUS
 10
174.222745
 20
312.511499
 11
174.128097
 21
313.387282
  0
LINE
  8
2
 62
7
  6
CONTINUOUS
 10
181.842681
 20
313.019817
 11
181.519804
 21
312.401254
  0
ARC
  8
2
 62
7
  6
CONTINUOUS
 10
188.573972
 20
311.367142
 40
0.676345
 50
90.011670
 51
-93.345442
  0
LINE
  8
2
 62
7
  6
CONTINUOUS
 10
200.410009
 20
312.043487
 11
199.475059
 21
312.958539
  0
ARC
  8
2
 62
7
  6
CONTINUOUS
 10
199.872911
 20
313.416069
 40
0.596776
 50
34.205580
 51
-130.931474
  0
LINE
  8
2
 62
7
  6
CONTINUOUS
 10
202.757321
 20
311.367142
 11
200.390115
 21
313.734348
  0
LINE
  8
2
 62
7
  6
CONTINUOUS
 10
200.270759
 20
308.860688
 11
202.757321
 21
311.367142
  0
ARC
  8
2
 62
7
  6
CONTINUOUS
 10
199.813233
 20
309.258537
 40
0.596776
 50
136.363955
 51
-40.919804
  0
LINE
  8
2
 62
7
  6
CONTINUOUS
 10
199.375598
 20
309.676280
 11
200.410009
 21
310.690796
  0
LINE
  8
2
 62
7
  6
CONTINUOUS
 10
200.410009
 20
310.690796
 11
188.534186
 21
310.690796
  0
LINE
  8
2
 62
7
  6
CONTINUOUS
 10
200.410009
 20
312.043487
 11
188.573972
 21
312.043487
  0
LINE
  8
2
 62
7
  6
CONTINUOUS
 10
190.148025
 20
310.115960
 11
190.148025
 21
308.122732
  0
LINE
  8
2
 62
7
  6
CONTINUOUS
 10
191.619563
 20
310.115960
 11
190.148025
 21
310.115960
  0
LINE
  8
2
 62
7
  6
CONTINUOUS
 10
191.619563
 20
309.618647
 11
190.645337
 21
309.618647
  0
LINE
  8
2
 62
7
  6
CONTINUOUS
 10
191.619563
 20
310.115960
 11
191.619563
 21
309.618647
  0
LINE
  8
2
 62
7
  6
CONTINUOUS
 10
191.403240
 20
309.375959
 11
191.403240
 21
308.878647
  0
LINE
  8
2
 62
7
  6
CONTINUOUS
 10
190.148025
 20
308.122732
 11
190.645337
 21
308.122732
  0
LINE
  8
2
 62
7
  6
CONTINUOUS
 10
190.645337
 20
309.375959
 11
191.403240
 21
309.375959
  0
LINE
  8
2
 62
7
  6
CONTINUOUS
 10
190.645337
 20
308.878647
 11
191.403240
 21
308.878647
  0
LINE
  8
2
 62
7
  6
CONTINUOUS
 10
190.645337
 20
309.618647
 11
190.645337
 21
309.375959
  0
LINE
  8
2
 62
7
  6
CONTINUOUS
 10
190.645337
 20
308.878647
 11
190.645337
 21
308.122732
  0
LINE
  8
2
 62
7
  6
CONTINUOUS
 10
194.666467
 20
310.115960
 11
194.341125
 21
309.897536
  0
LINE
  8
2
 62
7
  6
CONTINUOUS
 10
194.341125
 20
309.897536
 11
194.166307
 21
309.576536
  0
LINE
  8
2
 62
7
  6
CONTINUOUS
 10
195.879052
 20
309.600545
 11
195.679804
 21
309.929538
  0
LINE
  8
2
 62
7
  6
CONTINUOUS
 10
195.679804
 20
309.929538
 11
195.335293
 21
310.115960
  0
LINE
  8
2
 62
7
  6
CONTINUOUS
 10
195.335293
 20
310.115960
 11
194.666467
 21
310.115960
  0
LINE
  8
2
 62
7
  6
CONTINUOUS
 10
194.817924
 20
309.618647
 11
194.719556
 21
309.552608
  0
LINE
  8
2
 62
7
  6
CONTINUOUS
 10
194.719556
 20
309.552608
 11
194.663619
 21
309.449898
  0
LINE
  8
2
 62
7
  6
CONTINUOUS
 10
195.381739
 20
309.461691
 11
195.324371
 21
309.556418
  0
LINE
  8
2
 62
7
  6
CONTINUOUS
 10
195.324371
 20
309.556418
 11
195.209367
 21
309.618647
  0
LINE
  8
2
 62
7
  6
CONTINUOUS
 10
195.209367
 20
309.618647
 11
194.817924
 21
309.618647
  0
LINE
  8
2
 62
7
  6
CONTINUOUS
 10
192.262596
 20
308.122732
 11
193.588208
 21
308.122732
  0
LINE
  8
2
 62
7
  6
CONTINUOUS
 10
193.588208
 20
308.122732
 11
193.832870
 21
308.304700
  0
LINE
  8
2
 62
7
  6
CONTINUOUS
 10
192.262596
 20
310.115960
 11
192.262596
 21
308.122732
  0
LINE
  8
2
 62
7
  6
CONTINUOUS
 10
192.759908
 20
308.620045
 11
193.423545
 21
308.620045
  0
LINE
  8
2
 62
7
  6
CONTINUOUS
 10
193.423545
 20
308.620045
 11
193.536078
 21
308.703744
  0
LINE
  8
2
 62
7
  6
CONTINUOUS
 10
192.759908
 20
310.115960
 11
192.759908
 21
308.620045
  0
LINE
  8
2
 62
7
  6
CONTINUOUS
 10
192.262596
 20
310.115960
 11
192.759908
 21
310.115960
  0
LINE
  8
2
 62
7
  6
CONTINUOUS
 10
193.536078
 20
308.703744
 11
193.832870
 21
308.304700
  0
LINE
  8
2
 62
7
  6
CONTINUOUS
 10
194.166307
 20
309.576536
 11
194.166307
 21
308.682334
  0
LINE
  8
2
 62
7
  6
CONTINUOUS
 10
194.166307
 20
308.682334
 11
194.338891
 21
308.311878
  0
LINE
  8
2
 62
7
  6
CONTINUOUS
 10
194.338891
 20
308.311878
 11
194.677445
 21
308.122732
  0
LINE
  8
2
 62
7
  6
CONTINUOUS
 10
194.677445
 20
308.122732
 11
195.311268
 21
308.122732
  0
LINE
  8
2
 62
7
  6
CONTINUOUS
 10
195.311268
 20
308.122732
 11
195.727414
 21
308.323478
  0
LINE
  8
2
 62
7
  6
CONTINUOUS
 10
195.727414
 20
308.323478
 11
195.879052
 21
308.667077
  0
LINE
  8
2
 62
7
  6
CONTINUOUS
 10
195.879052
 20
308.667077
 11
195.879052
 21
309.600545
  0
LINE
  8
2
 62
7
  6
CONTINUOUS
 10
194.663619
 20
309.449898
 11
194.663619
 21
308.792492
  0
LINE
  8
2
 62
7
  6
CONTINUOUS
 10
194.663619
 20
308.792492
 11
194.721793
 21
308.667618
  0
LINE
  8
2
 62
7
  6
CONTINUOUS
 10
194.721793
 20
308.667618
 11
194.806946
 21
308.620045
  0
LINE
  8
2
 62
7
  6
CONTINUOUS
 10
194.806946
 20
308.620045
 11
195.197587
 21
308.620045
  0
LINE
  8
2
 62
7
  6
CONTINUOUS
 10
195.197587
 20
308.620045
 11
195.346385
 21
308.691824
  0
LINE
  8
2
 62
7
  6
CONTINUOUS
 10
195.346385
 20
308.691824
 11
195.381739
 21
308.771934
  0
LINE
  8
2
 62
7
  6
CONTINUOUS
 10
195.381739
 20
308.771934
 11
195.381739
 21
309.461691
  0
LINE
  8
2
 62
7
  6
CONTINUOUS
 10
197.291000
 20
309.443813
 11
197.393713
 21
310.118571
  0
LINE
  8
2
 62
7
  6
CONTINUOUS
 10
196.631524
 20
310.115960
 11
196.722926
 21
309.469512
  0
LINE
  8
2
 62
7
  6
CONTINUOUS
 10
196.631524
 20
310.115960
 11
196.139110
 21
310.046338
  0
LINE
  8
2
 62
7
  6
CONTINUOUS
 10
197.393317
 20
310.115960
 11
197.885360
 21
310.043730
  0
LINE
  8
2
 62
7
  6
CONTINUOUS
 10
196.411089
 20
308.122732
 11
196.826013
 21
308.122732
  0
LINE
  8
2
 62
7
  6
CONTINUOUS
 10
197.179942
 20
308.122732
 11
197.592942
 21
308.122732
  0
LINE
  8
2
 62
7
  6
CONTINUOUS
 10
196.923363
 20
310.115960
 11
197.082595
 21
310.115960
  0
LINE
  8
2
 62
7
  6
CONTINUOUS
 10
196.139110
 20
310.046338
 11
196.411089
 21
308.122732
  0
LINE
  8
2
 62
7
  6
CONTINUOUS
 10
196.826013
 20
308.122732
 11
197.002979
 21
308.693479
  0
LINE
  8
2
 62
7
  6
CONTINUOUS
 10
197.002979
 20
308.693479
 11
197.179942
 21
308.122732
  0
LINE
  8
2
 62
7
  6
CONTINUOUS
 10
197.592942
 20
308.122732
 11
197.885360
 21
310.043730
  0
LINE
  8
2
 62
7
  6
CONTINUOUS
 10
196.722926
 20
309.469512
 11
196.923363
 21
310.115960
  0
LINE
  8
2
 62
7
  6
CONTINUOUS
 10
197.082595
 20
310.115960
 11
197.291000
 21
309.443813
  0
LINE
  8
2
 62
7
  6
CONTINUOUS
 10
203.108319
 20
307.637300
 11
203.811624
 21
308.340605
  0
LINE
  8
2
 62
7
  6
CONTINUOUS
 10
201.701705
 20
307.637300
 11
203.811624
 21
309.747218
  0
LINE
  8
2
 62
7
  6
CONTINUOUS
 10
200.295095
 20
307.637300
 11
203.811468
 21
311.153673
  0
LINE
  8
2
 62
7
  6
CONTINUOUS
 10
198.888482
 20
307.637300
 11
199.923158
 21
308.671976
  0
LINE
  8
2
 62
7
  6
CONTINUOUS
 10
202.687824
 20
311.436639
 11
203.612516
 21
312.361331
  0
LINE
  8
2
 62
7
  6
CONTINUOUS
 10
197.481872
 20
307.637300
 11
199.230133
 21
309.385561
  0
LINE
  8
2
 62
7
  6
CONTINUOUS
 10
201.984519
 20
312.139944
 11
203.154003
 21
313.309428
  0
LINE
  8
2
 62
7
  6
CONTINUOUS
 10
196.075259
 20
307.637300
 11
196.560691
 21
308.122732
  0
LINE
  8
2
 62
7
  6
CONTINUOUS
 10
201.281211
 20
312.843252
 11
202.504605
 21
314.066646
  0
LINE
  8
2
 62
7
  6
CONTINUOUS
 10
196.945247
 20
308.507288
 11
197.033381
 21
308.595422
  0
LINE
  8
2
 62
7
  6
CONTINUOUS
 10
197.778287
 20
309.340328
 11
199.128755
 21
310.690796
  0
LINE
  8
2
 62
7
  6
CONTINUOUS
 10
194.668646
 20
307.637300
 11
195.154078
 21
308.122732
  0
LINE
  8
2
 62
7
  6
CONTINUOUS
 10
200.577906
 20
313.546557
 11
201.675854
 21
314.644505
  0
LINE
  8
2
 62
7
  6
CONTINUOUS
 10
195.879052
 20
308.847706
 11
196.255375
 21
309.224029
  0
LINE
  8
2
 62
7
  6
CONTINUOUS
 10
199.074835
 20
312.043487
 11
199.735242
 21
312.703893
  0
LINE
  8
2
 62
7
  6
CONTINUOUS
 10
196.695416
 20
309.664070
 11
196.822720
 21
309.791374
  0
LINE
  8
2
 62
7
  6
CONTINUOUS
 10
197.097911
 20
310.066562
 11
197.722145
 21
310.690796
  0
LINE
  8
2
 62
7
  6
CONTINUOUS
 10
193.262036
 20
307.637300
 11
194.211042
 21
308.586306
  0
LINE
  8
2
 62
7
  6
CONTINUOUS
 10
199.527357
 20
313.902622
 11
200.639205
 21
315.014470
  0
LINE
  8
2
 62
7
  6
CONTINUOUS
 10
194.663619
 20
309.038884
 11
195.231440
 21
309.606705
  0
LINE
  8
2
 62
7
  6
CONTINUOUS
 10
197.668222
 20
312.043487
 11
199.386358
 21
313.761619
  0
LINE
  8
2
 62
7
  6
CONTINUOUS
 10
195.598348
 20
309.973613
 11
196.315532
 21
310.690796
  0
LINE
  8
2
 62
7
  6
CONTINUOUS
 10
191.855422
 20
307.637300
 11
192.340855
 21
308.122732
  0
LINE
  8
2
 62
7
  6
CONTINUOUS
 10
196.261612
 20
312.043487
 11
199.315108
 21
315.096986
  0
LINE
  8
2
 62
7
  6
CONTINUOUS
 10
192.838167
 20
308.620045
 11
194.908922
 21
310.690796
  0
LINE
  8
2
 62
7
  6
CONTINUOUS
 10
190.448812
 20
307.637300
 11
192.262596
 21
309.451084
  0
LINE
  8
2
 62
7
  6
CONTINUOUS
 10
194.854999
 20
312.043487
 11
197.908498
 21
315.096986
  0
LINE
  8
2
 62
7
  6
CONTINUOUS
 10
192.759908
 20
309.948396
 11
193.502308
 21
310.690796
  0
LINE
  8
2
 62
7
  6
CONTINUOUS
 10
189.042199
 20
307.637300
 11
190.148025
 21
308.743126
  0
LINE
  8
2
 62
7
  6
CONTINUOUS
 10
193.448386
 20
312.043487
 11
196.501885
 21
315.096986
  0
LINE
  8
2
 62
7
  6
CONTINUOUS
 10
190.780858
 20
309.375959
 11
191.023546
 21
309.618647
  0
LINE
  8
2
 62
7
  6
CONTINUOUS
 10
191.520859
 20
310.115960
 11
192.095695
 21
310.690796
  0
LINE
  8
2
 62
7
  6
CONTINUOUS
 10
187.635586
 20
307.637300
 11
190.689085
 21
310.690796
  0
LINE
  8
2
 62
7
  6
CONTINUOUS
 10
192.041776
 20
312.043487
 11
195.095272
 21
315.096986
  0
LINE
  8
2
 62
7
  6
CONTINUOUS
 10
186.228976
 20
307.637300
 11
189.282472
 21
310.690796
  0
LINE
  8
2
 62
7
  6
CONTINUOUS
 10
190.635162
 20
312.043487
 11
193.688662
 21
315.096986
  0
LINE
  8
2
 62
7
  6
CONTINUOUS
 10
184.822363
 20
307.637300
 11
186.522235
 21
309.337169
  0
LINE
  8
2
 62
7
  6
CONTINUOUS
 10
189.228552
 20
312.043487
 11
192.282049
 21
315.096986
  0
LINE
  8
2
 62
7
  6
CONTINUOUS
 10
187.150717
 20
309.965651
 11
188.084964
 21
310.899898
  0
LINE
  8
2
 62
7
  6
CONTINUOUS
 10
183.415753
 20
307.637300
 11
185.115621
 21
309.337169
  0
LINE
  8
2
 62
7
  6
CONTINUOUS
 10
187.150717
 20
311.372262
 11
190.875438
 21
315.096986
  0
LINE
  8
2
 62
7
  6
CONTINUOUS
 10
185.559316
 20
309.780864
 11
186.156092
 21
310.377640
  0
LINE
  8
2
 62
7
  6
CONTINUOUS
 10
182.009139
 20
307.637300
 11
184.003422
 21
309.631583
  0
LINE
  8
2
 62
7
  6
CONTINUOUS
 10
187.150717
 20
312.778875
 11
189.468825
 21
315.096986
  0
LINE
  8
2
 62
7
  6
CONTINUOUS
 10
184.127134
 20
309.755295
 11
184.564691
 21
310.192852
  0
LINE
  8
2
 62
7
  6
CONTINUOUS
 10
180.602526
 20
307.637300
 11
182.345832
 21
309.380603
  0
LINE
  8
2
 62
7
  6
CONTINUOUS
 10
186.352508
 20
313.387282
 11
188.062212
 21
315.096986
  0
LINE
  8
2
 62
7
  6
CONTINUOUS
 10
183.525148
 20
310.559919
 11
184.564691
 21
311.599462
  0
LINE
  8
2
 62
7
  6
CONTINUOUS
 10
185.559316
 20
312.594087
 11
186.156092
 21
313.190863
  0
LINE
  8
2
 62
7
  6
CONTINUOUS
 10
179.195916
 20
307.637300
 11
181.635023
 21
310.076407
  0
LINE
  8
2
 62
7
  6
CONTINUOUS
 10
184.945898
 20
313.387282
 11
186.655602
 21
315.096986
  0
LINE
  8
2
 62
7
  6
CONTINUOUS
 10
182.514429
 20
310.955813
 11
183.824722
 21
312.266106
  0
LINE
  8
2
 62
7
  6
CONTINUOUS
 10
184.248313
 20
312.689694
 11
184.564691
 21
313.006072
  0
LINE
  8
2
 62
7
  6
CONTINUOUS
 10
177.789303
 20
307.637300
 11
179.527464
 21
309.375458
  0
LINE
  8
2
 62
7
  6
CONTINUOUS
 10
183.539157
 20
313.387151
 11
185.248989
 21
315.096986
  0
LINE
  8
2
 62
7
  6
CONTINUOUS
 10
180.522089
 20
310.370083
 11
181.519804
 21
311.367798
  0
LINE
  8
2
 62
7
  6
CONTINUOUS
 10
176.382693
 20
307.637300
 11
178.082562
 21
309.337169
  0
LINE
  8
2
 62
7
  6
CONTINUOUS
 10
181.516713
 20
312.771321
 11
183.842379
 21
315.096986
  0
LINE
  8
2
 62
7
  6
CONTINUOUS
 10
178.215683
 20
309.470291
 11
179.527464
 21
310.782071
  0
LINE
  8
2
 62
7
  6
CONTINUOUS
 10
180.522089
 20
311.776696
 11
181.138050
 21
312.392657
  0
LINE
  8
2
 62
7
  6
CONTINUOUS
 10
174.976080
 20
307.637300
 11
176.675948
 21
309.337169
  0
LINE
  8
2
 62
7
  6
CONTINUOUS
 10
180.726061
 20
313.387282
 11
182.435765
 21
315.096986
  0
LINE
  8
2
 62
7
  6
CONTINUOUS
 10
177.718371
 20
310.379591
 11
179.527464
 21
312.188684
  0
LINE
  8
2
 62
7
  6
CONTINUOUS
 10
173.569466
 20
307.637300
 11
175.269338
 21
309.337169
  0
LINE
  8
2
 62
7
  6
CONTINUOUS
 10
179.319448
 20
313.387282
 11
181.029152
 21
315.096986
  0
LINE
  8
2
 62
7
  6
CONTINUOUS
 10
175.633290
 20
309.701120
 11
176.226434
 21
310.294264
  0
LINE
  8
2
 62
7
  6
CONTINUOUS
 10
177.718371
 20
311.786201
 11
178.532839
 21
312.600670
  0
LINE
  8
2
 62
7
  6
CONTINUOUS
 10
176.263963
 20
310.331794
 11
176.723746
 21
310.791580
  0
LINE
  8
2
 62
7
  6
CONTINUOUS
 10
172.162856
 20
307.637300
 11
173.862725
 21
309.337169
  0
LINE
  8
2
 62
7
  6
CONTINUOUS
 10
177.912838
 20
313.387282
 11
179.622542
 21
315.096986
  0
LINE
  8
2
 62
7
  6
CONTINUOUS
 10
175.832441
 20
311.306885
 11
176.723746
 21
312.198190
  0
LINE
  8
2
 62
7
  6
CONTINUOUS
 10
170.756243
 20
307.637300
 11
173.457198
 21
310.338255
  0
LINE
  8
2
 62
7
  6
CONTINUOUS
 10
176.506225
 20
313.387282
 11
178.215929
 21
315.096986
  0
LINE
  8
2
 62
7
  6
CONTINUOUS
 10
176.031593
 20
312.912650
 11
176.226434
 21
313.107488
  0
LINE
  8
2
 62
7
  6
CONTINUOUS
 10
169.349633
 20
307.637300
 11
171.066001
 21
309.353668
  0
LINE
  8
2
 62
7
  6
CONTINUOUS
 10
175.099615
 20
313.387282
 11
176.809319
 21
315.096986
  0
LINE
  8
2
 62
7
  6
CONTINUOUS
 10
172.897581
 20
311.185252
 11
173.320009
 21
311.607676
  0
LINE
  8
2
 62
7
  6
CONTINUOUS
 10
174.835015
 20
313.122682
 11
175.086602
 21
313.374269
  0
LINE
  8
2
 62
7
  6
CONTINUOUS
 10
167.943020
 20
307.637300
 11
170.326343
 21
310.020623
  0
LINE
  8
2
 62
7
  6
CONTINUOUS
 10
173.693002
 20
313.387282
 11
175.402706
 21
315.096986
  0
LINE
  8
2
 62
7
  6
CONTINUOUS
 10
170.956223
 20
310.650503
 11
171.278993
 21
310.973271
  0
LINE
  8
2
 62
7
  6
CONTINUOUS
 10
172.918021
 20
312.612301
 11
173.182816
 21
312.877097
  0
LINE
  8
2
 62
7
  6
CONTINUOUS
 10
172.068379
 20
311.762656
 11
172.541318
 21
312.235595
  0
LINE
  8
2
 62
7
  6
CONTINUOUS
 10
166.536407
 20
307.637300
 11
168.236279
 21
309.337169
  0
LINE
  8
2
 62
7
  6
CONTINUOUS
 10
172.231112
 20
313.332002
 11
173.996092
 21
315.096986
  0
LINE
  8
2
 62
7
  6
CONTINUOUS
 10
168.968759
 20
310.069650
 11
170.482375
 21
311.583262
  0
LINE
  8
2
 62
7
  6
CONTINUOUS
 10
165.129796
 20
307.637300
 11
166.852666
 21
309.360170
  0
LINE
  8
2
 62
7
  6
CONTINUOUS
 10
169.167911
 20
311.675415
 11
172.589482
 21
315.096986
  0
LINE
  8
2
 62
7
  6
CONTINUOUS
 10
163.723183
 20
307.637300
 11
165.528143
 21
309.442257
  0
LINE
  8
2
 62
7
  6
CONTINUOUS
 10
169.367063
 20
313.281179
 11
171.182869
 21
315.096986
  0
LINE
  8
2
 62
7
  6
CONTINUOUS
 10
166.087334
 20
310.001447
 11
166.715477
 21
310.629591
  0
LINE
  8
2
 62
7
  6
CONTINUOUS
 10
162.316573
 20
307.637300
 11
164.111894
 21
309.432621
  0
LINE
  8
2
 62
7
  6
CONTINUOUS
 10
168.059938
 20
313.380665
 11
169.776259
 21
315.096986
  0
LINE
  8
2
 62
7
  6
CONTINUOUS
 10
165.011067
 20
310.331794
 11
165.230041
 21
310.550768
  0
LINE
  8
2
 62
7
  6
CONTINUOUS
 10
167.481130
 20
312.801857
 11
167.632272
 21
312.952999
  0
LINE
  8
2
 62
7
  6
CONTINUOUS
 10
166.234975
 20
311.555702
 11
166.578287
 21
311.899014
  0
LINE
  8
2
 62
7
  6
CONTINUOUS
 10
160.909960
 20
307.637300
 11
162.609832
 21
309.337169
  0
LINE
  8
2
 62
7
  6
CONTINUOUS
 10
166.659942
 20
313.387282
 11
168.369646
 21
315.096986
  0
LINE
  8
2
 62
7
  6
CONTINUOUS
 10
163.255498
 20
309.982835
 11
163.450438
 21
310.177779
  0
LINE
  8
2
 62
7
  6
CONTINUOUS
 10
166.038546
 20
312.765887
 11
166.441095
 21
313.168435
  0
LINE
  8
2
 62
7
  6
CONTINUOUS
 10
164.353598
 20
311.080936
 11
165.244545
 21
311.971882
  0
LINE
  8
2
 62
7
  6
CONTINUOUS
 10
159.503347
 20
307.637300
 11
161.203219
 21
309.337169
  0
LINE
  8
2
 62
7
  6
CONTINUOUS
 10
165.253329
 20
313.387282
 11
166.963033
 21
315.096986
  0
LINE
  8
2
 62
7
  6
CONTINUOUS
 10
162.197844
 20
310.331794
 11
163.358974
 21
311.492924
  0
LINE
  8
2
 62
7
  6
CONTINUOUS
 10
158.096737
 20
307.637300
 11
161.085261
 21
310.625825
  0
LINE
  8
2
 62
7
  6
CONTINUOUS
 10
162.079886
 20
311.620446
 11
165.556423
 21
315.096986
  0
LINE
  8
2
 62
7
  6
CONTINUOUS
 10
156.690124
 20
307.637300
 11
158.389995
 21
309.337169
  0
LINE
  8
2
 62
7
  6
CONTINUOUS
 10
162.079886
 20
313.027059
 11
164.149809
 21
315.096986
  0
LINE
  8
2
 62
7
  6
CONTINUOUS
 10
159.366550
 20
310.313723
 11
159.917738
 21
310.864912
  0
LINE
  8
2
 62
7
  6
CONTINUOUS
 10
160.381066
 20
311.328243
 11
161.085261
 21
312.032435
  0
LINE
  8
2
 62
7
  6
CONTINUOUS
 10
156.069631
 20
308.423417
 11
158.371925
 21
310.725708
  0
LINE
  8
2
 62
7
  6
CONTINUOUS
 10
160.799802
 20
313.153589
 11
162.743199
 21
315.096986
  0
LINE
  8
2
 62
7
  6
CONTINUOUS
 10
159.505750
 20
311.859536
 11
160.038870
 21
312.392657
  0
LINE
  8
2
 62
7
  6
CONTINUOUS
 10
156.069631
 20
309.830031
 11
158.371925
 21
312.132322
  0
LINE
  8
2
 62
7
  6
CONTINUOUS
 10
159.626882
 20
313.387282
 11
161.336586
 21
315.096986
  0
LINE
  8
2
 62
7
  6
CONTINUOUS
 10
156.071442
 20
311.238449
 11
159.928165
 21
315.095175
  0
LINE
  8
2
 62
7
  6
CONTINUOUS
 10
156.711058
 20
313.284678
 11
157.881936
 21
314.455559
  0
LINE
  8
2
 62
7
  6
CONTINUOUS
 10
171.929147
 20
287.518911
 11
169.576410
 21
287.518911
  0
LINE
  8
2
 62
7
  6
CONTINUOUS
 10
169.576410
 20
287.518911
 11
169.262037
 21
287.336373
  0
LINE
  8
2
 62
7
  6
CONTINUOUS
 10
169.262037
 20
287.336373
 11
168.967941
 21
286.859740
  0
LINE
  8
2
 62
7
  6
CONTINUOUS
 10
168.967941
 20
286.859740
 11
168.967941
 21
286.484519
  0
LINE
  8
2
 62
7
  6
CONTINUOUS
 10
168.967941
 20
286.484519
 11
169.758948
 21
285.135750
  0
LINE
  8
2
 62
7
  6
CONTINUOUS
 10
169.758948
 20
285.135750
 11
169.647395
 21
284.932926
  0
LINE
  8
2
 62
7
  6
CONTINUOUS
 10
169.647395
 20
284.932926
 11
167.933552
 21
284.932926
  0
LINE
  8
2
 62
7
  6
CONTINUOUS
 10
167.933552
 20
284.932926
 11
167.517763
 21
284.263615
  0
LINE
  8
2
 62
7
  6
CONTINUOUS
 10
167.517763
 20
284.263615
 11
169.809655
 21
284.263615
  0
LINE
  8
2
 62
7
  6
CONTINUOUS
 10
169.809655
 20
284.263615
 11
170.103748
 21
284.405591
  0
LINE
  8
2
 62
7
  6
CONTINUOUS
 10
170.103748
 20
284.405591
 11
170.448546
 21
285.014057
  0
LINE
  8
2
 62
7
  6
CONTINUOUS
 10
170.448546
 20
285.014057
 11
170.468826
 21
285.338571
  0
LINE
  8
2
 62
7
  6
CONTINUOUS
 10
170.468826
 20
285.338571
 11
169.637258
 21
286.677199
  0
LINE
  8
2
 62
7
  6
CONTINUOUS
 10
169.637258
 20
286.677199
 11
169.738667
 21
286.859740
  0
LINE
  8
2
 62
7
  6
CONTINUOUS
 10
169.738667
 20
286.859740
 11
171.564066
 21
286.859740
  0
LINE
  8
2
 62
7
  6
CONTINUOUS
 10
171.564066
 20
286.859740
 11
171.929147
 21
287.518911
  0
LINE
  8
2
 62
7
  6
CONTINUOUS
 10
171.929147
 20
287.518911
 11
169.576410
 21
287.518911
  0
LINE
  8
2
 62
7
  6
CONTINUOUS
 10
172.821567
 20
287.518911
 11
172.466629
 21
287.265385
  0
LINE
  8
2
 62
7
  6
CONTINUOUS
 10
172.466629
 20
287.265385
 11
170.773059
 21
284.263615
  0
LINE
  8
2
 62
7
  6
CONTINUOUS
 10
170.773059
 20
284.263615
 11
171.594490
 21
284.263615
  0
LINE
  8
2
 62
7
  6
CONTINUOUS
 10
171.594490
 20
284.263615
 11
172.963543
 21
286.636635
  0
LINE
  8
2
 62
7
  6
CONTINUOUS
 10
172.963543
 20
286.636635
 11
173.044668
 21
286.636635
  0
LINE
  8
2
 62
7
  6
CONTINUOUS
 10
173.044668
 20
286.636635
 11
173.044668
 21
284.932926
  0
LINE
  8
2
 62
7
  6
CONTINUOUS
 10
173.044668
 20
284.932926
 11
172.517333
 21
284.932926
  0
LINE
  8
2
 62
7
  6
CONTINUOUS
 10
172.517333
 20
284.932926
 11
172.517333
 21
284.263615
  0
LINE
  8
2
 62
7
  6
CONTINUOUS
 10
172.517333
 20
284.263615
 11
173.338764
 21
284.263615
  0
LINE
  8
2
 62
7
  6
CONTINUOUS
 10
173.338764
 20
284.263615
 11
173.703842
 21
284.638836
  0
LINE
  8
2
 62
7
  6
CONTINUOUS
 10
173.703842
 20
284.638836
 11
173.703842
 21
287.153833
  0
LINE
  8
2
 62
7
  6
CONTINUOUS
 10
173.703842
 20
287.153833
 11
173.338764
 21
287.518911
  0
LINE
  8
2
 62
7
  6
CONTINUOUS
 10
173.338764
 20
287.518911
 11
172.821567
 21
287.518911
  0
LINE
  8
2
 62
7
  6
CONTINUOUS
 10
174.373153
 20
287.518911
 11
173.997932
 21
287.153833
  0
LINE
  8
2
 62
7
  6
CONTINUOUS
 10
173.997932
 20
287.153833
 11
173.997932
 21
284.638836
  0
LINE
  8
2
 62
7
  6
CONTINUOUS
 10
173.997932
 20
284.638836
 11
174.373153
 21
284.263615
  0
LINE
  8
2
 62
7
  6
CONTINUOUS
 10
174.373153
 20
284.263615
 11
176.441944
 21
284.263615
  0
LINE
  8
2
 62
7
  6
CONTINUOUS
 10
176.441944
 20
284.263615
 11
176.786738
 21
284.770669
  0
LINE
  8
2
 62
7
  6
CONTINUOUS
 10
176.786738
 20
284.770669
 11
176.279684
 21
286.038309
  0
LINE
  8
2
 62
7
  6
CONTINUOUS
 10
176.279684
 20
286.038309
 11
175.478537
 21
286.038309
  0
LINE
  8
2
 62
7
  6
CONTINUOUS
 10
175.478537
 20
286.038309
 11
175.478537
 21
285.379135
  0
LINE
  8
2
 62
7
  6
CONTINUOUS
 10
175.478537
 20
285.379135
 11
175.833478
 21
285.379135
  0
LINE
  8
2
 62
7
  6
CONTINUOUS
 10
175.833478
 20
285.379135
 11
176.005878
 21
284.932926
  0
LINE
  8
2
 62
7
  6
CONTINUOUS
 10
176.005878
 20
284.932926
 11
174.667249
 21
284.932926
  0
LINE
  8
2
 62
7
  6
CONTINUOUS
 10
174.667249
 20
284.932926
 11
174.667249
 21
286.859740
  0
LINE
  8
2
 62
7
  6
CONTINUOUS
 10
174.667249
 20
286.859740
 11
176.665046
 21
286.859740
  0
LINE
  8
2
 62
7
  6
CONTINUOUS
 10
176.665046
 20
286.859740
 11
176.665046
 21
287.518911
  0
LINE
  8
2
 62
7
  6
CONTINUOUS
 10
176.665046
 20
287.518911
 11
174.373153
 21
287.518911
  0
LINE
  8
2
 62
7
  6
CONTINUOUS
 10
177.182243
 20
287.518911
 11
177.182243
 21
284.263615
  0
LINE
  8
2
 62
7
  6
CONTINUOUS
 10
177.182243
 20
284.263615
 11
177.851558
 21
284.263615
  0
LINE
  8
2
 62
7
  6
CONTINUOUS
 10
177.851558
 20
284.263615
 11
177.851558
 21
287.518911
  0
LINE
  8
2
 62
7
  6
CONTINUOUS
 10
177.851558
 20
287.518911
 11
177.182243
 21
287.518911
  0
LINE
  8
2
 62
7
  6
CONTINUOUS
 10
178.145647
 20
286.332402
 11
178.145647
 21
284.263615
  0
LINE
  8
2
 62
7
  6
CONTINUOUS
 10
178.145647
 20
284.263615
 11
178.743977
 21
284.263615
  0
LINE
  8
2
 62
7
  6
CONTINUOUS
 10
178.743977
 20
284.263615
 11
178.743977
 21
285.703655
  0
LINE
  8
2
 62
7
  6
CONTINUOUS
 10
178.743977
 20
285.703655
 11
179.342300
 21
285.703655
  0
LINE
  8
2
 62
7
  6
CONTINUOUS
 10
179.342300
 20
285.703655
 11
179.342300
 21
284.263615
  0
LINE
  8
2
 62
7
  6
CONTINUOUS
 10
179.342300
 20
284.263615
 11
179.920342
 21
284.263615
  0
LINE
  8
2
 62
7
  6
CONTINUOUS
 10
179.920342
 20
284.263615
 11
179.920342
 21
285.967321
  0
LINE
  8
2
 62
7
  6
CONTINUOUS
 10
179.920342
 20
285.967321
 11
179.555264
 21
286.332402
  0
LINE
  8
2
 62
7
  6
CONTINUOUS
 10
179.555264
 20
286.332402
 11
179.109055
 21
286.332402
  0
LINE
  8
2
 62
7
  6
CONTINUOUS
 10
179.109055
 20
286.332402
 11
178.743977
 21
285.967321
  0
LINE
  8
2
 62
7
  6
CONTINUOUS
 10
178.743977
 20
285.967321
 11
178.743977
 21
286.332402
  0
LINE
  8
2
 62
7
  6
CONTINUOUS
 10
178.743977
 20
286.332402
 11
178.145647
 21
286.332402
  0
LINE
  8
2
 62
7
  6
CONTINUOUS
 10
180.589656
 20
286.332402
 11
180.224575
 21
285.967321
  0
LINE
  8
2
 62
7
  6
CONTINUOUS
 10
180.224575
 20
285.967321
 11
180.224575
 21
284.638836
  0
LINE
  8
2
 62
7
  6
CONTINUOUS
 10
180.224575
 20
284.638836
 11
180.589656
 21
284.263615
  0
LINE
  8
2
 62
7
  6
CONTINUOUS
 10
180.589656
 20
284.263615
 11
181.624052
 21
284.263615
  0
LINE
  8
2
 62
7
  6
CONTINUOUS
 10
181.624052
 20
284.263615
 11
181.999273
 21
284.638836
  0
LINE
  8
2
 62
7
  6
CONTINUOUS
 10
181.999273
 20
284.638836
 11
181.999273
 21
285.967321
  0
LINE
  8
2
 62
7
  6
CONTINUOUS
 10
181.999273
 20
285.967321
 11
181.624052
 21
286.332402
  0
LINE
  8
2
 62
7
  6
CONTINUOUS
 10
181.624052
 20
286.332402
 11
180.589656
 21
286.332402
  0
LINE
  8
2
 62
7
  6
CONTINUOUS
 10
180.812761
 20
285.744219
 11
180.812761
 21
284.851800
  0
LINE
  8
2
 62
7
  6
CONTINUOUS
 10
180.812761
 20
284.851800
 11
181.400947
 21
284.851800
  0
LINE
  8
2
 62
7
  6
CONTINUOUS
 10
181.400947
 20
284.851800
 11
181.400947
 21
285.744219
  0
LINE
  8
2
 62
7
  6
CONTINUOUS
 10
181.400947
 20
285.744219
 11
180.812761
 21
285.744219
  0
LINE
  8
2
 62
7
  6
CONTINUOUS
 10
182.668584
 20
287.518911
 11
182.293363
 21
287.153833
  0
LINE
  8
2
 62
7
  6
CONTINUOUS
 10
182.293363
 20
287.153833
 11
182.293363
 21
284.263615
  0
LINE
  8
2
 62
7
  6
CONTINUOUS
 10
182.293363
 20
284.263615
 11
182.881549
 21
284.263615
  0
LINE
  8
2
 62
7
  6
CONTINUOUS
 10
182.881549
 20
284.263615
 11
182.881549
 21
286.930728
  0
LINE
  8
2
 62
7
  6
CONTINUOUS
 10
182.881549
 20
286.930728
 11
183.165501
 21
286.930728
  0
LINE
  8
2
 62
7
  6
CONTINUOUS
 10
183.165501
 20
286.930728
 11
183.601567
 21
284.567848
  0
LINE
  8
2
 62
7
  6
CONTINUOUS
 10
183.601567
 20
284.567848
 11
183.966645
 21
284.263615
  0
LINE
  8
2
 62
7
  6
CONTINUOUS
 10
183.966645
 20
284.263615
 11
184.463562
 21
284.263615
  0
LINE
  8
2
 62
7
  6
CONTINUOUS
 10
184.463562
 20
284.263615
 11
184.828643
 21
284.567848
  0
LINE
  8
2
 62
7
  6
CONTINUOUS
 10
184.828643
 20
284.567848
 11
185.274853
 21
286.930728
  0
LINE
  8
2
 62
7
  6
CONTINUOUS
 10
185.274853
 20
286.930728
 11
185.548662
 21
286.930728
  0
LINE
  8
2
 62
7
  6
CONTINUOUS
 10
185.548662
 20
286.930728
 11
185.548662
 21
284.263615
  0
LINE
  8
2
 62
7
  6
CONTINUOUS
 10
185.548662
 20
284.263615
 11
186.146985
 21
284.263615
  0
LINE
  8
2
 62
7
  6
CONTINUOUS
 10
186.146985
 20
284.263615
 11
186.146985
 21
287.153833
  0
LINE
  8
2
 62
7
  6
CONTINUOUS
 10
186.146985
 20
287.153833
 11
185.771764
 21
287.518911
  0
LINE
  8
2
 62
7
  6
CONTINUOUS
 10
185.771764
 20
287.518911
 11
184.940196
 21
287.518911
  0
LINE
  8
2
 62
7
  6
CONTINUOUS
 10
184.940196
 20
287.518911
 11
184.554831
 21
287.153833
  0
LINE
  8
2
 62
7
  6
CONTINUOUS
 10
184.554831
 20
287.153833
 11
184.220177
 21
285.156034
  0
LINE
  8
2
 62
7
  6
CONTINUOUS
 10
184.220177
 20
285.156034
 11
183.855093
 21
287.153833
  0
LINE
  8
2
 62
7
  6
CONTINUOUS
 10
183.855093
 20
287.153833
 11
183.601567
 21
287.518911
  0
LINE
  8
2
 62
7
  6
CONTINUOUS
 10
183.601567
 20
287.518911
 11
182.668584
 21
287.518911
  0
LINE
  8
2
 62
7
  6
CONTINUOUS
 10
186.441081
 20
287.518911
 11
186.441081
 21
284.263615
  0
LINE
  8
2
 62
7
  6
CONTINUOUS
 10
186.441081
 20
284.263615
 11
187.029264
 21
284.263615
  0
LINE
  8
2
 62
7
  6
CONTINUOUS
 10
187.029264
 20
284.263615
 11
187.029264
 21
287.518911
  0
LINE
  8
2
 62
7
  6
CONTINUOUS
 10
187.029264
 20
287.518911
 11
186.441081
 21
287.518911
  0
LINE
  8
2
 62
7
  6
CONTINUOUS
 10
187.323357
 20
287.518911
 11
188.732970
 21
285.744219
  0
LINE
  8
2
 62
7
  6
CONTINUOUS
 10
188.732970
 20
285.744219
 11
188.256337
 21
284.851800
  0
LINE
  8
2
 62
7
  6
CONTINUOUS
 10
188.256337
 20
284.851800
 11
187.323357
 21
284.851800
  0
LINE
  8
2
 62
7
  6
CONTINUOUS
 10
187.323357
 20
284.851800
 11
187.323357
 21
284.263615
  0
LINE
  8
2
 62
7
  6
CONTINUOUS
 10
187.323357
 20
284.263615
 11
188.509866
 21
284.263615
  0
LINE
  8
2
 62
7
  6
CONTINUOUS
 10
188.509866
 20
284.263615
 11
188.834383
 21
284.446155
  0
LINE
  8
2
 62
7
  6
CONTINUOUS
 10
188.834383
 20
284.446155
 11
190.588797
 21
287.518911
  0
LINE
  8
2
 62
7
  6
CONTINUOUS
 10
190.588797
 20
287.518911
 11
189.767366
 21
287.518911
  0
LINE
  8
2
 62
7
  6
CONTINUOUS
 10
189.767366
 20
287.518911
 11
189.108192
 21
286.413531
  0
LINE
  8
2
 62
7
  6
CONTINUOUS
 10
189.108192
 20
286.413531
 11
188.215773
 21
287.518911
  0
LINE
  8
2
 62
7
  6
CONTINUOUS
 10
188.215773
 20
287.518911
 11
187.323357
 21
287.518911
  0
LINE
  8
2
 62
7
  6
CONTINUOUS
 10
191.511637
 20
287.518911
 11
191.197263
 21
287.336373
  0
LINE
  8
2
 62
7
  6
CONTINUOUS
 10
191.197263
 20
287.336373
 11
189.432709
 21
284.263615
  0
LINE
  8
2
 62
7
  6
CONTINUOUS
 10
189.432709
 20
284.263615
 11
190.243996
 21
284.263615
  0
LINE
  8
2
 62
7
  6
CONTINUOUS
 10
190.243996
 20
284.263615
 11
191.623186
 21
286.636635
  0
LINE
  8
2
 62
7
  6
CONTINUOUS
 10
191.623186
 20
286.636635
 11
191.694174
 21
286.636635
  0
LINE
  8
2
 62
7
  6
CONTINUOUS
 10
191.694174
 20
286.636635
 11
191.694174
 21
284.932926
  0
LINE
  8
2
 62
7
  6
CONTINUOUS
 10
191.694174
 20
284.932926
 11
191.176983
 21
284.932926
  0
LINE
  8
2
 62
7
  6
CONTINUOUS
 10
191.176983
 20
284.932926
 11
191.176983
 21
284.263615
  0
LINE
  8
2
 62
7
  6
CONTINUOUS
 10
191.176983
 20
284.263615
 11
191.988270
 21
284.263615
  0
LINE
  8
2
 62
7
  6
CONTINUOUS
 10
191.988270
 20
284.263615
 11
192.363491
 21
284.638836
  0
LINE
  8
2
 62
7
  6
CONTINUOUS
 10
192.363491
 20
284.638836
 11
192.363491
 21
287.153833
  0
LINE
  8
2
 62
7
  6
CONTINUOUS
 10
192.363491
 20
287.153833
 11
191.988270
 21
287.518911
  0
LINE
  8
2
 62
7
  6
CONTINUOUS
 10
191.988270
 20
287.518911
 11
191.511637
 21
287.518911
  0
LINE
  8
2
 62
7
  6
CONTINUOUS
 10
167.569211
 20
284.346433
 11
169.981209
 21
284.346433
  0
LINE
  8
2
 62
7
  6
CONTINUOUS
 10
191.176983
 20
284.346433
 11
192.071088
 21
284.346433
  0
LINE
  8
2
 62
7
  6
CONTINUOUS
 10
170.819786
 20
284.346433
 11
171.642272
 21
284.346433
  0
LINE
  8
2
 62
7
  6
CONTINUOUS
 10
189.480270
 20
284.346433
 11
190.292133
 21
284.346433
  0
LINE
  8
2
 62
7
  6
CONTINUOUS
 10
172.517333
 20
284.346433
 11
173.419345
 21
284.346433
  0
LINE
  8
2
 62
7
  6
CONTINUOUS
 10
187.323357
 20
284.346433
 11
188.657099
 21
284.346433
  0
LINE
  8
2
 62
7
  6
CONTINUOUS
 10
174.290335
 20
284.346433
 11
176.498260
 21
284.346433
  0
LINE
  8
2
 62
7
  6
CONTINUOUS
 10
186.441081
 20
284.346433
 11
187.029264
 21
284.346433
  0
LINE
  8
2
 62
7
  6
CONTINUOUS
 10
177.182243
 20
284.346433
 11
177.851558
 21
284.346433
  0
LINE
  8
2
 62
7
  6
CONTINUOUS
 10
185.548662
 20
284.346433
 11
186.146985
 21
284.346433
  0
LINE
  8
2
 62
7
  6
CONTINUOUS
 10
178.145647
 20
284.346433
 11
178.743977
 21
284.346433
  0
LINE
  8
2
 62
7
  6
CONTINUOUS
 10
183.867263
 20
284.346433
 11
184.562945
 21
284.346433
  0
LINE
  8
2
 62
7
  6
CONTINUOUS
 10
179.342300
 20
284.346433
 11
179.920342
 21
284.346433
  0
LINE
  8
2
 62
7
  6
CONTINUOUS
 10
182.293363
 20
284.346433
 11
182.881549
 21
284.346433
  0
LINE
  8
2
 62
7
  6
CONTINUOUS
 10
180.509076
 20
284.346433
 11
181.706870
 21
284.346433
  0
LINE
  8
2
 62
7
  6
CONTINUOUS
 10
167.672108
 20
284.512073
 11
170.164086
 21
284.512073
  0
LINE
  8
2
 62
7
  6
CONTINUOUS
 10
191.176983
 20
284.512073
 11
192.236729
 21
284.512073
  0
LINE
  8
2
 62
7
  6
CONTINUOUS
 10
170.913237
 20
284.512073
 11
171.737830
 21
284.512073
  0
LINE
  8
2
 62
7
  6
CONTINUOUS
 10
189.575388
 20
284.512073
 11
190.388400
 21
284.512073
  0
LINE
  8
2
 62
7
  6
CONTINUOUS
 10
172.517333
 20
284.512073
 11
173.580503
 21
284.512073
  0
LINE
  8
2
 62
7
  6
CONTINUOUS
 10
187.323357
 20
284.512073
 11
188.872015
 21
284.512073
  0
LINE
  8
2
 62
7
  6
CONTINUOUS
 10
174.124698
 20
284.512073
 11
176.610893
 21
284.512073
  0
LINE
  8
2
 62
7
  6
CONTINUOUS
 10
186.441081
 20
284.512073
 11
187.029264
 21
284.512073
  0
LINE
  8
2
 62
7
  6
CONTINUOUS
 10
177.182243
 20
284.512073
 11
177.851558
 21
284.512073
  0
LINE
  8
2
 62
7
  6
CONTINUOUS
 10
185.548662
 20
284.512073
 11
186.146985
 21
284.512073
  0
LINE
  8
2
 62
7
  6
CONTINUOUS
 10
178.145647
 20
284.512073
 11
178.743977
 21
284.512073
  0
LINE
  8
2
 62
7
  6
CONTINUOUS
 10
183.668500
 20
284.512073
 11
184.761711
 21
284.512073
  0
LINE
  8
2
 62
7
  6
CONTINUOUS
 10
179.342300
 20
284.512073
 11
179.920342
 21
284.512073
  0
LINE
  8
2
 62
7
  6
CONTINUOUS
 10
182.293363
 20
284.512073
 11
182.881549
 21
284.512073
  0
LINE
  8
2
 62
7
  6
CONTINUOUS
 10
180.347914
 20
284.512073
 11
181.872507
 21
284.512073
  0
LINE
  8
2
 62
7
  6
CONTINUOUS
 10
167.775005
 20
284.677710
 11
170.257947
 21
284.677710
  0
LINE
  8
2
 62
7
  6
CONTINUOUS
 10
191.176983
 20
284.677710
 11
192.363491
 21
284.677710
  0
LINE
  8
2
 62
7
  6
CONTINUOUS
 10
171.006687
 20
284.677710
 11
171.833391
 21
284.677710
  0
LINE
  8
2
 62
7
  6
CONTINUOUS
 10
189.670507
 20
284.677710
 11
190.484667
 21
284.677710
  0
LINE
  8
2
 62
7
  6
CONTINUOUS
 10
172.517333
 20
284.677710
 11
173.703842
 21
284.677710
  0
LINE
  8
2
 62
7
  6
CONTINUOUS
 10
187.323357
 20
284.677710
 11
188.966589
 21
284.677710
  0
LINE
  8
2
 62
7
  6
CONTINUOUS
 10
173.997932
 20
284.677710
 11
176.723528
 21
284.677710
  0
LINE
  8
2
 62
7
  6
CONTINUOUS
 10
186.441081
 20
284.677710
 11
187.029264
 21
284.677710
  0
LINE
  8
2
 62
7
  6
CONTINUOUS
 10
177.182243
 20
284.677710
 11
177.851558
 21
284.677710
  0
LINE
  8
2
 62
7
  6
CONTINUOUS
 10
185.548662
 20
284.677710
 11
186.146985
 21
284.677710
  0
LINE
  8
2
 62
7
  6
CONTINUOUS
 10
178.145647
 20
284.677710
 11
178.743977
 21
284.677710
  0
LINE
  8
2
 62
7
  6
CONTINUOUS
 10
183.581293
 20
284.677710
 11
184.849391
 21
284.677710
  0
LINE
  8
2
 62
7
  6
CONTINUOUS
 10
179.342300
 20
284.677710
 11
179.920342
 21
284.677710
  0
LINE
  8
2
 62
7
  6
CONTINUOUS
 10
182.293363
 20
284.677710
 11
182.881549
 21
284.677710
  0
LINE
  8
2
 62
7
  6
CONTINUOUS
 10
180.224575
 20
284.677710
 11
181.999273
 21
284.677710
  0
LINE
  8
2
 62
7
  6
CONTINUOUS
 10
167.877905
 20
284.843347
 11
170.351812
 21
284.843347
  0
LINE
  8
2
 62
7
  6
CONTINUOUS
 10
191.176983
 20
284.843347
 11
192.363491
 21
284.843347
  0
LINE
  8
2
 62
7
  6
CONTINUOUS
 10
171.100138
 20
284.843347
 11
171.928951
 21
284.843347
  0
LINE
  8
2
 62
7
  6
CONTINUOUS
 10
189.765626
 20
284.843347
 11
190.580938
 21
284.843347
  0
LINE
  8
2
 62
7
  6
CONTINUOUS
 10
172.517333
 20
284.843347
 11
173.703842
 21
284.843347
  0
LINE
  8
2
 62
7
  6
CONTINUOUS
 10
187.323357
 20
284.843347
 11
189.061160
 21
284.843347
  0
LINE
  8
2
 62
7
  6
CONTINUOUS
 10
173.997932
 20
284.843347
 11
176.757668
 21
284.843347
  0
LINE
  8
2
 62
7
  6
CONTINUOUS
 10
186.441081
 20
284.843347
 11
187.029264
 21
284.843347
  0
LINE
  8
2
 62
7
  6
CONTINUOUS
 10
177.182243
 20
284.843347
 11
177.851558
 21
284.843347
  0
LINE
  8
2
 62
7
  6
CONTINUOUS
 10
185.548662
 20
284.843347
 11
186.146985
 21
284.843347
  0
LINE
  8
2
 62
7
  6
CONTINUOUS
 10
178.145647
 20
284.843347
 11
178.743977
 21
284.843347
  0
LINE
  8
2
 62
7
  6
CONTINUOUS
 10
183.550723
 20
284.843347
 11
184.880668
 21
284.843347
  0
LINE
  8
2
 62
7
  6
CONTINUOUS
 10
179.342300
 20
284.843347
 11
179.920342
 21
284.843347
  0
LINE
  8
2
 62
7
  6
CONTINUOUS
 10
182.293363
 20
284.843347
 11
182.881549
 21
284.843347
  0
LINE
  8
2
 62
7
  6
CONTINUOUS
 10
180.224575
 20
284.843347
 11
181.999273
 21
284.843347
  0
LINE
  8
2
 62
7
  6
CONTINUOUS
 10
169.689230
 20
285.008987
 11
170.445673
 21
285.008987
  0
LINE
  8
2
 62
7
  6
CONTINUOUS
 10
191.694174
 20
285.008987
 11
192.363491
 21
285.008987
  0
LINE
  8
2
 62
7
  6
CONTINUOUS
 10
171.193592
 20
285.008987
 11
172.024512
 21
285.008987
  0
LINE
  8
2
 62
7
  6
CONTINUOUS
 10
189.860745
 20
285.008987
 11
190.677205
 21
285.008987
  0
LINE
  8
2
 62
7
  6
CONTINUOUS
 10
173.044668
 20
285.008987
 11
173.703842
 21
285.008987
  0
LINE
  8
2
 62
7
  6
CONTINUOUS
 10
188.340288
 20
285.008987
 11
189.155734
 21
285.008987
  0
LINE
  8
2
 62
7
  6
CONTINUOUS
 10
173.997932
 20
285.008987
 11
174.667249
 21
285.008987
  0
LINE
  8
2
 62
7
  6
CONTINUOUS
 10
186.441081
 20
285.008987
 11
187.029264
 21
285.008987
  0
LINE
  8
2
 62
7
  6
CONTINUOUS
 10
175.976490
 20
285.008987
 11
176.691414
 21
285.008987
  0
LINE
  8
2
 62
7
  6
CONTINUOUS
 10
185.548662
 20
285.008987
 11
186.146985
 21
285.008987
  0
LINE
  8
2
 62
7
  6
CONTINUOUS
 10
177.182243
 20
285.008987
 11
177.851558
 21
285.008987
  0
LINE
  8
2
 62
7
  6
CONTINUOUS
 10
183.520156
 20
285.008987
 11
184.911948
 21
285.008987
  0
LINE
  8
2
 62
7
  6
CONTINUOUS
 10
178.145647
 20
285.008987
 11
178.743977
 21
285.008987
  0
LINE
  8
2
 62
7
  6
CONTINUOUS
 10
182.293363
 20
285.008987
 11
182.881549
 21
285.008987
  0
LINE
  8
2
 62
7
  6
CONTINUOUS
 10
179.342300
 20
285.008987
 11
179.920342
 21
285.008987
  0
LINE
  8
2
 62
7
  6
CONTINUOUS
 10
181.400947
 20
285.008987
 11
181.999273
 21
285.008987
  0
LINE
  8
2
 62
7
  6
CONTINUOUS
 10
180.224575
 20
285.008987
 11
180.812761
 21
285.008987
  0
LINE
  8
2
 62
7
  6
CONTINUOUS
 10
169.736149
 20
285.174624
 11
170.458580
 21
285.174624
  0
LINE
  8
2
 62
7
  6
CONTINUOUS
 10
191.694174
 20
285.174624
 11
192.363491
 21
285.174624
  0
LINE
  8
2
 62
7
  6
CONTINUOUS
 10
171.287042
 20
285.174624
 11
172.120073
 21
285.174624
  0
LINE
  8
2
 62
7
  6
CONTINUOUS
 10
189.955864
 20
285.174624
 11
190.773472
 21
285.174624
  0
LINE
  8
2
 62
7
  6
CONTINUOUS
 10
173.044668
 20
285.174624
 11
173.703842
 21
285.174624
  0
LINE
  8
2
 62
7
  6
CONTINUOUS
 10
188.428756
 20
285.174624
 11
189.250305
 21
285.174624
  0
LINE
  8
2
 62
7
  6
CONTINUOUS
 10
173.997932
 20
285.174624
 11
174.667249
 21
285.174624
  0
LINE
  8
2
 62
7
  6
CONTINUOUS
 10
186.441081
 20
285.174624
 11
187.029264
 21
285.174624
  0
LINE
  8
2
 62
7
  6
CONTINUOUS
 10
175.912493
 20
285.174624
 11
176.625157
 21
285.174624
  0
LINE
  8
2
 62
7
  6
CONTINUOUS
 10
185.548662
 20
285.174624
 11
186.146985
 21
285.174624
  0
LINE
  8
2
 62
7
  6
CONTINUOUS
 10
177.182243
 20
285.174624
 11
177.851558
 21
285.174624
  0
LINE
  8
2
 62
7
  6
CONTINUOUS
 10
184.223290
 20
285.174624
 11
184.943227
 21
285.174624
  0
LINE
  8
2
 62
7
  6
CONTINUOUS
 10
178.145647
 20
285.174624
 11
178.743977
 21
285.174624
  0
LINE
  8
2
 62
7
  6
CONTINUOUS
 10
183.489589
 20
285.174624
 11
184.216778
 21
285.174624
  0
LINE
  8
2
 62
7
  6
CONTINUOUS
 10
179.342300
 20
285.174624
 11
179.920342
 21
285.174624
  0
LINE
  8
2
 62
7
  6
CONTINUOUS
 10
182.293363
 20
285.174624
 11
182.881549
 21
285.174624
  0
LINE
  8
2
 62
7
  6
CONTINUOUS
 10
180.224575
 20
285.174624
 11
180.812761
 21
285.174624
  0
LINE
  8
2
 62
7
  6
CONTINUOUS
 10
181.400947
 20
285.174624
 11
181.999273
 21
285.174624
  0
LINE
  8
2
 62
7
  6
CONTINUOUS
 10
169.639007
 20
285.340264
 11
170.467774
 21
285.340264
  0
LINE
  8
2
 62
7
  6
CONTINUOUS
 10
191.694174
 20
285.340264
 11
192.363491
 21
285.340264
  0
LINE
  8
2
 62
7
  6
CONTINUOUS
 10
171.380493
 20
285.340264
 11
172.215634
 21
285.340264
  0
LINE
  8
2
 62
7
  6
CONTINUOUS
 10
190.050982
 20
285.340264
 11
190.869740
 21
285.340264
  0
LINE
  8
2
 62
7
  6
CONTINUOUS
 10
173.044668
 20
285.340264
 11
173.703842
 21
285.340264
  0
LINE
  8
2
 62
7
  6
CONTINUOUS
 10
188.517220
 20
285.340264
 11
189.344879
 21
285.340264
  0
LINE
  8
2
 62
7
  6
CONTINUOUS
 10
173.997932
 20
285.340264
 11
174.667249
 21
285.340264
  0
LINE
  8
2
 62
7
  6
CONTINUOUS
 10
186.441081
 20
285.340264
 11
187.029264
 21
285.340264
  0
LINE
  8
2
 62
7
  6
CONTINUOUS
 10
175.848498
 20
285.340264
 11
176.558903
 21
285.340264
  0
LINE
  8
2
 62
7
  6
CONTINUOUS
 10
185.548662
 20
285.340264
 11
186.146985
 21
285.340264
  0
LINE
  8
2
 62
7
  6
CONTINUOUS
 10
177.182243
 20
285.340264
 11
177.851558
 21
285.340264
  0
LINE
  8
2
 62
7
  6
CONTINUOUS
 10
184.251037
 20
285.340264
 11
184.974507
 21
285.340264
  0
LINE
  8
2
 62
7
  6
CONTINUOUS
 10
178.145647
 20
285.340264
 11
178.743977
 21
285.340264
  0
LINE
  8
2
 62
7
  6
CONTINUOUS
 10
183.459018
 20
285.340264
 11
184.186510
 21
285.340264
  0
LINE
  8
2
 62
7
  6
CONTINUOUS
 10
179.342300
 20
285.340264
 11
179.920342
 21
285.340264
  0
LINE
  8
2
 62
7
  6
CONTINUOUS
 10
182.293363
 20
285.340264
 11
182.881549
 21
285.340264
  0
LINE
  8
2
 62
7
  6
CONTINUOUS
 10
180.224575
 20
285.340264
 11
180.812761
 21
285.340264
  0
LINE
  8
2
 62
7
  6
CONTINUOUS
 10
181.400947
 20
285.340264
 11
181.999273
 21
285.340264
  0
LINE
  8
2
 62
7
  6
CONTINUOUS
 10
169.541869
 20
285.505901
 11
170.364881
 21
285.505901
  0
LINE
  8
2
 62
7
  6
CONTINUOUS
 10
191.694174
 20
285.505901
 11
192.363491
 21
285.505901
  0
LINE
  8
2
 62
7
  6
CONTINUOUS
 10
171.473946
 20
285.505901
 11
172.311194
 21
285.505901
  0
LINE
  8
2
 62
7
  6
CONTINUOUS
 10
190.146101
 20
285.505901
 11
190.966010
 21
285.505901
  0
LINE
  8
2
 62
7
  6
CONTINUOUS
 10
173.044668
 20
285.505901
 11
173.703842
 21
285.505901
  0
LINE
  8
2
 62
7
  6
CONTINUOUS
 10
188.605688
 20
285.505901
 11
189.439450
 21
285.505901
  0
LINE
  8
2
 62
7
  6
CONTINUOUS
 10
173.997932
 20
285.505901
 11
174.667249
 21
285.505901
  0
LINE
  8
2
 62
7
  6
CONTINUOUS
 10
186.441081
 20
285.505901
 11
187.029264
 21
285.505901
  0
LINE
  8
2
 62
7
  6
CONTINUOUS
 10
175.478537
 20
285.505901
 11
176.492645
 21
285.505901
  0
LINE
  8
2
 62
7
  6
CONTINUOUS
 10
185.548662
 20
285.505901
 11
186.146985
 21
285.505901
  0
LINE
  8
2
 62
7
  6
CONTINUOUS
 10
177.182243
 20
285.505901
 11
177.851558
 21
285.505901
  0
LINE
  8
2
 62
7
  6
CONTINUOUS
 10
184.278784
 20
285.505901
 11
185.005787
 21
285.505901
  0
LINE
  8
2
 62
7
  6
CONTINUOUS
 10
178.145647
 20
285.505901
 11
178.743977
 21
285.505901
  0
LINE
  8
2
 62
7
  6
CONTINUOUS
 10
183.428451
 20
285.505901
 11
184.156239
 21
285.505901
  0
LINE
  8
2
 62
7
  6
CONTINUOUS
 10
179.342300
 20
285.505901
 11
179.920342
 21
285.505901
  0
LINE
  8
2
 62
7
  6
CONTINUOUS
 10
182.293363
 20
285.505901
 11
182.881549
 21
285.505901
  0
LINE
  8
2
 62
7
  6
CONTINUOUS
 10
180.224575
 20
285.505901
 11
180.812761
 21
285.505901
  0
LINE
  8
2
 62
7
  6
CONTINUOUS
 10
181.400947
 20
285.505901
 11
181.999273
 21
285.505901
  0
LINE
  8
2
 62
7
  6
CONTINUOUS
 10
169.444727
 20
285.671538
 11
170.261984
 21
285.671538
  0
LINE
  8
2
 62
7
  6
CONTINUOUS
 10
191.694174
 20
285.671538
 11
192.363491
 21
285.671538
  0
LINE
  8
2
 62
7
  6
CONTINUOUS
 10
171.567397
 20
285.671538
 11
172.406755
 21
285.671538
  0
LINE
  8
2
 62
7
  6
CONTINUOUS
 10
190.241220
 20
285.671538
 11
191.062277
 21
285.671538
  0
LINE
  8
2
 62
7
  6
CONTINUOUS
 10
173.044668
 20
285.671538
 11
173.703842
 21
285.671538
  0
LINE
  8
2
 62
7
  6
CONTINUOUS
 10
188.694152
 20
285.671538
 11
189.534024
 21
285.671538
  0
LINE
  8
2
 62
7
  6
CONTINUOUS
 10
173.997932
 20
285.671538
 11
174.667249
 21
285.671538
  0
LINE
  8
2
 62
7
  6
CONTINUOUS
 10
186.441081
 20
285.671538
 11
187.029264
 21
285.671538
  0
LINE
  8
2
 62
7
  6
CONTINUOUS
 10
175.478537
 20
285.671538
 11
176.426391
 21
285.671538
  0
LINE
  8
2
 62
7
  6
CONTINUOUS
 10
185.548662
 20
285.671538
 11
186.146985
 21
285.671538
  0
LINE
  8
2
 62
7
  6
CONTINUOUS
 10
177.182243
 20
285.671538
 11
177.851558
 21
285.671538
  0
LINE
  8
2
 62
7
  6
CONTINUOUS
 10
184.306531
 20
285.671538
 11
185.037064
 21
285.671538
  0
LINE
  8
2
 62
7
  6
CONTINUOUS
 10
178.145647
 20
285.671538
 11
178.743977
 21
285.671538
  0
LINE
  8
2
 62
7
  6
CONTINUOUS
 10
183.397881
 20
285.671538
 11
184.125970
 21
285.671538
  0
LINE
  8
2
 62
7
  6
CONTINUOUS
 10
179.342300
 20
285.671538
 11
179.920342
 21
285.671538
  0
LINE
  8
2
 62
7
  6
CONTINUOUS
 10
182.293363
 20
285.671538
 11
182.881549
 21
285.671538
  0
LINE
  8
2
 62
7
  6
CONTINUOUS
 10
180.224575
 20
285.671538
 11
180.812761
 21
285.671538
  0
LINE
  8
2
 62
7
  6
CONTINUOUS
 10
181.400947
 20
285.671538
 11
181.999273
 21
285.671538
  0
LINE
  8
2
 62
7
  6
CONTINUOUS
 10
169.347585
 20
285.837178
 11
170.159087
 21
285.837178
  0
LINE
  8
2
 62
7
  6
CONTINUOUS
 10
191.694174
 20
285.837178
 11
192.363491
 21
285.837178
  0
LINE
  8
2
 62
7
  6
CONTINUOUS
 10
171.660847
 20
285.837178
 11
172.502316
 21
285.837178
  0
LINE
  8
2
 62
7
  6
CONTINUOUS
 10
190.336339
 20
285.837178
 11
191.158545
 21
285.837178
  0
LINE
  8
2
 62
7
  6
CONTINUOUS
 10
173.044668
 20
285.837178
 11
173.703842
 21
285.837178
  0
LINE
  8
2
 62
7
  6
CONTINUOUS
 10
188.659134
 20
285.837178
 11
189.628595
 21
285.837178
  0
LINE
  8
2
 62
7
  6
CONTINUOUS
 10
173.997932
 20
285.837178
 11
174.667249
 21
285.837178
  0
LINE
  8
2
 62
7
  6
CONTINUOUS
 10
186.441081
 20
285.837178
 11
187.029264
 21
285.837178
  0
LINE
  8
2
 62
7
  6
CONTINUOUS
 10
175.478537
 20
285.837178
 11
176.360137
 21
285.837178
  0
LINE
  8
2
 62
7
  6
CONTINUOUS
 10
185.548662
 20
285.837178
 11
186.146985
 21
285.837178
  0
LINE
  8
2
 62
7
  6
CONTINUOUS
 10
177.182243
 20
285.837178
 11
177.851558
 21
285.837178
  0
LINE
  8
2
 62
7
  6
CONTINUOUS
 10
184.334275
 20
285.837178
 11
185.068344
 21
285.837178
  0
LINE
  8
2
 62
7
  6
CONTINUOUS
 10
178.145647
 20
285.837178
 11
179.920342
 21
285.837178
  0
LINE
  8
2
 62
7
  6
CONTINUOUS
 10
183.367314
 20
285.837178
 11
184.095702
 21
285.837178
  0
LINE
  8
2
 62
7
  6
CONTINUOUS
 10
180.224575
 20
285.837178
 11
181.999273
 21
285.837178
  0
LINE
  8
2
 62
7
  6
CONTINUOUS
 10
182.293363
 20
285.837178
 11
182.881549
 21
285.837178
  0
LINE
  8
2
 62
7
  6
CONTINUOUS
 10
169.250443
 20
286.002815
 11
170.056191
 21
286.002815
  0
LINE
  8
2
 62
7
  6
CONTINUOUS
 10
191.694174
 20
286.002815
 11
192.363491
 21
286.002815
  0
LINE
  8
2
 62
7
  6
CONTINUOUS
 10
171.754301
 20
286.002815
 11
172.597877
 21
286.002815
  0
LINE
  8
2
 62
7
  6
CONTINUOUS
 10
190.431457
 20
286.002815
 11
191.254815
 21
286.002815
  0
LINE
  8
2
 62
7
  6
CONTINUOUS
 10
173.044668
 20
286.002815
 11
173.703842
 21
286.002815
  0
LINE
  8
2
 62
7
  6
CONTINUOUS
 10
188.527569
 20
286.002815
 11
189.723169
 21
286.002815
  0
LINE
  8
2
 62
7
  6
CONTINUOUS
 10
173.997932
 20
286.002815
 11
174.667249
 21
286.002815
  0
LINE
  8
2
 62
7
  6
CONTINUOUS
 10
186.441081
 20
286.002815
 11
187.029264
 21
286.002815
  0
LINE
  8
2
 62
7
  6
CONTINUOUS
 10
175.478537
 20
286.002815
 11
176.293883
 21
286.002815
  0
LINE
  8
2
 62
7
  6
CONTINUOUS
 10
185.548662
 20
286.002815
 11
186.146985
 21
286.002815
  0
LINE
  8
2
 62
7
  6
CONTINUOUS
 10
177.182243
 20
286.002815
 11
177.851558
 21
286.002815
  0
LINE
  8
2
 62
7
  6
CONTINUOUS
 10
184.362023
 20
286.002815
 11
185.099624
 21
286.002815
  0
LINE
  8
2
 62
7
  6
CONTINUOUS
 10
178.145647
 20
286.002815
 11
178.743977
 21
286.002815
  0
LINE
  8
2
 62
7
  6
CONTINUOUS
 10
183.336747
 20
286.002815
 11
184.065434
 21
286.002815
  0
LINE
  8
2
 62
7
  6
CONTINUOUS
 10
178.779468
 20
286.002815
 11
179.884851
 21
286.002815
  0
LINE
  8
2
 62
7
  6
CONTINUOUS
 10
182.293363
 20
286.002815
 11
182.881549
 21
286.002815
  0
LINE
  8
2
 62
7
  6
CONTINUOUS
 10
180.260069
 20
286.002815
 11
181.962792
 21
286.002815
  0
LINE
  8
2
 62
7
  6
CONTINUOUS
 10
169.153301
 20
286.168455
 11
169.953297
 21
286.168455
  0
LINE
  8
2
 62
7
  6
CONTINUOUS
 10
191.694174
 20
286.168455
 11
192.363491
 21
286.168455
  0
LINE
  8
2
 62
7
  6
CONTINUOUS
 10
171.847751
 20
286.168455
 11
172.693437
 21
286.168455
  0
LINE
  8
2
 62
7
  6
CONTINUOUS
 10
190.526576
 20
286.168455
 11
191.351082
 21
286.168455
  0
LINE
  8
2
 62
7
  6
CONTINUOUS
 10
173.044668
 20
286.168455
 11
173.703842
 21
286.168455
  0
LINE
  8
2
 62
7
  6
CONTINUOUS
 10
188.396007
 20
286.168455
 11
189.817740
 21
286.168455
  0
LINE
  8
2
 62
7
  6
CONTINUOUS
 10
173.997932
 20
286.168455
 11
174.667249
 21
286.168455
  0
LINE
  8
2
 62
7
  6
CONTINUOUS
 10
186.441081
 20
286.168455
 11
187.029264
 21
286.168455
  0
LINE
  8
2
 62
7
  6
CONTINUOUS
 10
177.182243
 20
286.168455
 11
177.851558
 21
286.168455
  0
LINE
  8
2
 62
7
  6
CONTINUOUS
 10
185.548662
 20
286.168455
 11
186.146985
 21
286.168455
  0
LINE
  8
2
 62
7
  6
CONTINUOUS
 10
178.145647
 20
286.168455
 11
178.743977
 21
286.168455
  0
LINE
  8
2
 62
7
  6
CONTINUOUS
 10
184.389770
 20
286.168455
 11
185.130903
 21
286.168455
  0
LINE
  8
2
 62
7
  6
CONTINUOUS
 10
178.945108
 20
286.168455
 11
179.719211
 21
286.168455
  0
LINE
  8
2
 62
7
  6
CONTINUOUS
 10
183.306177
 20
286.168455
 11
184.035162
 21
286.168455
  0
LINE
  8
2
 62
7
  6
CONTINUOUS
 10
180.425709
 20
286.168455
 11
181.792552
 21
286.168455
  0
LINE
  8
2
 62
7
  6
CONTINUOUS
 10
182.293363
 20
286.168455
 11
182.881549
 21
286.168455
  0
LINE
  8
2
 62
7
  6
CONTINUOUS
 10
169.056163
 20
286.334092
 11
169.850400
 21
286.334092
  0
LINE
  8
2
 62
7
  6
CONTINUOUS
 10
191.694174
 20
286.334092
 11
192.363491
 21
286.334092
  0
LINE
  8
2
 62
7
  6
CONTINUOUS
 10
171.941202
 20
286.334092
 11
172.788998
 21
286.334092
  0
LINE
  8
2
 62
7
  6
CONTINUOUS
 10
190.621695
 20
286.334092
 11
191.447353
 21
286.334092
  0
LINE
  8
2
 62
7
  6
CONTINUOUS
 10
173.044668
 20
286.334092
 11
173.703842
 21
286.334092
  0
LINE
  8
2
 62
7
  6
CONTINUOUS
 10
188.264442
 20
286.334092
 11
189.912315
 21
286.334092
  0
LINE
  8
2
 62
7
  6
CONTINUOUS
 10
173.997932
 20
286.334092
 11
174.667249
 21
286.334092
  0
LINE
  8
2
 62
7
  6
CONTINUOUS
 10
186.441081
 20
286.334092
 11
187.029264
 21
286.334092
  0
LINE
  8
2
 62
7
  6
CONTINUOUS
 10
177.182243
 20
286.334092
 11
177.851558
 21
286.334092
  0
LINE
  8
2
 62
7
  6
CONTINUOUS
 10
185.548662
 20
286.334092
 11
186.146985
 21
286.334092
  0
LINE
  8
2
 62
7
  6
CONTINUOUS
 10
182.293363
 20
286.334092
 11
182.881549
 21
286.334092
  0
LINE
  8
2
 62
7
  6
CONTINUOUS
 10
184.417517
 20
286.334092
 11
185.162183
 21
286.334092
  0
LINE
  8
2
 62
7
  6
CONTINUOUS
 10
183.275609
 20
286.334092
 11
184.004894
 21
286.334092
  0
LINE
  8
2
 62
7
  6
CONTINUOUS
 10
168.967941
 20
286.499729
 11
169.747503
 21
286.499729
  0
LINE
  8
2
 62
7
  6
CONTINUOUS
 10
191.694174
 20
286.499729
 11
192.363491
 21
286.499729
  0
LINE
  8
2
 62
7
  6
CONTINUOUS
 10
172.034652
 20
286.499729
 11
172.884559
 21
286.499729
  0
LINE
  8
2
 62
7
  6
CONTINUOUS
 10
190.716814
 20
286.499729
 11
191.543620
 21
286.499729
  0
LINE
  8
2
 62
7
  6
CONTINUOUS
 10
173.044668
 20
286.499729
 11
173.703842
 21
286.499729
  0
LINE
  8
2
 62
7
  6
CONTINUOUS
 10
189.159594
 20
286.499729
 11
190.006886
 21
286.499729
  0
LINE
  8
2
 62
7
  6
CONTINUOUS
 10
173.997932
 20
286.499729
 11
174.667249
 21
286.499729
  0
LINE
  8
2
 62
7
  6
CONTINUOUS
 10
188.132880
 20
286.499729
 11
189.038598
 21
286.499729
  0
LINE
  8
2
 62
7
  6
CONTINUOUS
 10
177.182243
 20
286.499729
 11
177.851558
 21
286.499729
  0
LINE
  8
2
 62
7
  6
CONTINUOUS
 10
186.441081
 20
286.499729
 11
187.029264
 21
286.499729
  0
LINE
  8
2
 62
7
  6
CONTINUOUS
 10
182.293363
 20
286.499729
 11
182.881549
 21
286.499729
  0
LINE
  8
2
 62
7
  6
CONTINUOUS
 10
185.548662
 20
286.499729
 11
186.146985
 21
286.499729
  0
LINE
  8
2
 62
7
  6
CONTINUOUS
 10
183.245042
 20
286.499729
 11
183.974626
 21
286.499729
  0
LINE
  8
2
 62
7
  6
CONTINUOUS
 10
184.445261
 20
286.499729
 11
185.193460
 21
286.499729
  0
LINE
  8
2
 62
7
  6
CONTINUOUS
 10
168.967941
 20
286.665369
 11
169.644607
 21
286.665369
  0
LINE
  8
2
 62
7
  6
CONTINUOUS
 10
190.811933
 20
286.665369
 11
192.363491
 21
286.665369
  0
LINE
  8
2
 62
7
  6
CONTINUOUS
 10
172.128106
 20
286.665369
 11
173.703842
 21
286.665369
  0
LINE
  8
2
 62
7
  6
CONTINUOUS
 10
189.258369
 20
286.665369
 11
190.101460
 21
286.665369
  0
LINE
  8
2
 62
7
  6
CONTINUOUS
 10
173.997932
 20
286.665369
 11
174.667249
 21
286.665369
  0
LINE
  8
2
 62
7
  6
CONTINUOUS
 10
188.001314
 20
286.665369
 11
188.904873
 21
286.665369
  0
LINE
  8
2
 62
7
  6
CONTINUOUS
 10
177.182243
 20
286.665369
 11
177.851558
 21
286.665369
  0
LINE
  8
2
 62
7
  6
CONTINUOUS
 10
186.441081
 20
286.665369
 11
187.029264
 21
286.665369
  0
LINE
  8
2
 62
7
  6
CONTINUOUS
 10
182.293363
 20
286.665369
 11
182.881549
 21
286.665369
  0
LINE
  8
2
 62
7
  6
CONTINUOUS
 10
185.548662
 20
286.665369
 11
186.146985
 21
286.665369
  0
LINE
  8
2
 62
7
  6
CONTINUOUS
 10
183.214472
 20
286.665369
 11
183.944357
 21
286.665369
  0
LINE
  8
2
 62
7
  6
CONTINUOUS
 10
184.473009
 20
286.665369
 11
185.224740
 21
286.665369
  0
LINE
  8
2
 62
7
  6
CONTINUOUS
 10
168.967941
 20
286.831006
 11
169.722707
 21
286.831006
  0
LINE
  8
2
 62
7
  6
CONTINUOUS
 10
190.907051
 20
286.831006
 11
192.363491
 21
286.831006
  0
LINE
  8
2
 62
7
  6
CONTINUOUS
 10
172.221557
 20
286.831006
 11
173.703842
 21
286.831006
  0
LINE
  8
2
 62
7
  6
CONTINUOUS
 10
189.357145
 20
286.831006
 11
190.196031
 21
286.831006
  0
LINE
  8
2
 62
7
  6
CONTINUOUS
 10
173.997932
 20
286.831006
 11
174.667249
 21
286.831006
  0
LINE
  8
2
 62
7
  6
CONTINUOUS
 10
187.869749
 20
286.831006
 11
188.771144
 21
286.831006
  0
LINE
  8
2
 62
7
  6
CONTINUOUS
 10
177.182243
 20
286.831006
 11
177.851558
 21
286.831006
  0
LINE
  8
2
 62
7
  6
CONTINUOUS
 10
186.441081
 20
286.831006
 11
187.029264
 21
286.831006
  0
LINE
  8
2
 62
7
  6
CONTINUOUS
 10
182.293363
 20
286.831006
 11
182.881549
 21
286.831006
  0
LINE
  8
2
 62
7
  6
CONTINUOUS
 10
185.548662
 20
286.831006
 11
186.146985
 21
286.831006
  0
LINE
  8
2
 62
7
  6
CONTINUOUS
 10
183.183905
 20
286.831006
 11
183.914089
 21
286.831006
  0
LINE
  8
2
 62
7
  6
CONTINUOUS
 10
184.500756
 20
286.831006
 11
185.256020
 21
286.831006
  0
LINE
  8
2
 62
7
  6
CONTINUOUS
 10
169.052415
 20
286.996646
 11
171.639891
 21
286.996646
  0
LINE
  8
2
 62
7
  6
CONTINUOUS
 10
191.002170
 20
286.996646
 11
192.363491
 21
286.996646
  0
LINE
  8
2
 62
7
  6
CONTINUOUS
 10
172.315007
 20
286.996646
 11
173.703842
 21
286.996646
  0
LINE
  8
2
 62
7
  6
CONTINUOUS
 10
189.455921
 20
286.996646
 11
190.290605
 21
286.996646
  0
LINE
  8
2
 62
7
  6
CONTINUOUS
 10
173.997932
 20
286.996646
 11
176.665046
 21
286.996646
  0
LINE
  8
2
 62
7
  6
CONTINUOUS
 10
187.738187
 20
286.996646
 11
188.637419
 21
286.996646
  0
LINE
  8
2
 62
7
  6
CONTINUOUS
 10
177.182243
 20
286.996646
 11
177.851558
 21
286.996646
  0
LINE
  8
2
 62
7
  6
CONTINUOUS
 10
186.441081
 20
286.996646
 11
187.029264
 21
286.996646
  0
LINE
  8
2
 62
7
  6
CONTINUOUS
 10
182.293363
 20
286.996646
 11
183.883817
 21
286.996646
  0
LINE
  8
2
 62
7
  6
CONTINUOUS
 10
184.528500
 20
286.996646
 11
186.146985
 21
286.996646
  0
LINE
  8
2
 62
7
  6
CONTINUOUS
 10
169.154618
 20
287.162283
 11
171.731630
 21
287.162283
  0
LINE
  8
2
 62
7
  6
CONTINUOUS
 10
191.097289
 20
287.162283
 11
192.354805
 21
287.162283
  0
LINE
  8
2
 62
7
  6
CONTINUOUS
 10
172.408461
 20
287.162283
 11
173.695392
 21
287.162283
  0
LINE
  8
2
 62
7
  6
CONTINUOUS
 10
189.554697
 20
287.162283
 11
190.385176
 21
287.162283
  0
LINE
  8
2
 62
7
  6
CONTINUOUS
 10
174.006619
 20
287.162283
 11
176.665046
 21
287.162283
  0
LINE
  8
2
 62
7
  6
CONTINUOUS
 10
187.606622
 20
287.162283
 11
188.503694
 21
287.162283
  0
LINE
  8
2
 62
7
  6
CONTINUOUS
 10
177.182243
 20
287.162283
 11
177.851558
 21
287.162283
  0
LINE
  8
2
 62
7
  6
CONTINUOUS
 10
186.441081
 20
287.162283
 11
187.029264
 21
287.162283
  0
LINE
  8
2
 62
7
  6
CONTINUOUS
 10
182.302050
 20
287.162283
 11
183.849226
 21
287.162283
  0
LINE
  8
2
 62
7
  6
CONTINUOUS
 10
184.563754
 20
287.162283
 11
186.138302
 21
287.162283
  0
LINE
  8
2
 62
7
  6
CONTINUOUS
 10
169.256821
 20
287.327920
 11
171.823369
 21
287.327920
  0
LINE
  8
2
 62
7
  6
CONTINUOUS
 10
191.192408
 20
287.327920
 11
192.184564
 21
287.327920
  0
LINE
  8
2
 62
7
  6
CONTINUOUS
 10
172.554181
 20
287.327920
 11
173.529752
 21
287.327920
  0
LINE
  8
2
 62
7
  6
CONTINUOUS
 10
189.653473
 20
287.327920
 11
190.479750
 21
287.327920
  0
LINE
  8
2
 62
7
  6
CONTINUOUS
 10
174.176859
 20
287.327920
 11
176.665046
 21
287.327920
  0
LINE
  8
2
 62
7
  6
CONTINUOUS
 10
187.475056
 20
287.327920
 11
188.369965
 21
287.327920
  0
LINE
  8
2
 62
7
  6
CONTINUOUS
 10
177.182243
 20
287.327920
 11
177.851558
 21
287.327920
  0
LINE
  8
2
 62
7
  6
CONTINUOUS
 10
186.441081
 20
287.327920
 11
187.029264
 21
287.327920
  0
LINE
  8
2
 62
7
  6
CONTINUOUS
 10
182.472290
 20
287.327920
 11
183.734197
 21
287.327920
  0
LINE
  8
2
 62
7
  6
CONTINUOUS
 10
184.738595
 20
287.327920
 11
185.968061
 21
287.327920
  0
LINE
  8
2
 62
7
  6
CONTINUOUS
 10
169.532749
 20
287.493560
 11
171.915107
 21
287.493560
  0
LINE
  8
2
 62
7
  6
CONTINUOUS
 10
191.467975
 20
287.493560
 11
192.014327
 21
287.493560
  0
LINE
  8
2
 62
7
  6
CONTINUOUS
 10
172.786072
 20
287.493560
 11
173.364115
 21
287.493560
  0
LINE
  8
2
 62
7
  6
CONTINUOUS
 10
189.752246
 20
287.493560
 11
190.574321
 21
287.493560
  0
LINE
  8
2
 62
7
  6
CONTINUOUS
 10
174.347099
 20
287.493560
 11
176.665046
 21
287.493560
  0
LINE
  8
2
 62
7
  6
CONTINUOUS
 10
187.343494
 20
287.493560
 11
188.236240
 21
287.493560
  0
LINE
  8
2
 62
7
  6
CONTINUOUS
 10
177.182243
 20
287.493560
 11
177.851558
 21
287.493560
  0
LINE
  8
2
 62
7
  6
CONTINUOUS
 10
186.441081
 20
287.493560
 11
187.029264
 21
287.493560
  0
LINE
  8
2
 62
7
  6
CONTINUOUS
 10
182.642527
 20
287.493560
 11
183.619171
 21
287.493560
  0
LINE
  8
2
 62
7
  6
CONTINUOUS
 10
184.913435
 20
287.493560
 11
185.797821
 21
287.493560
  0
LINE
  8
2
 62
7
  6
DASHDOT
 10
179.940629
 20
263.162471
 11
179.940629
 21
286.332402
  0
LINE
  8
2
 62
7
  6
DASHDOT
 10
179.940629
 20
290.324635
 11
179.940629
 21
335.880559
  0
LINE
  8
1
 62
7
  6
CONTINUOUS
 10
342.817916
 20
120.074298
 11
342.817916
 21
133.004420
  0
LINE
  8
1
 62
7
  6
CONTINUOUS
 10
345.801790
 20
135.988295
 11
342.817916
 21
133.004420
  0
LINE
  8
1
 62
7
  6
CONTINUOUS
 10
342.817916
 20
120.074298
 11
340.828666
 21
118.925804
  0
LINE
  8
1
 62
7
  6
CONTINUOUS
 10
366.688911
 20
120.074298
 11
366.688911
 21
133.004420
  0
LINE
  8
1
 62
7
  6
CONTINUOUS
 10
363.705036
 20
135.988295
 11
366.688911
 21
133.004420
  0
CIRCLE
  8
1
 62
7
  6
CONTINUOUS
 10
354.753413
 20
123.058172
 40
1.491937
  0
LINE
  8
1
 62
7
  6
CONTINUOUS
 10
359.229225
 20
138.474860
 11
359.229225
 21
135.988295
  0
LINE
  8
1
 62
7
  6
CONTINUOUS
 10
340.828666
 20
118.925804
 11
340.828666
 21
50.915048
  0
ARC
  8
1
 62
7
  6
CONTINUOUS
 10
354.753413
 20
77.305429
 40
29.838744
 50
-117.818141
 51
-61.954736
  0
LINE
  8
1
 62
7
  6
CONTINUOUS
 10
372.681543
 20
160.394029
 11
372.681543
 21
178.259851
  0
LINE
  8
1
 62
7
  6
CONTINUOUS
 10
372.681543
 20
160.394029
 11
370.897854
 21
159.361980
  0
LINE
  8
1
 62
7
  6
CONTINUOUS
 10
338.632226
 20
159.361980
 11
339.238946
 21
139.966794
  0
LINE
  8
1
 62
7
  6
CONTINUOUS
 10
340.780613
 20
138.474860
 11
339.238946
 21
139.966794
  0
LINE
  8
1
 62
7
  6
CONTINUOUS
 10
336.846550
 20
160.395174
 11
338.632226
 21
159.361980
  0
ARC
  8
1
 62
7
  6
CONTINUOUS
 10
345.799982
 20
185.227556
 40
25.865576
 50
-110.252161
 51
-69.747839
  0
LINE
  8
1
 62
7
  6
CONTINUOUS
 10
350.292532
 20
138.474860
 11
350.292532
 21
135.988295
  0
LINE
  8
1
 62
7
  6
CONTINUOUS
 10
350.292541
 20
138.474860
 11
350.292532
 21
135.988295
  0
LINE
  8
1
 62
7
  6
CONTINUOUS
 10
370.897854
 20
159.361980
 11
338.632226
 21
159.361980
  0
LINE
  8
1
 62
7
  6
CONTINUOUS
 10
370.897854
 20
159.361980
 11
370.291133
 21
139.966794
  0
LINE
  8
1
 62
7
  6
CONTINUOUS
 10
338.758677
 20
155.319620
 11
370.766189
 21
155.319620
  0
ARC
  8
1
 62
7
  6
CONTINUOUS
 10
363.721778
 20
185.227556
 40
25.865576
 50
-110.252161
 51
-69.747839
  0
LINE
  8
1
 62
7
  6
CONTINUOUS
 10
340.780613
 20
138.474860
 11
368.749466
 21
138.474860
  0
LINE
  8
1
 62
7
  6
CONTINUOUS
 10
368.749466
 20
138.474860
 11
370.291133
 21
139.966794
  0
LINE
  8
1
 62
7
  6
CONTINUOUS
 10
350.292532
 20
135.988295
 11
350.292532
 21
103.065363
  0
LINE
  8
1
 62
7
  6
CONTINUOUS
 10
350.292532
 20
103.065363
 11
359.229225
 21
103.065363
  0
LINE
  8
1
 62
7
  6
CONTINUOUS
 10
359.229225
 20
103.065363
 11
359.229225
 21
135.988295
  0
LINE
  8
1
 62
7
  6
CONTINUOUS
 10
345.801790
 20
135.988295
 11
350.292532
 21
135.988295
  0
LINE
  8
1
 62
7
  6
CONTINUOUS
 10
359.229225
 20
135.988295
 11
363.705036
 21
135.988295
  0
LINE
  8
1
 62
7
  6
CONTINUOUS
 10
350.292532
 20
105.115775
 11
359.229225
 21
105.115775
  0
CIRCLE
  8
1
 62
7
  6
CONTINUOUS
 10
354.760880
 20
130.020546
 40
1.989250
  0
LINE
  8
1
 62
7
  6
CONTINUOUS
 10
368.678163
 20
50.915048
 11
368.678163
 21
118.925804
  0
LINE
  8
1
 62
7
  6
CONTINUOUS
 10
368.678163
 20
118.925804
 11
366.688911
 21
120.074298
  0
ARC
  8
1
 62
7
  6
CONTINUOUS
 10
354.753413
 20
116.095799
 40
14.919372
 50
-158.555744
 51
-21.039467
  0
ARC
  8
1
 62
7
  6
CONTINUOUS
 10
354.753413
 20
97.197928
 40
19.892496
 50
-134.427006
 51
-45.572993
  0
LINE
  8
1
 62
7
  6
CONTINUOUS
 10
354.760880
 20
178.259851
 11
354.753413
 21
160.961035
  0
LINE
  8
1
 62
7
  6
CONTINUOUS
 10
335.646509
 20
179.371740
 11
337.255485
 21
177.762766
  0
ARC
  8
1
 62
7
  6
CONTINUOUS
 10
337.255482
 20
186.714392
 40
8.951626
 50
-104.832020
 51
-75.167980
  0
LINE
  8
1
 62
7
  6
CONTINUOUS
 10
337.255485
 20
177.762766
 11
338.864462
 21
179.371740
  0
ARC
  8
1
 62
7
  6
CONTINUOUS
 10
339.165060
 20
179.503255
 40
1.491937
 50
-75.167985
 51
-5.000021
  0
ARC
  8
1
 62
7
  6
CONTINUOUS
 10
335.345908
 20
179.503255
 40
1.491937
 50
-174.999979
 51
-104.832015
  0
LINE
  8
1
 62
7
  6
CONTINUOUS
 10
336.846550
 20
160.395174
 11
336.846550
 21
177.772113
  0
LINE
  8
1
 62
7
  6
CONTINUOUS
 10
323.314230
 20
199.544824
 11
324.949893
 21
199.544824
  0
LINE
  8
1
 62
7
  6
CONTINUOUS
 10
322.722817
 20
199.544824
 11
322.722817
 21
180.149640
  0
LINE
  8
1
 62
7
  6
CONTINUOUS
 10
325.605627
 20
198.247531
 11
325.633848
 21
181.540287
  0
LINE
  8
1
 62
7
  6
CONTINUOUS
 10
322.722817
 20
199.544824
 11
325.414795
 21
231.308944
  0
LINE
  8
1
 62
7
  6
CONTINUOUS
 10
325.605627
 20
201.440713
 11
327.445683
 21
232.304599
  0
ARC
  8
1
 62
7
  6
CONTINUOUS
 10
330.368996
 20
230.875508
 40
4.973124
 50
90.000000
 51
175.000004
  0
LINE
  8
1
 62
7
  6
CONTINUOUS
 10
330.368996
 20
235.848631
 11
379.152761
 21
235.848631
  0
LINE
  8
1
 62
7
  6
CONTINUOUS
 10
386.798943
 20
180.149640
 11
322.722817
 21
180.149640
  0
LINE
  8
1
 62
7
  6
CONTINUOUS
 10
386.089699
 20
199.544824
 11
384.575832
 21
199.544824
  0
LINE
  8
1
 62
7
  6
CONTINUOUS
 10
386.798943
 20
180.149640
 11
386.798943
 21
199.544824
  0
LINE
  8
1
 62
7
  6
CONTINUOUS
 10
383.887912
 20
198.213416
 11
383.887912
 21
181.367958
  0
ARC
  8
1
 62
7
  6
CONTINUOUS
 10
379.152761
 20
230.875508
 40
4.973124
 50
5.000000
 51
90.000000
  0
LINE
  8
1
 62
7
  6
CONTINUOUS
 10
386.798943
 20
199.544833
 11
384.106961
 21
231.308944
  0
LINE
  8
1
 62
7
  6
CONTINUOUS
 10
382.047856
 20
232.304599
 11
383.887912
 21
201.440713
  0
LINE
  8
1
 62
7
  6
CONTINUOUS
 10
369.182939
 20
180.149640
 11
369.182939
 21
198.649662
  0
LINE
  8
1
 62
7
  6
CONTINUOUS
 10
340.338817
 20
198.649662
 11
340.338817
 21
180.149640
  0
ARC
  8
1
 62
7
  6
CONTINUOUS
 10
354.760880
 20
198.649662
 40
14.422059
 50
0.000000
 51
180.000000
  0
ARC
  8
1
 62
7
  6
CONTINUOUS
 10
354.760880
 20
198.649662
 40
20.389808
 50
2.516234
 51
177.483766
  0
CIRCLE
  8
1
 62
7
  6
CONTINUOUS
 10
354.760880
 20
198.649662
 40
12.432810
  0
CIRCLE
  8
1
 62
7
  6
CONTINUOUS
 10
354.760880
 20
198.649662
 40
9.946248
  0
LINE
  8
1
 62
7
  6
CONTINUOUS
 10
333.618139
 20
199.544824
 11
326.399168
 21
199.544824
  0
LINE
  8
1
 62
7
  6
CONTINUOUS
 10
375.708674
 20
199.544824
 11
382.549579
 21
199.544824
  0
CIRCLE
  8
1
 62
7
  6
CONTINUOUS
 10
334.868381
 20
185.819001
 40
4.965835
  0
CIRCLE
  8
1
 62
7
  6
CONTINUOUS
 10
334.868381
 20
185.819001
 40
3.779575
  0
CIRCLE
  8
1
 62
7
  6
CONTINUOUS
 10
334.868381
 20
185.819001
 40
3.481187
  0
LINE
  8
1
 62
7
  6
CONTINUOUS
 10
336.957094
 20
181.313808
 11
336.957094
 21
180.149640
  0
LINE
  8
1
 62
7
  6
CONTINUOUS
 10
332.779671
 20
181.313808
 11
332.779671
 21
180.149640
  0
LINE
  8
1
 62
7
  6
CONTINUOUS
 10
333.556012
 20
187.131370
 11
336.180750
 21
184.506632
  0
LINE
  8
1
 62
7
  6
CONTINUOUS
 10
336.180750
 20
187.131370
 11
333.556012
 21
184.506632
  0
LINE
  8
1
 62
7
  6
CONTINUOUS
 10
380.116348
 20
178.160391
 11
376.137849
 21
178.160391
  0
LINE
  8
1
 62
7
  6
CONTINUOUS
 10
333.368980
 20
178.160391
 11
329.390481
 21
178.160391
  0
LINE
  8
1
 62
7
  6
CONTINUOUS
 10
329.390481
 20
178.160391
 11
329.390481
 21
180.149640
  0
LINE
  8
1
 62
7
  6
CONTINUOUS
 10
333.368980
 20
180.149640
 11
333.368980
 21
178.160391
  0
LINE
  8
1
 62
7
  6
CONTINUOUS
 10
376.137849
 20
178.160391
 11
376.137849
 21
180.149640
  0
LINE
  8
1
 62
7
  6
CONTINUOUS
 10
375.445718
 20
178.160391
 11
375.445718
 21
180.149640
  0
LINE
  8
1
 62
7
  6
CONTINUOUS
 10
334.069325
 20
178.160391
 11
334.069325
 21
178.731106
  0
LINE
  8
1
 62
7
  6
CONTINUOUS
 10
375.445718
 20
178.160391
 11
339.815130
 21
178.160391
  0
LINE
  8
1
 62
7
  6
CONTINUOUS
 10
334.695837
 20
178.160391
 11
334.069325
 21
178.160391
  0
LINE
  8
1
 62
7
  6
CONTINUOUS
 10
333.791722
 20
180.149640
 11
333.859648
 21
179.373224
  0
LINE
  8
1
 62
7
  6
CONTINUOUS
 10
340.719246
 20
180.149640
 11
340.651317
 21
179.373224
  0
LINE
  8
1
 62
7
  6
CONTINUOUS
 10
380.116348
 20
180.149640
 11
380.116348
 21
178.160391
  0
LINE
  8
1
 62
7
  6
CONTINUOUS
 10
354.760836
 20
178.160391
 11
354.753413
 21
160.961035
  0
LINE
  8
2
 62
7
  6
DASHDOT
 10
352.292136
 20
123.058172
 11
357.339457
 21
123.058172
  0
LINE
  8
2
 62
7
  6
CONTINUOUS
 10
369.286561
 20
155.383478
 11
368.759410
 21
138.474860
  0
LINE
  8
2
 62
7
  6
CONTINUOUS
 10
370.897854
 20
159.361980
 11
369.286561
 21
155.383478
  0
LINE
  8
2
 62
7
  6
CONTINUOUS
 10
340.243518
 20
155.383478
 11
340.770669
 21
138.474860
  0
LINE
  8
2
 62
7
  6
CONTINUOUS
 10
338.632226
 20
159.361980
 11
340.243518
 21
155.383478
  0
LINE
  8
2
 62
7
  6
HIDDEN
 10
338.912250
 20
150.410357
 11
370.617829
 21
150.410357
  0
LINE
  8
2
 62
7
  6
DASHDOT
 10
350.292532
 20
130.020546
 11
359.229225
 21
130.020546
  0
CIRCLE
  8
2
 62
7
  6
CONTINUOUS
 10
354.760880
 20
130.020546
 40
1.641131
  0
LINE
  8
2
 62
7
  6
DASHDOT
 10
354.760880
 20
41.406563
 11
354.760880
 21
237.798054
  0
LINE
  8
2
 62
7
  6
DASHDOT
 10
337.255482
 20
177.228120
 11
337.255482
 21
185.258229
  0
LINE
  8
2
 62
7
  6
DASHDOT
 10
316.424273
 20
198.649662
 11
392.195889
 21
198.649662
  0
LINE
  8
2
 62
7
  6
DASHDOT
 10
334.868381
 20
180.149640
 11
334.868381
 21
191.700221
  0
LINE
  8
2
 62
7
  6
DASHDOT
 10
328.777299
 20
185.819001
 11
340.338817
 21
185.819001
  0
LINE
  8
2
 62
7
  6
CONTINUOUS
 10
329.738599
 20
180.149640
 11
329.738599
 21
178.160391
  0
LINE
  8
2
 62
7
  6
CONTINUOUS
 10
333.020862
 20
180.149640
 11
333.020862
 21
178.160391
  0
LINE
  8
2
 62
7
  6
CONTINUOUS
 10
376.485968
 20
180.149640
 11
376.485968
 21
178.160391
  0
LINE
  8
2
 62
7
  6
CONTINUOUS
 10
379.768230
 20
180.149640
 11
379.768230
 21
178.160391
  0
LINE
  8
2
 62
7
  6
DASHDOT
 10
378.127099
 20
182.184645
 11
378.127099
 21
176.668453
  0
LINE
  8
2
 62
7
  6
DASHDOT
 10
331.379731
 20
182.184645
 11
331.379731
 21
176.668453
  0
LINE
  8
2
 62
7
  6
CONTINUOUS
 10
370.477169
 20
145.913842
 11
383.672896
 21
123.058172
  0
LINE
  8
2
 62
7
  6
CONTINUOUS
 10
383.672896
 20
123.058172
 11
389.514187
 21
123.058172
  0
TEXT
  8
2
 62
7
  6
CONTINUOUS
 10
385.514187
 20
123.058172
 40
4.000000
 41
0.500000
  1
R1
  7
KANJI
 50
0.000000
 51
0.000000
  0
LINE
  8
2
 62
7
  6
CONTINUOUS
 10
370.477169
 20
145.913842
 11
372.598489
 21
143.792521
  0
LINE
  8
2
 62
7
  6
CONTINUOUS
 10
370.477169
 20
145.913842
 11
371.253626
 21
143.016064
  0
LINE
  8
2
 62
7
  6
CONTINUOUS
 10
294.976459
 20
135.988295
 11
295.752916
 21
133.090517
  0
LINE
  8
2
 62
7
  6
CONTINUOUS
 10
294.976459
 20
135.988295
 11
294.200002
 21
133.090517
  0
LINE
  8
2
 62
7
  6
CONTINUOUS
 10
294.976459
 20
138.474860
 11
294.200002
 21
141.372637
  0
LINE
  8
2
 62
7
  6
CONTINUOUS
 10
294.976459
 20
138.474860
 11
295.752916
 21
141.372637
  0
DIMENSION
  8
2
 62
7
  6
CONTINUOUS
  2
*D1
 10
322.825956
 20
249.773379
 11
354.753413
 21
249.773379
 70
     0
  1
64
 13
322.825956
 23
200.538817
 14
386.680870
 24
200.538817
 50
0.000000
  0
DIMENSION
  8
2
 62
7
  6
CONTINUOUS
  2
*D2
 10
267.126965
 20
47.466685
 11
267.126965
 21
141.657658
 70
     0
  1
(189)
 13
353.759413
 23
47.466685
 14
329.565159
 24
235.848631
 50
90.000000
  0
DIMENSION
  8
2
 62
7
  6
CONTINUOUS
  2
*D3
 10
281.051712
 20
47.466685
 11
281.051712
 21
91.727490
 70
     0
  1
89
 13
281.051712
 23
47.466685
 14
346.772174
 24
135.988295
 50
90.000000
  0
DIMENSION
  8
2
 62
7
  6
CONTINUOUS
  2
*D4
 10
294.976459
 20
77.305429
 11
294.976459
 21
106.646862
 70
     0
  1
59
 13
353.759413
 23
77.305429
 14
294.976459
 24
135.988295
 50
90.000000
  0
DIMENSION
  8
2
 62
7
  6
CONTINUOUS
  2
*D5
 10
308.901209
 20
138.474860
 11
308.901209
 21
144.442608
 70
     0
  1
L
 13
308.901209
 23
138.474860
 14
337.918250
 24
150.410357
 50
90.000000
  0
DIMENSION
  8
2
 62
7
  6
CONTINUOUS
  2
*D6
 10
340.828666
 20
27.574189
 11
354.753415
 21
27.574189
 70
     0
  1
28
 13
340.828666
 23
49.921048
 14
368.678163
 24
49.921048
 50
0.000000
  0
DIMENSION
  8
2
 62
7
  6
CONTINUOUS
  2
*D7
 10
281.051712
 20
138.474860
 11
281.051712
 21
187.161746
 70
     0
  1
98.5
 13
339.786613
 23
138.474860
 14
281.051712
 24
235.848631
 50
90.000000
  0
DIMENSION
  8
2
 62
7
  6
CONTINUOUS
  2
*D8
 10
140.382296
 20
249.773379
 11
154.928156
 21
249.773379
 70
     0
  1
29
 13
140.382296
 23
200.538824
 14
169.474015
 24
240.080140
 50
0.000000
  0
DIMENSION
  8
2
 62
7
  6
CONTINUOUS
  2
*D9
 10
169.474015
 20
249.773379
 11
194.473990
 21
249.773379
 70
     0
  1
50
 13
169.474015
 23
249.773379
 14
219.473965
 24
219.387079
 50
0.000000
  0
LINE
  8
2
 62
7
  6
CONTINUOUS
 10
372.681543
 20
169.218668
 11
381.781221
 21
153.457563
  0
LINE
  8
2
 62
7
  6
CONTINUOUS
 10
381.781221
 20
153.457563
 11
406.053707
 21
153.457563
  0
TEXT
  8
2
 62
7
  6
CONTINUOUS
 10
382.053707
 20
153.457563
 40
4.000000
 41
1.000000
  1
二面幅36六角
  7
KANJI
 50
0.000000
 51
0.000000
  0
LINE
  8
2
 62
7
  6
CONTINUOUS
 10
372.681543
 20
169.218668
 11
374.802863
 21
167.097348
  0
LINE
  8
2
 62
7
  6
CONTINUOUS
 10
372.681543
 20
169.218668
 11
373.458000
 21
166.320891
  0
TEXT
  8
2
 62
7
  6
CONTINUOUS
 10
21.944034
 20
38.228334
 40
12.000000
 41
0.500000
  1
1:2
  7
KANJI
 50
0.000000
 51
0.000000
  0
LINE
  8
2
 62
7
  6
CONTINUOUS
 10
364.750107
 20
115.335997
 11
382.622080
 21
82.049307
  0
LINE
  8
2
 62
7
  6
CONTINUOUS
 10
382.622080
 20
82.049307
 11
399.640800
 21
82.049307
  0
TEXT
  8
2
 62
7
  6
CONTINUOUS
 10
383.640800
 20
82.049307
 40
4.000000
 41
1.000000
  1
1Bパドル
  7
KANJI
 50
0.000000
 51
0.000000
  0
CIRCLE
  8
2
 62
7
  6
CONTINUOUS
 10
364.750107
 20
115.335997
 40
1.194000
  0
CIRCLE
  8
2
 62
7
  6
CONTINUOUS
 10
364.750107
 20
115.335997
 40
0.597000
  0
LINE
  8
2
 62
7
  6
CONTINUOUS
 10
364.750107
 20
94.235566
 11
382.622080
 21
60.948880
  0
LINE
  8
2
 62
7
  6
CONTINUOUS
 10
382.622080
 20
60.948880
 11
400.046800
 21
60.948880
  0
TEXT
  8
2
 62
7
  6
CONTINUOUS
 10
384.046800
 20
60.948880
 40
4.000000
 41
1.000000
  1
2Bパドル
  7
KANJI
 50
0.000000
 51
0.000000
  0
CIRCLE
  8
2
 62
7
  6
CONTINUOUS
 10
364.750107
 20
94.235566
 40
1.194000
  0
CIRCLE
  8
2
 62
7
  6
CONTINUOUS
 10
364.750107
 20
94.235566
 40
0.597000
  0
LINE
  8
2
 62
7
  6
CONTINUOUS
 10
364.750107
 20
62.158775
 11
382.622080
 21
28.872086
  0
LINE
  8
2
 62
7
  6
CONTINUOUS
 10
382.622080
 20
28.872086
 11
399.843800
 21
28.872086
  0
TEXT
  8
2
 62
7
  6
CONTINUOUS
 10
383.843800
 20
28.872086
 40
4.000000
 41
1.000000
  1
3Bパドル
  7
KANJI
 50
0.000000
 51
0.000000
  0
CIRCLE
  8
2
 62
7
  6
CONTINUOUS
 10
364.750107
 20
62.158775
 40
1.194000
  0
CIRCLE
  8
2
 62
7
  6
CONTINUOUS
 10
364.750107
 20
62.158775
 40
0.597000
  0
DIMENSION
  8
2
 62
7
  6
CONTINUOUS
  2
*D10
 10
308.866900
 20
101.176427
 11
308.866900
 21
118.582361
 70
     0
  1
35
 13
353.766880
 23
101.176427
 14
308.866900
 24
135.988295
 50
90.000000
  0
TEXT
  8
2
 62
7
  6
CONTINUOUS
 10
293.954145
 20
142.238961
 40
4.000000
 41
0.500000
  1
(1.5)
  7
KANJI
 50
90.000000
 51
0.000000
  0
LINE
  8
2
 62
7
  6
CONTINUOUS
 10
294.976459
 20
130.020295
 11
294.976459
 21
152.262468
  0
TEXT
  8
2
 62
7
  6
CONTINUOUS
 10
129.417978
 20
68.733403
 40
4.000000
 41
1.000000
  1
流れ方向
  7
KANJI
 50
0.000000
 51
0.000000
  0
TEXT
  8
2
 62
7
  6
CONTINUOUS
 10
295.729249
 20
154.756475
 40
4.000000
 41
1.000000
  1
L:配管へのねじ込み量
  7
KANJI
 50
0.000000
 51
0.000000
  0
ENDSEC
  0
EOF
