  0
SECTION
  2
HEADER
  9
$ACADVER
  1
AC1015
  9
$ACADMAINTVER
 70
     6
  9
$DWGCODEPAGE
  3
DOS932
  9
$INSBASE
 10
0.0
 20
0.0
 30
0.0
  9
$EXTMIN
 10
0.0
 20
0.0
 30
0.0
  9
$EXTMAX
 10
420.0
 20
297.0
 30
0.0
  9
$LIMMIN
 10
0.0
 20
0.0
  9
$LIMMAX
 10
420.0
 20
297.0
  9
$ORTHOMODE
 70
     0
  9
$REGENMODE
 70
     1
  9
$FILLMODE
 70
     1
  9
$QTEXTMODE
 70
     0
  9
$MIRRTEXT
 70
     1
  9
$LTSCALE
 40
0.25
  9
$ATTMODE
 70
     1
  9
$TEXTSIZE
 40
5.0
  9
$TRACEWID
 40
0.05
  9
$TEXTSTYLE
  7
Standard
  9
$CLAYER
  8
0
  9
$CELTYPE
  6
Continuous
  9
$CECOLOR
 62
   256
  9
$CELTSCALE
 40
1.0
  9
$DISPSILH
 70
     0
  9
$DIMSCALE
 40
1.0
  9
$DIMASZ
 40
4.0
  9
$DIMEXO
 40
2.0
  9
$DIMDLI
 40
10.0
  9
$DIMRND
 40
0.0
  9
$DIMDLE
 40
0.0
  9
$DIMEXE
 40
2.0
  9
$DIMTP
 40
0.0
  9
$DIMTM
 40
0.0
  9
$DIMTXT
 40
4.0
  9
$DIMCEN
 40
0.09
  9
$DIMTSZ
 40
0.0
  9
$DIMTOL
 70
     0
  9
$DIMLIM
 70
     0
  9
$DIMTIH
 70
     0
  9
$DIMTOH
 70
     0
  9
$DIMSE1
 70
     0
  9
$DIMSE2
 70
     0
  9
$DIMTAD
 70
     3
  9
$DIMZIN
 70
     0
  9
$DIMBLK
  1

  9
$DIMASO
 70
     1
  9
$DIMSHO
 70
     1
  9
$DIMPOST
  1

  9
$DIMAPOST
  1

  9
$DIMALT
 70
     0
  9
$DIMALTD
 70
     2
  9
$DIMALTF
 40
25.4
  9
$DIMLFAC
 40
1.0
  9
$DIMTOFL
 70
     1
  9
$DIMTVP
 40
0.7
  9
$DIMTIX
 70
     0
  9
$DIMSOXD
 70
     0
  9
$DIMSAH
 70
     0
  9
$DIMBLK1
  1

  9
$DIMBLK2
  1

  9
$DIMSTYLE
  2
Standard
  9
$DIMCLRD
 70
     0
  9
$DIMCLRE
 70
     0
  9
$DIMCLRT
 70
     0
  9
$DIMTFAC
 40
0.5
  9
$DIMGAP
 40
0.0
  9
$DIMJUST
 70
     0
  9
$DIMSD1
 70
     0
  9
$DIMSD2
 70
     0
  9
$DIMTOLJ
 70
     1
  9
$DIMTZIN
 70
     0
  9
$DIMALTZ
 70
     0
  9
$DIMALTTZ
 70
     0
  9
$DIMUPT
 70
     0
  9
$DIMDEC
 70
     2
  9
$DIMTDEC
 70
     4
  9
$DIMALTU
 70
     2
  9
$DIMALTTD
 70
     2
  9
$DIMTXSTY
  7
Standard
  9
$DIMAUNIT
 70
     0
  9
$DIMADEC
 70
     0
  9
$DIMALTRND
 40
0.0
  9
$DIMAZIN
 70
     0
  9
$DIMDSEP
 70
     0
  9
$DIMATFIT
 70
     3
  9
$DIMFRAC
 70
     0
  9
$DIMLDRBLK
  1

  9
$DIMLUNIT
 70
     2
  9
$DIMLWD
 70
     0
  9
$DIMLWE
 70
     0
  9
$DIMTMOVE
 70
     0
  9
$LUNITS
 70
     2
  9
$LUPREC
 70
     4
  9
$SKETCHINC
 40
0.1
  9
$FILLETRAD
 40
0.0
  9
$AUNITS
 70
     0
  9
$AUPREC
 70
     0
  9
$MENU
  1
acad
  9
$ELEVATION
 40
0.0
  9
$PELEVATION
 40
0.0
  9
$THICKNESS
 40
0.0
  9
$LIMCHECK
 70
     0
  9
$CHAMFERA
 40
0.0
  9
$CHAMFERB
 40
0.0
  9
$CHAMFERC
 40
0.0
  9
$CHAMFERD
 40
0.0
  9
$SKPOLY
 70
     0
  9
$TDCREATE
 40
2454442.457187500
  9
$TDUCREATE
 40
0.000000000
  9
$TDUPDATE
 40
2454442.457187500
  9
$TDUUPDATE
 40
0.000000000
  9
$TDINDWG
 40
0.0000000000
  9
$TDUSRTIMER
 40
0.0000000000
  9
$USRTIMER
 70
     1
  9
$ANGBASE
 50
0.0
  9
$ANGDIR
 70
     0
  9
$PDMODE
 70
     0
  9
$PDSIZE
 40
0.0
  9
$PLINEWID
 40
0.0
  9
$SPLFRAME
 70
     0
  9
$SPLINETYPE
 70
     6
  9
$SPLINESEGS
 70
     8
  9
$HANDSEED
  5
4B1
  9
$SURFTAB1
 70
     6
  9
$SURFTAB2
 70
     6
  9
$SURFTYPE
 70
     6
  9
$SURFU
 70
     6
  9
$SURFV
 70
     6
  9
$UCSBASE
  2

  9
$UCSNAME
  2

  9
$UCSORG
 10
0.0
 20
0.0
 30
0.0
  9
$UCSXDIR
 10
1.0
 20
0.0
 30
0.0
  9
$UCSYDIR
 10
0.0
 20
1.0
 30
0.0
  9
$UCSORTHOREF
  2

  9
$UCSORTHOVIEW
 70
     0
  9
$UCSORGTOP
 10
0.0
 20
0.0
 30
0.0
  9
$UCSORGBOTTOM
 10
0.0
 20
0.0
 30
0.0
  9
$UCSORGLEFT
 10
0.0
 20
0.0
 30
0.0
  9
$UCSORGRIGHT
 10
0.0
 20
0.0
 30
0.0
  9
$UCSORGFRONT
 10
0.0
 20
0.0
 30
0.0
  9
$UCSORGBACK
 10
0.0
 20
0.0
 30
0.0
  9
$PUCSBASE
  2

  9
$PUCSNAME
  2

  9
$PUCSORG
 10
0.0
 20
0.0
 30
0.0
  9
$PUCSXDIR
 10
1.0
 20
0.0
 30
0.0
  9
$PUCSYDIR
 10
0.0
 20
1.0
 30
0.0
  9
$PUCSORTHOREF
  2

  9
$PUCSORTHOVIEW
 70
     0
  9
$PUCSORGTOP
 10
0.0
 20
0.0
 30
0.0
  9
$PUCSORGBOTTOM
 10
0.0
 20
0.0
 30
0.0
  9
$PUCSORGLEFT
 10
0.0
 20
0.0
 30
0.0
  9
$PUCSORGRIGHT
 10
0.0
 20
0.0
 30
0.0
  9
$PUCSORGFRONT
 10
0.0
 20
0.0
 30
0.0
  9
$PUCSORGBACK
 10
0.0
 20
0.0
 30
0.0
  9
$USERI1
 70
     0
  9
$USERI2
 70
     0
  9
$USERI3
 70
     0
  9
$USERI4
 70
     0
  9
$USERI5
 70
     0
  9
$USERR1
 40
0.0
  9
$USERR2
 40
0.0
  9
$USERR3
 40
0.0
  9
$USERR4
 40
0.0
  9
$USERR5
 40
0.0
  9
$WORLDVIEW
 70
     1
  9
$SHADEDGE
 70
     3
  9
$SHADEDIF
 70
    70
  9
$TILEMODE
 70
     1
  9
$MAXACTVP
 70
    16
  9
$PINSBASE
 10
0.0
 20
0.0
 30
0.0
  9
$PLIMCHECK
 70
     0
  9
$PEXTMIN
 10
0.0
 20
0.0
 30
0.0
  9
$PEXTMAX
 10
420.0
 20
297.0
 30
0.0
  9
$PLIMMIN
 10
0.0
 20
0.0
  9
$PLIMMAX
 10
420.0
 20
297.0
  9
$UNITMODE
 70
     0
  9
$VISRETAIN
 70
     0
  9
$PLINEGEN
 70
     1
  9
$PSLTSCALE
 70
     0
  9
$TREEDEPTH
 70
  3020
  9
$CMLSTYLE
  2
Standard
  9
$CMLJUST
 70
     0
  9
$CMLSCALE
 40
1.0
  9
$PROXYGRAPHICS
 70
     0
  9
$MEASUREMENT
 70
     0
  9
$CELWEIGHT
370
     0
  9
$ENDCAPS
280
     0
  9
$JOINSTYLE
280
     0
  9
$LWDISPLAY
290
     0
  9
$INSUNITS
 70
     0
  9
$HYPERLINKBASE
  1

  9
$STYLESHEET
  1

  9
$XEDIT
290
     1
  9
$CEPSNTYPE
380
     0
  9
$PSTYLEMODE
290
     1
  9
$FINGERPRINTGUID
  2

  9
$VERSIONGUID
  2

  9
$EXTNAMES
290
     1
  9
$PSVPSCALE
 40
0.0
  0
ENDSEC
  0
SECTION
  2
CLASSES
  0
CLASS
  1
LWPOLYLINE
  2
AcDbPolyline
  3
AutoCAD 2000
 90
    32768
280
     0
281
     1
  0
CLASS
  1
IMAGE
  2
AcDbRasterImage
  3
ISM
 90
    32895
280
     0
281
     1
  0
CLASS
  1
OLE2FRAME
  2
AcDbOle2Frame
  3
AutoCAD 2000
 90
    32768
280
     0
281
     1
  0
CLASS
  1
HATCH
  2
AcDbHatch
  3
AutoCAD 2000
 90
    32768
280
     0
281
     1
  0
CLASS
  1
DICTIONARYVAR
  2
AcDbDictionaryVar
  3
AutoCAD 2000
 90
    32768
280
     0
281
     0
  0
CLASS
  1
RASTERVARIABLES
  2
AcDbRasterVariables
  3
ISM
 90
    32768
280
     0
281
     0
  0
CLASS
  1
IMAGEDEF
  2
AcDbRasterImageDef
  3
ISM
 90
    32768
280
     0
281
     0
  0
CLASS
  1
IMAGEDEF_REACTOR
  2
AcDbRasterImageDefReactor
  3
ISM
 90
    32769
280
     0
281
     0
  0
CLASS
  1
IDBUFFER
  2
AcDbIdBuffer
  3
AutoCAD 2000
 90
    32768
280
     0
281
     0
  0
CLASS
  1
SPATIAL_FILTER
  2
AcDbSpatialFilter
  3
AutoCAD 2000
 90
    32768
280
     0
281
     0
  0
CLASS
  1
XRECORD
  2
AcDbXrecord
  3
AutoCAD 2000
 90
    32768
280
     0
281
     0
  0
CLASS
  1
SORTENTSTABLE
  2
AcDbSortentsTable
  3
AutoCAD 2000
 90
    32768
280
     0
281
     0
  0
CLASS
  1
LAYER_INDEX
  2
AcDbLayerIndex
  3
AutoCAD 2000
 90
    32768
280
     0
281
     0
  0
CLASS
  1
SPATIAL_INDEX
  2
AcDbSpatialIndex
  3
AutoCAD 2000
 90
    32768
280
     0
281
     0
  0
CLASS
  1
OBJECT_PTR
  2
CAseDLPNTableRecord
  3
"ASE-LPNTableRecord"
 90
    32769
280
     0
281
     0
  0
CLASS
  1
LAYOUT
  2
AcDbLayout
  3
AutoCAD 2000
 90
        0
280
     0
281
     0
  0
CLASS
  1
PLOTSETTINGS
  2
AcDbPlotSettings
  3
AutoCAD 2000
 90
    32768
280
     0
281
     0
  0
CLASS
  1
ACDBDICTIONARYWDFLT
  2
AcDbDictionaryWithDefault
  3
AutoCAD 2000
 90
        0
280
     0
281
     0
  0
CLASS
  1
ACDBPLACEHOLDER
  2
AcDbPlaceHolder
  3
AutoCAD 2000
 90
        0
280
     0
281
     0
  0
CLASS
  1
VBA_PROJECT
  2
AcDbVbaProject
  3
acadvba
 90
    32768
280
     0
281
     0
  0
CLASS
  1
WIPEOUT
  2
AcDbWipeout
  3
WipeOut|AutoCAD Express Tool|expresstools@autodesk.com
 90
    32895
280
     0
281
     1
  0
CLASS
  1
WIPEOUTVARIABLES
  2
AcDbWipeoutVariables
  3
WipeOut|AutoCAD Express Tool|expresstools@autodesk.com
 90
        0
280
     0
281
     0
  0
CLASS
  1
RTEXT
  2
RText
  3
RText|AutoCAD Express Tool|expresstools@autodesk.com
 90
    32768
280
     0
281
     1
  0
CLASS
  1
ARCALIGNEDTEXT
  2
AcDbArcAlignedText
  3
ATEXT|AutoCAD Express Tool|expresstools@autodesk.com
 90
    32768
280
     0
281
     1
  0
ENDSEC
  0
SECTION
  2
TABLES
  0
TABLE
  2
VPORT
  5
7
100
AcDbSymbolTable
 70
     1
  0
VPORT
  5
15
100
AcDbSymbolTableRecord
100
AcDbViewportTableRecord
  2
*ACTIVE
 70
     0
 10
0.0
 20
0.0
 11
1.0
 21
1.0
 12
6.591288
 22
4.579184
 13
0.0
 23
0.0
 14
1.0
 24
1.0
 15
0.0
 25
0.0
 16
0.0
 26
0.0
 36
1.0
 17
0.0
 27
0.0
 37
0.0
 40
9.158369
 41
0.688564
 42
50.0
 43
0.0
 44
0.0
 50
0.0
 51
0.0
 71
     0
 72
   100
 73
     1
 74
     1
 75
     0
 76
     0
 77
     0
 78
     0
281
     0
 65
     0
110
0.0
120
0.0
130
0.0
111
1.0
121
0.0
131
0.0
112
0.0
122
1.0
132
0.0
345
0
346
0
 79
     0
146
0.0
  0
ENDTAB
  0
TABLE
  2
LTYPE
  5
4
100
AcDbSymbolTable
 70
     9
  0
LTYPE
  5
11
100
AcDbSymbolTableRecord
100
AcDbLinetypeTableRecord
  2
ByBlock
 70
    64
  3

 72
    65
 73
     0
 40
0.0
  0
LTYPE
  5
12
100
AcDbSymbolTableRecord
100
AcDbLinetypeTableRecord
  2
ByLayer
 70
    64
  3

 72
    65
 73
     0
 40
0.0
  0
LTYPE
  5
13
100
AcDbSymbolTableRecord
100
AcDbLinetypeTableRecord
  2
Continuous
 70
    64
  3
Solid line
 72
    65
 73
     0
 40
0.0
  0
LTYPE
  5
25
100
AcDbSymbolTableRecord
100
AcDbLinetypeTableRecord
  2
HIDDEN
 70
    64
  3
- - - - - - - - 
 72
    65
 73
     2
 40
12.6
 49
8.4
 74
     0
 49
-4.2
 74
     0
  0
LTYPE
  5
26
100
AcDbSymbolTableRecord
100
AcDbLinetypeTableRecord
  2
DOT
 70
    64
  3
･ ･ ･ ･ ･ ･ ･ ･ 
 72
    65
 73
     2
 40
8.0
 49
6.0
 74
     0
 49
-2.0
 74
     0
  0
LTYPE
  5
27
100
AcDbSymbolTableRecord
100
AcDbLinetypeTableRecord
  2
CENTER
 70
    64
  3
- ･ - ･ - ･ - ･ 
 72
    65
 73
     4
 40
50.5
 49
30.0
 74
     0
 49
-9.0
 74
     0
 49
2.5
 74
     0
 49
-9.0
 74
     0
  0
LTYPE
  5
28
100
AcDbSymbolTableRecord
100
AcDbLinetypeTableRecord
  2
PHANTOM
 70
    64
  3
- ･･ - ･･ - ･･ - ･･ 
 72
    65
 73
     6
 40
58.0
 49
30.0
 74
     0
 49
-9.0
 74
     0
 49
2.5
 74
     0
 49
-5.0
 74
     0
 49
2.5
 74
     0
 49
-9.0
 74
     0
  0
LTYPE
  5
29
100
AcDbSymbolTableRecord
100
AcDbLinetypeTableRecord
  2
ACAD_ISO06W100
 70
    64
  3
____ ... ____ ... ____
 72
    65
 73
     8
 40
37.5
 49
24.0
 74
     0
 49
-3.0
 74
     0
 49
0.5
 74
     0
 49
-3.0
 74
     0
 49
0.5
 74
     0
 49
-3.0
 74
     0
 49
0.5
 74
     0
 49
-3.0
 74
     0
  0
LTYPE
  5
2A
100
AcDbSymbolTableRecord
100
AcDbLinetypeTableRecord
  2
ACAD_ISO14W100
 70
    64
  3
__ . . . __ . . . __ . . . 
 72
    65
 73
     8
 40
25.5
 49
12.0
 74
     0
 49
-3.0
 74
     0
 49
0.5
 74
     0
 49
-3.0
 74
     0
 49
0.5
 74
     0
 49
-3.0
 74
     0
 49
0.5
 74
     0
 49
-3.0
 74
     0
  0
ENDTAB
  0
TABLE
  2
LAYER
  5
2
100
AcDbSymbolTable
 70
   200
  0
LAYER
  5
14
100
AcDbSymbolTableRecord
100
AcDbLayerTableRecord
  2
0
 70
     0
 62
     7
  6
Continuous
290
     1
370
    -3
390
1D
  0
LAYER
  5
2B
100
AcDbSymbolTableRecord
100
AcDbLayerTableRecord
  2
1
 70
     0
 62
     7
  6
Continuous
290
     1
370
    -3
390
1D
  0
LAYER
  5
2C
100
AcDbSymbolTableRecord
100
AcDbLayerTableRecord
  2
2
 70
     0
 62
   174
  6
Continuous
290
     1
370
    -3
390
1D
  0
LAYER
  5
2D
100
AcDbSymbolTableRecord
100
AcDbLayerTableRecord
  2
3
 70
     0
 62
   114
  6
Continuous
290
     1
370
    -3
390
1D
  0
LAYER
  5
2E
100
AcDbSymbolTableRecord
100
AcDbLayerTableRecord
  2
4
 70
     0
 62
     6
  6
Continuous
290
     1
370
    -3
390
1D
  0
LAYER
  5
2F
100
AcDbSymbolTableRecord
100
AcDbLayerTableRecord
  2
5
 70
     0
 62
   214
  6
Continuous
290
     1
370
    -3
390
1D
  0
LAYER
  5
30
100
AcDbSymbolTableRecord
100
AcDbLayerTableRecord
  2
6
 70
     0
 62
    14
  6
Continuous
290
     1
370
    -3
390
1D
  0
LAYER
  5
31
100
AcDbSymbolTableRecord
100
AcDbLayerTableRecord
  2
7
 70
     0
 62
     3
  6
Continuous
290
     1
370
    -3
390
1D
  0
LAYER
  5
32
100
AcDbSymbolTableRecord
100
AcDbLayerTableRecord
  2
8
 70
     0
 62
     3
  6
Continuous
290
     1
370
    -3
390
1D
  0
LAYER
  5
33
100
AcDbSymbolTableRecord
100
AcDbLayerTableRecord
  2
9
 70
     0
 62
     7
  6
Continuous
290
     1
370
    -3
390
1D
  0
LAYER
  5
34
100
AcDbSymbolTableRecord
100
AcDbLayerTableRecord
  2
10
 70
     0
 62
   251
  6
Continuous
290
     1
370
    -3
390
1D
  0
LAYER
  5
35
100
AcDbSymbolTableRecord
100
AcDbLayerTableRecord
  2
11
 70
     0
 62
     7
  6
Continuous
290
     1
370
    -3
390
1D
  0
LAYER
  5
36
100
AcDbSymbolTableRecord
100
AcDbLayerTableRecord
  2
12
 70
     0
 62
     7
  6
Continuous
290
     1
370
    -3
390
1D
  0
LAYER
  5
37
100
AcDbSymbolTableRecord
100
AcDbLayerTableRecord
  2
13
 70
     0
 62
     7
  6
Continuous
290
     1
370
    -3
390
1D
  0
LAYER
  5
38
100
AcDbSymbolTableRecord
100
AcDbLayerTableRecord
  2
14
 70
     0
 62
     7
  6
Continuous
290
     1
370
    -3
390
1D
  0
LAYER
  5
39
100
AcDbSymbolTableRecord
100
AcDbLayerTableRecord
  2
15
 70
     0
 62
     7
  6
Continuous
290
     1
370
    -3
390
1D
  0
LAYER
  5
3A
100
AcDbSymbolTableRecord
100
AcDbLayerTableRecord
  2
16
 70
     0
 62
     7
  6
Continuous
290
     1
370
    -3
390
1D
  0
LAYER
  5
3B
100
AcDbSymbolTableRecord
100
AcDbLayerTableRecord
  2
17
 70
     0
 62
     7
  6
Continuous
290
     1
370
    -3
390
1D
  0
LAYER
  5
3C
100
AcDbSymbolTableRecord
100
AcDbLayerTableRecord
  2
18
 70
     0
 62
     7
  6
Continuous
290
     1
370
    -3
390
1D
  0
LAYER
  5
3D
100
AcDbSymbolTableRecord
100
AcDbLayerTableRecord
  2
19
 70
     0
 62
     7
  6
Continuous
290
     1
370
    -3
390
1D
  0
LAYER
  5
3E
100
AcDbSymbolTableRecord
100
AcDbLayerTableRecord
  2
20
 70
     0
 62
     7
  6
Continuous
290
     1
370
    -3
390
1D
  0
LAYER
  5
3F
100
AcDbSymbolTableRecord
100
AcDbLayerTableRecord
  2
21
 70
     0
 62
     7
  6
Continuous
290
     1
370
    -3
390
1D
  0
LAYER
  5
40
100
AcDbSymbolTableRecord
100
AcDbLayerTableRecord
  2
22
 70
     0
 62
     7
  6
Continuous
290
     1
370
    -3
390
1D
  0
LAYER
  5
41
100
AcDbSymbolTableRecord
100
AcDbLayerTableRecord
  2
23
 70
     0
 62
     7
  6
Continuous
290
     1
370
    -3
390
1D
  0
LAYER
  5
42
100
AcDbSymbolTableRecord
100
AcDbLayerTableRecord
  2
24
 70
     0
 62
     7
  6
Continuous
290
     1
370
    -3
390
1D
  0
LAYER
  5
43
100
AcDbSymbolTableRecord
100
AcDbLayerTableRecord
  2
25
 70
     0
 62
     7
  6
Continuous
290
     1
370
    -3
390
1D
  0
LAYER
  5
44
100
AcDbSymbolTableRecord
100
AcDbLayerTableRecord
  2
26
 70
     0
 62
     7
  6
Continuous
290
     1
370
    -3
390
1D
  0
LAYER
  5
45
100
AcDbSymbolTableRecord
100
AcDbLayerTableRecord
  2
27
 70
     0
 62
     7
  6
Continuous
290
     1
370
    -3
390
1D
  0
LAYER
  5
46
100
AcDbSymbolTableRecord
100
AcDbLayerTableRecord
  2
28
 70
     0
 62
     7
  6
Continuous
290
     1
370
    -3
390
1D
  0
LAYER
  5
47
100
AcDbSymbolTableRecord
100
AcDbLayerTableRecord
  2
29
 70
     0
 62
     7
  6
Continuous
290
     1
370
    -3
390
1D
  0
LAYER
  5
48
100
AcDbSymbolTableRecord
100
AcDbLayerTableRecord
  2
30
 70
     0
 62
     7
  6
Continuous
290
     1
370
    -3
390
1D
  0
LAYER
  5
49
100
AcDbSymbolTableRecord
100
AcDbLayerTableRecord
  2
31
 70
     0
 62
     7
  6
Continuous
290
     1
370
    -3
390
1D
  0
LAYER
  5
4A
100
AcDbSymbolTableRecord
100
AcDbLayerTableRecord
  2
32
 70
     0
 62
     7
  6
Continuous
290
     1
370
    -3
390
1D
  0
LAYER
  5
4B
100
AcDbSymbolTableRecord
100
AcDbLayerTableRecord
  2
33
 70
     0
 62
     7
  6
Continuous
290
     1
370
    -3
390
1D
  0
LAYER
  5
4C
100
AcDbSymbolTableRecord
100
AcDbLayerTableRecord
  2
34
 70
     0
 62
     7
  6
Continuous
290
     1
370
    -3
390
1D
  0
LAYER
  5
4D
100
AcDbSymbolTableRecord
100
AcDbLayerTableRecord
  2
35
 70
     0
 62
     7
  6
Continuous
290
     1
370
    -3
390
1D
  0
LAYER
  5
4E
100
AcDbSymbolTableRecord
100
AcDbLayerTableRecord
  2
36
 70
     0
 62
     7
  6
Continuous
290
     1
370
    -3
390
1D
  0
LAYER
  5
4F
100
AcDbSymbolTableRecord
100
AcDbLayerTableRecord
  2
37
 70
     0
 62
     7
  6
Continuous
290
     1
370
    -3
390
1D
  0
LAYER
  5
50
100
AcDbSymbolTableRecord
100
AcDbLayerTableRecord
  2
38
 70
     0
 62
     7
  6
Continuous
290
     1
370
    -3
390
1D
  0
LAYER
  5
51
100
AcDbSymbolTableRecord
100
AcDbLayerTableRecord
  2
39
 70
     0
 62
     7
  6
Continuous
290
     1
370
    -3
390
1D
  0
LAYER
  5
52
100
AcDbSymbolTableRecord
100
AcDbLayerTableRecord
  2
40
 70
     0
 62
     7
  6
Continuous
290
     1
370
    -3
390
1D
  0
LAYER
  5
53
100
AcDbSymbolTableRecord
100
AcDbLayerTableRecord
  2
41
 70
     0
 62
     7
  6
Continuous
290
     1
370
    -3
390
1D
  0
LAYER
  5
54
100
AcDbSymbolTableRecord
100
AcDbLayerTableRecord
  2
42
 70
     0
 62
     7
  6
Continuous
290
     1
370
    -3
390
1D
  0
LAYER
  5
55
100
AcDbSymbolTableRecord
100
AcDbLayerTableRecord
  2
43
 70
     0
 62
     7
  6
Continuous
290
     1
370
    -3
390
1D
  0
LAYER
  5
56
100
AcDbSymbolTableRecord
100
AcDbLayerTableRecord
  2
44
 70
     0
 62
     7
  6
Continuous
290
     1
370
    -3
390
1D
  0
LAYER
  5
57
100
AcDbSymbolTableRecord
100
AcDbLayerTableRecord
  2
45
 70
     0
 62
     7
  6
Continuous
290
     1
370
    -3
390
1D
  0
LAYER
  5
58
100
AcDbSymbolTableRecord
100
AcDbLayerTableRecord
  2
46
 70
     0
 62
     7
  6
Continuous
290
     1
370
    -3
390
1D
  0
LAYER
  5
59
100
AcDbSymbolTableRecord
100
AcDbLayerTableRecord
  2
47
 70
     0
 62
     7
  6
Continuous
290
     1
370
    -3
390
1D
  0
LAYER
  5
5A
100
AcDbSymbolTableRecord
100
AcDbLayerTableRecord
  2
48
 70
     0
 62
     7
  6
Continuous
290
     1
370
    -3
390
1D
  0
LAYER
  5
5B
100
AcDbSymbolTableRecord
100
AcDbLayerTableRecord
  2
49
 70
     0
 62
     7
  6
Continuous
290
     1
370
    -3
390
1D
  0
LAYER
  5
5C
100
AcDbSymbolTableRecord
100
AcDbLayerTableRecord
  2
50
 70
     0
 62
     7
  6
Continuous
290
     1
370
    -3
390
1D
  0
LAYER
  5
5D
100
AcDbSymbolTableRecord
100
AcDbLayerTableRecord
  2
51
 70
     0
 62
     7
  6
Continuous
290
     1
370
    -3
390
1D
  0
LAYER
  5
5E
100
AcDbSymbolTableRecord
100
AcDbLayerTableRecord
  2
52
 70
     0
 62
     7
  6
Continuous
290
     1
370
    -3
390
1D
  0
LAYER
  5
5F
100
AcDbSymbolTableRecord
100
AcDbLayerTableRecord
  2
53
 70
     0
 62
     7
  6
Continuous
290
     1
370
    -3
390
1D
  0
LAYER
  5
60
100
AcDbSymbolTableRecord
100
AcDbLayerTableRecord
  2
54
 70
     0
 62
     7
  6
Continuous
290
     1
370
    -3
390
1D
  0
LAYER
  5
61
100
AcDbSymbolTableRecord
100
AcDbLayerTableRecord
  2
55
 70
     0
 62
     7
  6
Continuous
290
     1
370
    -3
390
1D
  0
LAYER
  5
62
100
AcDbSymbolTableRecord
100
AcDbLayerTableRecord
  2
56
 70
     0
 62
     7
  6
Continuous
290
     1
370
    -3
390
1D
  0
LAYER
  5
63
100
AcDbSymbolTableRecord
100
AcDbLayerTableRecord
  2
57
 70
     0
 62
     7
  6
Continuous
290
     1
370
    -3
390
1D
  0
LAYER
  5
64
100
AcDbSymbolTableRecord
100
AcDbLayerTableRecord
  2
58
 70
     0
 62
     7
  6
Continuous
290
     1
370
    -3
390
1D
  0
LAYER
  5
65
100
AcDbSymbolTableRecord
100
AcDbLayerTableRecord
  2
59
 70
     0
 62
     7
  6
Continuous
290
     1
370
    -3
390
1D
  0
LAYER
  5
66
100
AcDbSymbolTableRecord
100
AcDbLayerTableRecord
  2
60
 70
     0
 62
     7
  6
Continuous
290
     1
370
    -3
390
1D
  0
LAYER
  5
67
100
AcDbSymbolTableRecord
100
AcDbLayerTableRecord
  2
61
 70
     0
 62
     7
  6
Continuous
290
     1
370
    -3
390
1D
  0
LAYER
  5
68
100
AcDbSymbolTableRecord
100
AcDbLayerTableRecord
  2
62
 70
     0
 62
     7
  6
Continuous
290
     1
370
    -3
390
1D
  0
LAYER
  5
69
100
AcDbSymbolTableRecord
100
AcDbLayerTableRecord
  2
63
 70
     0
 62
     7
  6
Continuous
290
     1
370
    -3
390
1D
  0
LAYER
  5
6A
100
AcDbSymbolTableRecord
100
AcDbLayerTableRecord
  2
64
 70
     0
 62
     7
  6
Continuous
290
     1
370
    -3
390
1D
  0
LAYER
  5
6B
100
AcDbSymbolTableRecord
100
AcDbLayerTableRecord
  2
65
 70
     0
 62
     7
  6
Continuous
290
     1
370
    -3
390
1D
  0
LAYER
  5
6C
100
AcDbSymbolTableRecord
100
AcDbLayerTableRecord
  2
66
 70
     0
 62
     7
  6
Continuous
290
     1
370
    -3
390
1D
  0
LAYER
  5
6D
100
AcDbSymbolTableRecord
100
AcDbLayerTableRecord
  2
67
 70
     0
 62
     7
  6
Continuous
290
     1
370
    -3
390
1D
  0
LAYER
  5
6E
100
AcDbSymbolTableRecord
100
AcDbLayerTableRecord
  2
68
 70
     0
 62
     7
  6
Continuous
290
     1
370
    -3
390
1D
  0
LAYER
  5
6F
100
AcDbSymbolTableRecord
100
AcDbLayerTableRecord
  2
69
 70
     0
 62
     7
  6
Continuous
290
     1
370
    -3
390
1D
  0
LAYER
  5
70
100
AcDbSymbolTableRecord
100
AcDbLayerTableRecord
  2
70
 70
     0
 62
     7
  6
Continuous
290
     1
370
    -3
390
1D
  0
LAYER
  5
71
100
AcDbSymbolTableRecord
100
AcDbLayerTableRecord
  2
71
 70
     0
 62
     7
  6
Continuous
290
     1
370
    -3
390
1D
  0
LAYER
  5
72
100
AcDbSymbolTableRecord
100
AcDbLayerTableRecord
  2
72
 70
     0
 62
     7
  6
Continuous
290
     1
370
    -3
390
1D
  0
LAYER
  5
73
100
AcDbSymbolTableRecord
100
AcDbLayerTableRecord
  2
73
 70
     0
 62
     7
  6
Continuous
290
     1
370
    -3
390
1D
  0
LAYER
  5
74
100
AcDbSymbolTableRecord
100
AcDbLayerTableRecord
  2
74
 70
     0
 62
     7
  6
Continuous
290
     1
370
    -3
390
1D
  0
LAYER
  5
75
100
AcDbSymbolTableRecord
100
AcDbLayerTableRecord
  2
75
 70
     0
 62
     7
  6
Continuous
290
     1
370
    -3
390
1D
  0
LAYER
  5
76
100
AcDbSymbolTableRecord
100
AcDbLayerTableRecord
  2
76
 70
     0
 62
     7
  6
Continuous
290
     1
370
    -3
390
1D
  0
LAYER
  5
77
100
AcDbSymbolTableRecord
100
AcDbLayerTableRecord
  2
77
 70
     0
 62
     7
  6
Continuous
290
     1
370
    -3
390
1D
  0
LAYER
  5
78
100
AcDbSymbolTableRecord
100
AcDbLayerTableRecord
  2
78
 70
     0
 62
     7
  6
Continuous
290
     1
370
    -3
390
1D
  0
LAYER
  5
79
100
AcDbSymbolTableRecord
100
AcDbLayerTableRecord
  2
79
 70
     0
 62
     7
  6
Continuous
290
     1
370
    -3
390
1D
  0
LAYER
  5
7A
100
AcDbSymbolTableRecord
100
AcDbLayerTableRecord
  2
80
 70
     0
 62
     7
  6
Continuous
290
     1
370
    -3
390
1D
  0
LAYER
  5
7B
100
AcDbSymbolTableRecord
100
AcDbLayerTableRecord
  2
81
 70
     0
 62
     7
  6
Continuous
290
     1
370
    -3
390
1D
  0
LAYER
  5
7C
100
AcDbSymbolTableRecord
100
AcDbLayerTableRecord
  2
82
 70
     0
 62
     7
  6
Continuous
290
     1
370
    -3
390
1D
  0
LAYER
  5
7D
100
AcDbSymbolTableRecord
100
AcDbLayerTableRecord
  2
83
 70
     0
 62
     7
  6
Continuous
290
     1
370
    -3
390
1D
  0
LAYER
  5
7E
100
AcDbSymbolTableRecord
100
AcDbLayerTableRecord
  2
84
 70
     0
 62
     7
  6
Continuous
290
     1
370
    -3
390
1D
  0
LAYER
  5
7F
100
AcDbSymbolTableRecord
100
AcDbLayerTableRecord
  2
85
 70
     0
 62
     7
  6
Continuous
290
     1
370
    -3
390
1D
  0
LAYER
  5
80
100
AcDbSymbolTableRecord
100
AcDbLayerTableRecord
  2
86
 70
     0
 62
     7
  6
Continuous
290
     1
370
    -3
390
1D
  0
LAYER
  5
81
100
AcDbSymbolTableRecord
100
AcDbLayerTableRecord
  2
87
 70
     0
 62
     7
  6
Continuous
290
     1
370
    -3
390
1D
  0
LAYER
  5
82
100
AcDbSymbolTableRecord
100
AcDbLayerTableRecord
  2
88
 70
     0
 62
     7
  6
Continuous
290
     1
370
    -3
390
1D
  0
LAYER
  5
83
100
AcDbSymbolTableRecord
100
AcDbLayerTableRecord
  2
89
 70
     0
 62
     7
  6
Continuous
290
     1
370
    -3
390
1D
  0
LAYER
  5
84
100
AcDbSymbolTableRecord
100
AcDbLayerTableRecord
  2
90
 70
     0
 62
     7
  6
Continuous
290
     1
370
    -3
390
1D
  0
LAYER
  5
85
100
AcDbSymbolTableRecord
100
AcDbLayerTableRecord
  2
91
 70
     0
 62
     7
  6
Continuous
290
     1
370
    -3
390
1D
  0
LAYER
  5
86
100
AcDbSymbolTableRecord
100
AcDbLayerTableRecord
  2
92
 70
     0
 62
     7
  6
Continuous
290
     1
370
    -3
390
1D
  0
LAYER
  5
87
100
AcDbSymbolTableRecord
100
AcDbLayerTableRecord
  2
93
 70
     0
 62
     7
  6
Continuous
290
     1
370
    -3
390
1D
  0
LAYER
  5
88
100
AcDbSymbolTableRecord
100
AcDbLayerTableRecord
  2
94
 70
     0
 62
     7
  6
Continuous
290
     1
370
    -3
390
1D
  0
LAYER
  5
89
100
AcDbSymbolTableRecord
100
AcDbLayerTableRecord
  2
95
 70
     0
 62
     7
  6
Continuous
290
     1
370
    -3
390
1D
  0
LAYER
  5
8A
100
AcDbSymbolTableRecord
100
AcDbLayerTableRecord
  2
96
 70
     0
 62
     7
  6
Continuous
290
     1
370
    -3
390
1D
  0
LAYER
  5
8B
100
AcDbSymbolTableRecord
100
AcDbLayerTableRecord
  2
97
 70
     0
 62
     7
  6
Continuous
290
     1
370
    -3
390
1D
  0
LAYER
  5
8C
100
AcDbSymbolTableRecord
100
AcDbLayerTableRecord
  2
98
 70
     0
 62
     7
  6
Continuous
290
     1
370
    -3
390
1D
  0
LAYER
  5
8D
100
AcDbSymbolTableRecord
100
AcDbLayerTableRecord
  2
99
 70
     0
 62
     7
  6
Continuous
290
     1
370
    -3
390
1D
  0
LAYER
  5
8E
100
AcDbSymbolTableRecord
100
AcDbLayerTableRecord
  2
100
 70
     0
 62
     7
  6
Continuous
290
     1
370
    -3
390
1D
  0
LAYER
  5
8F
100
AcDbSymbolTableRecord
100
AcDbLayerTableRecord
  2
101
 70
     0
 62
    14
  6
Continuous
290
     1
370
    -3
390
1D
  0
LAYER
  5
90
100
AcDbSymbolTableRecord
100
AcDbLayerTableRecord
  2
102
 70
     0
 62
     7
  6
Continuous
290
     1
370
    -3
390
1D
  0
LAYER
  5
91
100
AcDbSymbolTableRecord
100
AcDbLayerTableRecord
  2
103
 70
     0
 62
     5
  6
Continuous
290
     1
370
    -3
390
1D
  0
LAYER
  5
92
100
AcDbSymbolTableRecord
100
AcDbLayerTableRecord
  2
104
 70
     0
 62
   134
  6
Continuous
290
     1
370
    -3
390
1D
  0
LAYER
  5
93
100
AcDbSymbolTableRecord
100
AcDbLayerTableRecord
  2
105
 70
     0
 62
   174
  6
Continuous
290
     1
370
    -3
390
1D
  0
LAYER
  5
94
100
AcDbSymbolTableRecord
100
AcDbLayerTableRecord
  2
106
 70
     0
 62
     7
  6
Continuous
290
     1
370
    -3
390
1D
  0
LAYER
  5
95
100
AcDbSymbolTableRecord
100
AcDbLayerTableRecord
  2
107
 70
     0
 62
     7
  6
Continuous
290
     1
370
    -3
390
1D
  0
LAYER
  5
96
100
AcDbSymbolTableRecord
100
AcDbLayerTableRecord
  2
108
 70
     0
 62
     7
  6
Continuous
290
     1
370
    -3
390
1D
  0
LAYER
  5
97
100
AcDbSymbolTableRecord
100
AcDbLayerTableRecord
  2
109
 70
     0
 62
     7
  6
Continuous
290
     1
370
    -3
390
1D
  0
LAYER
  5
98
100
AcDbSymbolTableRecord
100
AcDbLayerTableRecord
  2
110
 70
     0
 62
     7
  6
Continuous
290
     1
370
    -3
390
1D
  0
LAYER
  5
99
100
AcDbSymbolTableRecord
100
AcDbLayerTableRecord
  2
111
 70
     0
 62
     7
  6
Continuous
290
     1
370
    -3
390
1D
  0
LAYER
  5
9A
100
AcDbSymbolTableRecord
100
AcDbLayerTableRecord
  2
112
 70
     0
 62
     7
  6
Continuous
290
     1
370
    -3
390
1D
  0
LAYER
  5
9B
100
AcDbSymbolTableRecord
100
AcDbLayerTableRecord
  2
113
 70
     0
 62
     7
  6
Continuous
290
     1
370
    -3
390
1D
  0
LAYER
  5
9C
100
AcDbSymbolTableRecord
100
AcDbLayerTableRecord
  2
114
 70
     0
 62
     7
  6
Continuous
290
     1
370
    -3
390
1D
  0
LAYER
  5
9D
100
AcDbSymbolTableRecord
100
AcDbLayerTableRecord
  2
115
 70
     0
 62
     7
  6
Continuous
290
     1
370
    -3
390
1D
  0
LAYER
  5
9E
100
AcDbSymbolTableRecord
100
AcDbLayerTableRecord
  2
116
 70
     0
 62
     7
  6
Continuous
290
     1
370
    -3
390
1D
  0
LAYER
  5
9F
100
AcDbSymbolTableRecord
100
AcDbLayerTableRecord
  2
117
 70
     0
 62
     7
  6
Continuous
290
     1
370
    -3
390
1D
  0
LAYER
  5
A0
100
AcDbSymbolTableRecord
100
AcDbLayerTableRecord
  2
118
 70
     0
 62
     7
  6
Continuous
290
     1
370
    -3
390
1D
  0
LAYER
  5
A1
100
AcDbSymbolTableRecord
100
AcDbLayerTableRecord
  2
119
 70
     0
 62
     7
  6
Continuous
290
     1
370
    -3
390
1D
  0
LAYER
  5
A2
100
AcDbSymbolTableRecord
100
AcDbLayerTableRecord
  2
120
 70
     0
 62
     7
  6
Continuous
290
     1
370
    -3
390
1D
  0
LAYER
  5
A3
100
AcDbSymbolTableRecord
100
AcDbLayerTableRecord
  2
121
 70
     0
 62
     7
  6
Continuous
290
     1
370
    -3
390
1D
  0
LAYER
  5
A4
100
AcDbSymbolTableRecord
100
AcDbLayerTableRecord
  2
122
 70
     0
 62
     7
  6
Continuous
290
     1
370
    -3
390
1D
  0
LAYER
  5
A5
100
AcDbSymbolTableRecord
100
AcDbLayerTableRecord
  2
123
 70
     0
 62
     7
  6
Continuous
290
     1
370
    -3
390
1D
  0
LAYER
  5
A6
100
AcDbSymbolTableRecord
100
AcDbLayerTableRecord
  2
124
 70
     0
 62
     7
  6
Continuous
290
     1
370
    -3
390
1D
  0
LAYER
  5
A7
100
AcDbSymbolTableRecord
100
AcDbLayerTableRecord
  2
125
 70
     0
 62
     7
  6
Continuous
290
     1
370
    -3
390
1D
  0
LAYER
  5
A8
100
AcDbSymbolTableRecord
100
AcDbLayerTableRecord
  2
126
 70
     0
 62
     7
  6
Continuous
290
     1
370
    -3
390
1D
  0
LAYER
  5
A9
100
AcDbSymbolTableRecord
100
AcDbLayerTableRecord
  2
127
 70
     0
 62
     7
  6
Continuous
290
     1
370
    -3
390
1D
  0
LAYER
  5
AA
100
AcDbSymbolTableRecord
100
AcDbLayerTableRecord
  2
128
 70
     0
 62
     7
  6
Continuous
290
     1
370
    -3
390
1D
  0
LAYER
  5
AB
100
AcDbSymbolTableRecord
100
AcDbLayerTableRecord
  2
201
 70
     0
 62
     2
  6
Continuous
290
     1
370
    -3
390
1D
  0
LAYER
  5
AC
100
AcDbSymbolTableRecord
100
AcDbLayerTableRecord
  2
202
 70
     0
 62
     2
  6
Continuous
290
     1
370
    -3
390
1D
  0
LAYER
  5
AD
100
AcDbSymbolTableRecord
100
AcDbLayerTableRecord
  2
203
 70
     0
 62
     4
  6
Continuous
290
     1
370
    -3
390
1D
  0
LAYER
  5
AE
100
AcDbSymbolTableRecord
100
AcDbLayerTableRecord
  2
204
 70
     0
 62
     7
  6
Continuous
290
     1
370
    -3
390
1D
  0
LAYER
  5
AF
100
AcDbSymbolTableRecord
100
AcDbLayerTableRecord
  2
301
 70
     0
 62
     7
  6
Continuous
290
     1
370
    -3
390
1D
  0
LAYER
  5
B0
100
AcDbSymbolTableRecord
100
AcDbLayerTableRecord
  2
302
 70
     0
 62
    14
  6
Continuous
290
     1
370
    -3
390
1D
  0
LAYER
  5
B1
100
AcDbSymbolTableRecord
100
AcDbLayerTableRecord
  2
303
 70
     0
 62
     5
  6
Continuous
290
     1
370
    -3
390
1D
  0
LAYER
  5
B2
100
AcDbSymbolTableRecord
100
AcDbLayerTableRecord
  2
304
 70
     0
 62
   214
  6
Continuous
290
     1
370
    -3
390
1D
  0
LAYER
  5
B3
100
AcDbSymbolTableRecord
100
AcDbLayerTableRecord
  2
305
 70
     0
 62
     3
  6
Continuous
290
     1
370
    -3
390
1D
  0
LAYER
  5
B4
100
AcDbSymbolTableRecord
100
AcDbLayerTableRecord
  2
306
 70
     0
 62
     3
  6
Continuous
290
     1
370
    -3
390
1D
  0
LAYER
  5
B5
100
AcDbSymbolTableRecord
100
AcDbLayerTableRecord
  2
307
 70
     0
 62
   251
  6
Continuous
290
     1
370
    -3
390
1D
  0
LAYER
  5
B6
100
AcDbSymbolTableRecord
100
AcDbLayerTableRecord
  2
308
 70
     0
 62
   253
  6
Continuous
290
     1
370
    -3
390
1D
  0
LAYER
  5
B7
100
AcDbSymbolTableRecord
100
AcDbLayerTableRecord
  2
309
 70
     0
 62
     3
  6
Continuous
290
     1
370
    -3
390
1D
  0
LAYER
  5
B8
100
AcDbSymbolTableRecord
100
AcDbLayerTableRecord
  2
310
 70
     0
 62
     2
  6
Continuous
290
     1
370
    -3
390
1D
  0
LAYER
  5
B9
100
AcDbSymbolTableRecord
100
AcDbLayerTableRecord
  2
311
 70
     0
 62
   174
  6
Continuous
290
     1
370
    -3
390
1D
  0
LAYER
  5
BA
100
AcDbSymbolTableRecord
100
AcDbLayerTableRecord
  2
312
 70
     0
 62
    14
  6
Continuous
290
     1
370
    -3
390
1D
  0
LAYER
  5
BB
100
AcDbSymbolTableRecord
100
AcDbLayerTableRecord
  2
313
 70
     0
 62
     7
  6
Continuous
290
     1
370
    -3
390
1D
  0
LAYER
  5
BC
100
AcDbSymbolTableRecord
100
AcDbLayerTableRecord
  2
314
 70
     0
 62
     7
  6
Continuous
290
     1
370
    -3
390
1D
  0
LAYER
  5
BD
100
AcDbSymbolTableRecord
100
AcDbLayerTableRecord
  2
315
 70
     0
 62
   253
  6
Continuous
290
     1
370
    -3
390
1D
  0
LAYER
  5
BE
100
AcDbSymbolTableRecord
100
AcDbLayerTableRecord
  2
316
 70
     0
 62
   174
  6
Continuous
290
     1
370
    -3
390
1D
  0
LAYER
  5
BF
100
AcDbSymbolTableRecord
100
AcDbLayerTableRecord
  2
317
 70
     0
 62
   253
  6
Continuous
290
     1
370
    -3
390
1D
  0
LAYER
  5
C0
100
AcDbSymbolTableRecord
100
AcDbLayerTableRecord
  2
318
 70
     0
 62
   251
  6
Continuous
290
     1
370
    -3
390
1D
  0
LAYER
  5
C1
100
AcDbSymbolTableRecord
100
AcDbLayerTableRecord
  2
319
 70
     0
 62
     7
  6
Continuous
290
     1
370
    -3
390
1D
  0
LAYER
  5
C2
100
AcDbSymbolTableRecord
100
AcDbLayerTableRecord
  2
320
 70
     0
 62
     3
  6
Continuous
290
     1
370
    -3
390
1D
  0
LAYER
  5
C3
100
AcDbSymbolTableRecord
100
AcDbLayerTableRecord
  2
321
 70
     0
 62
   253
  6
Continuous
290
     1
370
    -3
390
1D
  0
LAYER
  5
C4
100
AcDbSymbolTableRecord
100
AcDbLayerTableRecord
  2
322
 70
     0
 62
     7
  6
Continuous
290
     1
370
    -3
390
1D
  0
LAYER
  5
C5
100
AcDbSymbolTableRecord
100
AcDbLayerTableRecord
  2
323
 70
     0
 62
   251
  6
Continuous
290
     1
370
    -3
390
1D
  0
LAYER
  5
C6
100
AcDbSymbolTableRecord
100
AcDbLayerTableRecord
  2
324
 70
     0
 62
     7
  6
Continuous
290
     1
370
    -3
390
1D
  0
LAYER
  5
C7
100
AcDbSymbolTableRecord
100
AcDbLayerTableRecord
  2
325
 70
     0
 62
     7
  6
Continuous
290
     1
370
    -3
390
1D
  0
LAYER
  5
C8
100
AcDbSymbolTableRecord
100
AcDbLayerTableRecord
  2
326
 70
     0
 62
     3
  6
Continuous
290
     1
370
    -3
390
1D
  0
LAYER
  5
C9
100
AcDbSymbolTableRecord
100
AcDbLayerTableRecord
  2
327
 70
     0
 62
    14
  6
Continuous
290
     1
370
    -3
390
1D
  0
LAYER
  5
CA
100
AcDbSymbolTableRecord
100
AcDbLayerTableRecord
  2
328
 70
     0
 62
   251
  6
Continuous
290
     1
370
    -3
390
1D
  0
LAYER
  5
CB
100
AcDbSymbolTableRecord
100
AcDbLayerTableRecord
  2
329
 70
     0
 62
     6
  6
Continuous
290
     1
370
    -3
390
1D
  0
LAYER
  5
CC
100
AcDbSymbolTableRecord
100
AcDbLayerTableRecord
  2
330
 70
     0
 62
   251
  6
Continuous
290
     1
370
    -3
390
1D
  0
LAYER
  5
CD
100
AcDbSymbolTableRecord
100
AcDbLayerTableRecord
  2
401
 70
     0
 62
   251
  6
Continuous
290
     1
370
    -3
390
1D
  0
LAYER
  5
CE
100
AcDbSymbolTableRecord
100
AcDbLayerTableRecord
  2
402
 70
     0
 62
   251
  6
Continuous
290
     1
370
    -3
390
1D
  0
LAYER
  5
CF
100
AcDbSymbolTableRecord
100
AcDbLayerTableRecord
  2
403
 70
     0
 62
     6
  6
Continuous
290
     1
370
    -3
390
1D
  0
LAYER
  5
D0
100
AcDbSymbolTableRecord
100
AcDbLayerTableRecord
  2
404
 70
     0
 62
     6
  6
Continuous
290
     1
370
    -3
390
1D
  0
LAYER
  5
D1
100
AcDbSymbolTableRecord
100
AcDbLayerTableRecord
  2
451
 70
     0
 62
   253
  6
Continuous
290
     1
370
    -3
390
1D
  0
LAYER
  5
D2
100
AcDbSymbolTableRecord
100
AcDbLayerTableRecord
  2
452
 70
     0
 62
    14
  6
Continuous
290
     1
370
    -3
390
1D
  0
LAYER
  5
D3
100
AcDbSymbolTableRecord
100
AcDbLayerTableRecord
  2
453
 70
     0
 62
    14
  6
Continuous
290
     1
370
    -3
390
1D
  0
LAYER
  5
D4
100
AcDbSymbolTableRecord
100
AcDbLayerTableRecord
  2
454
 70
     0
 62
    14
  6
Continuous
290
     1
370
    -3
390
1D
  0
LAYER
  5
D5
100
AcDbSymbolTableRecord
100
AcDbLayerTableRecord
  2
501
 70
     0
 62
     7
  6
Continuous
290
     1
370
    -3
390
1D
  0
LAYER
  5
D6
100
AcDbSymbolTableRecord
100
AcDbLayerTableRecord
  2
502
 70
     0
 62
     7
  6
Continuous
290
     1
370
    -3
390
1D
  0
LAYER
  5
D7
100
AcDbSymbolTableRecord
100
AcDbLayerTableRecord
  2
503
 70
     0
 62
   214
  6
Continuous
290
     1
370
    -3
390
1D
  0
LAYER
  5
D8
100
AcDbSymbolTableRecord
100
AcDbLayerTableRecord
  2
504
 70
     0
 62
     6
  6
Continuous
290
     1
370
    -3
390
1D
  0
LAYER
  5
D9
100
AcDbSymbolTableRecord
100
AcDbLayerTableRecord
  2
1001
 70
     0
 62
     7
  6
Continuous
290
     1
370
    -3
390
1D
  0
LAYER
  5
DA
100
AcDbSymbolTableRecord
100
AcDbLayerTableRecord
  2
1002
 70
     0
 62
     7
  6
Continuous
290
     1
370
    -3
390
1D
  0
LAYER
  5
DB
100
AcDbSymbolTableRecord
100
AcDbLayerTableRecord
  2
1003
 70
     0
 62
    30
  6
Continuous
290
     1
370
    -3
390
1D
  0
LAYER
  5
DC
100
AcDbSymbolTableRecord
100
AcDbLayerTableRecord
  2
1004
 70
     0
 62
     5
  6
Continuous
290
     1
370
    -3
390
1D
  0
LAYER
  5
DD
100
AcDbSymbolTableRecord
100
AcDbLayerTableRecord
  2
1005
 70
     0
 62
     5
  6
Continuous
290
     1
370
    -3
390
1D
  0
LAYER
  5
DE
100
AcDbSymbolTableRecord
100
AcDbLayerTableRecord
  2
1006
 70
     0
 62
     5
  6
Continuous
290
     1
370
    -3
390
1D
  0
LAYER
  5
DF
100
AcDbSymbolTableRecord
100
AcDbLayerTableRecord
  2
1007
 70
     0
 62
   253
  6
Continuous
290
     1
370
    -3
390
1D
  0
LAYER
  5
E0
100
AcDbSymbolTableRecord
100
AcDbLayerTableRecord
  2
1008
 70
     0
 62
   253
  6
Continuous
290
     1
370
    -3
390
1D
  0
LAYER
  5
E1
100
AcDbSymbolTableRecord
100
AcDbLayerTableRecord
  2
1009
 70
     0
 62
   253
  6
Continuous
290
     1
370
    -3
390
1D
  0
LAYER
  5
E2
100
AcDbSymbolTableRecord
100
AcDbLayerTableRecord
  2
1010
 70
     0
 62
     3
  6
Continuous
290
     1
370
    -3
390
1D
  0
LAYER
  5
E3
100
AcDbSymbolTableRecord
100
AcDbLayerTableRecord
  2
1011
 70
     0
 62
     1
  6
Continuous
290
     1
370
    -3
390
1D
  0
LAYER
  5
E4
100
AcDbSymbolTableRecord
100
AcDbLayerTableRecord
  2
1101
 70
     0
 62
   251
  6
Continuous
290
     1
370
    -3
390
1D
  0
LAYER
  5
E5
100
AcDbSymbolTableRecord
100
AcDbLayerTableRecord
  2
1102
 70
     0
 62
   253
  6
Continuous
290
     1
370
    -3
390
1D
  0
LAYER
  5
E6
100
AcDbSymbolTableRecord
100
AcDbLayerTableRecord
  2
1201
 70
     0
 62
     7
  6
Continuous
290
     1
370
    -3
390
1D
  0
LAYER
  5
E7
100
AcDbSymbolTableRecord
100
AcDbLayerTableRecord
  2
1202
 70
     0
 62
     7
  6
Continuous
290
     1
370
    -3
390
1D
  0
LAYER
  5
E8
100
AcDbSymbolTableRecord
100
AcDbLayerTableRecord
  2
1203
 70
     0
 62
     3
  6
Continuous
290
     1
370
    -3
390
1D
  0
LAYER
  5
E9
100
AcDbSymbolTableRecord
100
AcDbLayerTableRecord
  2
1204
 70
     0
 62
     3
  6
Continuous
290
     1
370
    -3
390
1D
  0
LAYER
  5
EA
100
AcDbSymbolTableRecord
100
AcDbLayerTableRecord
  2
1205
 70
     0
 62
   172
  6
Continuous
290
     1
370
    -3
390
1D
  0
LAYER
  5
EB
100
AcDbSymbolTableRecord
100
AcDbLayerTableRecord
  2
1206
 70
     0
 62
    14
  6
Continuous
290
     1
370
    -3
390
1D
  0
LAYER
  5
EC
100
AcDbSymbolTableRecord
100
AcDbLayerTableRecord
  2
1207
 70
     0
 62
   253
  6
Continuous
290
     1
370
    -3
390
1D
  0
LAYER
  5
ED
100
AcDbSymbolTableRecord
100
AcDbLayerTableRecord
  2
1208
 70
     0
 62
     7
  6
Continuous
290
     1
370
    -3
390
1D
  0
LAYER
  5
EE
100
AcDbSymbolTableRecord
100
AcDbLayerTableRecord
  2
10001
 70
     0
 62
     6
  6
Continuous
290
     1
370
    -3
390
1D
  0
LAYER
  5
EF
100
AcDbSymbolTableRecord
100
AcDbLayerTableRecord
  2
10002
 70
     0
 62
   135
  6
Continuous
290
     1
370
    -3
390
1D
  0
LAYER
  5
F0
100
AcDbSymbolTableRecord
100
AcDbLayerTableRecord
  2
10003
 70
     0
 62
     7
  6
Continuous
290
     1
370
    -3
390
1D
  0
LAYER
  5
F1
100
AcDbSymbolTableRecord
100
AcDbLayerTableRecord
  2
10004
 70
     0
 62
     6
  6
Continuous
290
     1
370
    -3
390
1D
  0
ENDTAB
  0
TABLE
  2
STYLE
  5
3
100
AcDbSymbolTable
 70
     2
  0
STYLE
  5
17
100
AcDbSymbolTableRecord
100
AcDbTextStyleTableRecord
  2
Standard
 70
     0
 40
0.0
 41
1.0
 50
0.0
 71
     0
 42
0.0
  3
txt
  4
bigfont
  0
STYLE
  5
24
100
AcDbSymbolTableRecord
100
AcDbTextStyleTableRecord
  2
T_STANDARD
 70
    68
 40
10.0
 41
1.0
 50
0.0
 71
     0
 42
10.0
  3
txt
  4
bigfont
  0
ENDTAB
  0
TABLE
  2
VIEW
  5
5
100
AcDbSymbolTable
 70
     0
  0
ENDTAB
  0
TABLE
  2
UCS
  5
6
100
AcDbSymbolTable
 70
     0
  0
ENDTAB
  0
TABLE
  2
APPID
  5
8
100
AcDbSymbolTable
 70
     1
  0
APPID
  5
16
100
AcDbSymbolTableRecord
100
AcDbRegAppTableRecord
  2
ACAD
 70
     0
  0
ENDTAB
  0
TABLE
  2
DIMSTYLE
  5
9
100
AcDbSymbolTable
 70
     1
100
AcDbDimStyleTable
 71
     0
  0
DIMSTYLE
105
18
100
AcDbSymbolTableRecord
100
AcDbDimStyleTableRecord
  2
Standard
 70
     0
  3

  4

 40
1.0
 41
0.18
 42
0.0625
 43
0.38
 44
0.18
 45
0.0
 46
0.0
 47
0.0
 48
0.0
 71
     0
 72
     0
 73
     1
 74
     1
 75
     0
 76
     0
 77
     0
 78
     0
 79
     0
140
0.18
141
0.09
142
0.0
143
25.4
144
1.0
145
0.0
146
1.0
147
0.09
148
0.0
170
     0
171
     2
172
     0
173
     0
174
     0
175
     0
176
     0
177
     0
178
     0
179
     0
271
     4
272
     4
273
     2
274
     2
275
     0
276
     0
277
     2
278
    46
279
     0
280
     0
281
     0
282
     0
283
     1
284
     0
285
     0
286
     0
288
     0
340
17
341
0
342
0
343
0
344
0
371
    -2
372
    -2
  0
ENDTAB
  0
TABLE
  2
BLOCK_RECORD
  5
1
100
AcDbSymbolTable
 70
    11
  0
BLOCK_RECORD
  5
A
100
AcDbSymbolTableRecord
100
AcDbBlockTableRecord
  2
*MODEL_SPACE
340
20
  0
BLOCK_RECORD
  5
B
100
AcDbSymbolTableRecord
100
AcDbBlockTableRecord
  2
*PAPER_SPACE
340
21
  0
BLOCK_RECORD
  5
F2
100
AcDbSymbolTableRecord
100
AcDbBlockTableRecord
  2
*G0
340
0
102
{BLKREFS
331
F5
102
}
  0
BLOCK_RECORD
  5
374
100
AcDbSymbolTableRecord
100
AcDbBlockTableRecord
  2
*D1
340
0
  0
BLOCK_RECORD
  5
380
100
AcDbSymbolTableRecord
100
AcDbBlockTableRecord
  2
*D2
340
0
  0
BLOCK_RECORD
  5
38C
100
AcDbSymbolTableRecord
100
AcDbBlockTableRecord
  2
*D3
340
0
  0
BLOCK_RECORD
  5
398
100
AcDbSymbolTableRecord
100
AcDbBlockTableRecord
  2
*D4
340
0
  0
BLOCK_RECORD
  5
3A4
100
AcDbSymbolTableRecord
100
AcDbBlockTableRecord
  2
*D5
340
0
  0
BLOCK_RECORD
  5
3B0
100
AcDbSymbolTableRecord
100
AcDbBlockTableRecord
  2
*D6
340
0
  0
BLOCK_RECORD
  5
3BC
100
AcDbSymbolTableRecord
100
AcDbBlockTableRecord
  2
*D7
340
0
  0
BLOCK_RECORD
  5
3C8
100
AcDbSymbolTableRecord
100
AcDbBlockTableRecord
  2
*D8
340
0
  0
BLOCK_RECORD
  5
3D4
100
AcDbSymbolTableRecord
100
AcDbBlockTableRecord
  2
*D9
340
0
  0
BLOCK_RECORD
  5
48A
100
AcDbSymbolTableRecord
100
AcDbBlockTableRecord
  2
*D10
340
0
  0
ENDTAB
  0
ENDSEC
  0
SECTION
  2
BLOCKS
  0
BLOCK
  5
D
100
AcDbEntity
  8
0
100
AcDbBlockBegin
  2
*MODEL_SPACE
 70
     0
 10
0.0
 20
0.0
 30
0.0
  3
*MODEL_SPACE
  1

  0
ENDBLK
  5
E
100
AcDbEntity
  8
0
100
AcDbBlockEnd
  0
BLOCK
  5
F
100
AcDbEntity
 67
     1
  8
0
100
AcDbBlockBegin
  2
*PAPER_SPACE
 70
     0
 10
0.0
 20
0.0
 30
0.0
  3
*PAPER_SPACE
  1

  0
ENDBLK
  5
10
100
AcDbEntity
 67
     1
  8
0
100
AcDbBlockEnd
  0
BLOCK
  5
F3
100
AcDbEntity
  8
0
  6
Continuous
 62
     7
100
AcDbBlockBegin
  2
*G0
 70
     0
 10
0.0
 20
0.0
 30
0.0
  3
*G0
  1

  0
ENDBLK
  5
F4
100
AcDbEntity
  8
0
100
AcDbBlockEnd
  0
BLOCK
  5
375
100
AcDbEntity
  8
1
370
    30
  6
Continuous
 62
     7
100
AcDbBlockBegin
  2
*D1
 70
     0
 10
0.0
 20
0.0
 30
0.0
  3
*D1
  1

  0
LINE
  5
376
100
AcDbEntity
  8
1
370
    30
  6
Continuous
 62
     7
100
AcDbLine
 10
66.26441
 20
202.0
 30
0.0
 11
146.26436
 21
202.0
 31
0.0
  0
LINE
  5
377
100
AcDbEntity
  8
1
370
    30
  6
Continuous
 62
     7
100
AcDbLine
 10
66.26441
 20
204.0
 30
0.0
 11
66.26441
 21
189.828363
 31
0.0
  0
LINE
  5
378
100
AcDbEntity
  8
1
370
    30
  6
Continuous
 62
     7
100
AcDbLine
 10
146.26436
 20
204.0
 30
0.0
 11
146.26436
 21
189.828363
 31
0.0
  0
LINE
  5
379
100
AcDbEntity
  8
1
370
    30
  6
Continuous
 62
     7
100
AcDbLine
 10
66.26441
 20
202.0
 30
0.0
 11
69.162187
 21
202.776457
 31
0.0
  0
LINE
  5
37A
100
AcDbEntity
  8
1
370
    30
  6
Continuous
 62
     7
100
AcDbLine
 10
66.26441
 20
202.0
 30
0.0
 11
69.162187
 21
201.223543
 31
0.0
  0
LINE
  5
37B
100
AcDbEntity
  8
1
370
    30
  6
Continuous
 62
     7
100
AcDbLine
 10
146.26436
 20
202.0
 30
0.0
 11
143.366583
 21
201.223543
 31
0.0
  0
LINE
  5
37C
100
AcDbEntity
  8
1
370
    30
  6
Continuous
 62
     7
100
AcDbLine
 10
146.26436
 20
202.0
 30
0.0
 11
143.366583
 21
202.776457
 31
0.0
  0
TEXT
  5
37D
100
AcDbEntity
  8
1
370
    30
  6
Continuous
 62
     7
100
AcDbText
 10
103.764385
 20
202.0
 30
0.0
 40
5.0
  1
80
 41
0.5
 11
103.764385
 21
202.0
 31
0.0
100
AcDbText
 73
     1
  0
ENDBLK
  5
37E
100
AcDbEntity
  8
1
370
    30
  6
Continuous
 62
     7
100
AcDbBlockEnd
  0
BLOCK
  5
381
100
AcDbEntity
  8
1
370
    30
  6
Continuous
 62
     7
100
AcDbBlockBegin
  2
*D2
 70
     0
 10
0.0
 20
0.0
 30
0.0
  3
*D2
  1

  0
LINE
  5
382
100
AcDbEntity
  8
1
370
    30
  6
Continuous
 62
     7
100
AcDbLine
 10
59.0
 20
193.828363
 30
0.0
 11
59.0
 21
103.828363
 31
0.0
  0
LINE
  5
383
100
AcDbEntity
  8
1
370
    30
  6
Continuous
 62
     7
100
AcDbLine
 10
57.0
 20
193.828363
 30
0.0
 11
70.26441
 21
193.828363
 31
0.0
  0
LINE
  5
384
100
AcDbEntity
  8
1
370
    30
  6
Continuous
 62
     7
100
AcDbLine
 10
57.0
 20
103.828363
 30
0.0
 11
70.26441
 21
103.828363
 31
0.0
  0
LINE
  5
385
100
AcDbEntity
  8
1
370
    30
  6
Continuous
 62
     7
100
AcDbLine
 10
59.0
 20
193.828363
 30
0.0
 11
59.776457
 21
190.930585
 31
0.0
  0
LINE
  5
386
100
AcDbEntity
  8
1
370
    30
  6
Continuous
 62
     7
100
AcDbLine
 10
59.0
 20
193.828363
 30
0.0
 11
58.223543
 21
190.930585
 31
0.0
  0
LINE
  5
387
100
AcDbEntity
  8
1
370
    30
  6
Continuous
 62
     7
100
AcDbLine
 10
59.0
 20
103.828363
 30
0.0
 11
58.223543
 21
106.72614
 31
0.0
  0
LINE
  5
388
100
AcDbEntity
  8
1
370
    30
  6
Continuous
 62
     7
100
AcDbLine
 10
59.0
 20
103.828363
 30
0.0
 11
59.776457
 21
106.72614
 31
0.0
  0
TEXT
  5
389
100
AcDbEntity
  8
1
370
    30
  6
Continuous
 62
     7
100
AcDbText
 10
59.0
 20
146.328363
 30
0.0
 40
5.0
  1
90
 50
90.0
 41
0.5
 11
59.0
 21
146.328363
 31
0.0
100
AcDbText
 73
     1
  0
ENDBLK
  5
38A
100
AcDbEntity
  8
1
370
    30
  6
Continuous
 62
     7
100
AcDbBlockEnd
  0
BLOCK
  5
38D
100
AcDbEntity
  8
1
370
    30
  6
Continuous
 62
     7
100
AcDbBlockBegin
  2
*D3
 70
     0
 10
0.0
 20
0.0
 30
0.0
  3
*D3
  1

  0
LINE
  5
38E
100
AcDbEntity
  8
1
370
    30
  6
Continuous
 62
     7
100
AcDbLine
 10
162.0
 20
70.828388
 30
0.0
 11
162.0
 21
36.828388
 31
0.0
  0
LINE
  5
38F
100
AcDbEntity
  8
1
370
    30
  6
Continuous
 62
     7
100
AcDbLine
 10
164.0
 20
70.828388
 30
0.0
 11
127.464435
 21
70.828388
 31
0.0
  0
LINE
  5
390
100
AcDbEntity
  8
1
370
    30
  6
Continuous
 62
     7
100
AcDbLine
 10
164.0
 20
36.828388
 30
0.0
 11
147.26436
 21
36.828388
 31
0.0
  0
LINE
  5
391
100
AcDbEntity
  8
1
370
    30
  6
Continuous
 62
     7
100
AcDbLine
 10
162.0
 20
70.828388
 30
0.0
 11
162.776457
 21
67.93061
 31
0.0
  0
LINE
  5
392
100
AcDbEntity
  8
1
370
    30
  6
Continuous
 62
     7
100
AcDbLine
 10
162.0
 20
70.828388
 30
0.0
 11
161.223543
 21
67.93061
 31
0.0
  0
LINE
  5
393
100
AcDbEntity
  8
1
370
    30
  6
Continuous
 62
     7
100
AcDbLine
 10
162.0
 20
36.828388
 30
0.0
 11
161.223543
 21
39.726165
 31
0.0
  0
LINE
  5
394
100
AcDbEntity
  8
1
370
    30
  6
Continuous
 62
     7
100
AcDbLine
 10
162.0
 20
36.828388
 30
0.0
 11
162.776457
 21
39.726165
 31
0.0
  0
TEXT
  5
395
100
AcDbEntity
  8
1
370
    30
  6
Continuous
 62
     7
100
AcDbText
 10
162.0
 20
51.328388
 30
0.0
 40
5.0
  1
34
 50
90.0
 41
0.5
 11
162.0
 21
51.328388
 31
0.0
100
AcDbText
 73
     1
  0
ENDBLK
  5
396
100
AcDbEntity
  8
1
370
    30
  6
Continuous
 62
     7
100
AcDbBlockEnd
  0
BLOCK
  5
399
100
AcDbEntity
  8
1
370
    30
  6
Continuous
 62
     7
100
AcDbBlockBegin
  2
*D4
 70
     0
 10
0.0
 20
0.0
 30
0.0
  3
*D4
  1

  0
LINE
  5
39A
100
AcDbEntity
  8
1
370
    30
  6
Continuous
 62
     7
100
AcDbLine
 10
68.26441
 20
91.0
 30
0.0
 11
144.26436
 21
91.0
 31
0.0
  0
LINE
  5
39B
100
AcDbEntity
  8
1
370
    30
  6
Continuous
 62
     7
100
AcDbLine
 10
68.26441
 20
93.0
 30
0.0
 11
68.26441
 21
61.828388
 31
0.0
  0
LINE
  5
39C
100
AcDbEntity
  8
1
370
    30
  6
Continuous
 62
     7
100
AcDbLine
 10
144.26436
 20
93.0
 30
0.0
 11
144.26436
 21
61.828388
 31
0.0
  0
LINE
  5
39D
100
AcDbEntity
  8
1
370
    30
  6
Continuous
 62
     7
100
AcDbLine
 10
68.26441
 20
91.0
 30
0.0
 11
71.162187
 21
91.776457
 31
0.0
  0
LINE
  5
39E
100
AcDbEntity
  8
1
370
    30
  6
Continuous
 62
     7
100
AcDbLine
 10
68.26441
 20
91.0
 30
0.0
 11
71.162187
 21
90.223543
 31
0.0
  0
LINE
  5
39F
100
AcDbEntity
  8
1
370
    30
  6
Continuous
 62
     7
100
AcDbLine
 10
144.26436
 20
91.0
 30
0.0
 11
141.366583
 21
90.223543
 31
0.0
  0
LINE
  5
3A0
100
AcDbEntity
  8
1
370
    30
  6
Continuous
 62
     7
100
AcDbLine
 10
144.26436
 20
91.0
 30
0.0
 11
141.366583
 21
91.776457
 31
0.0
  0
TEXT
  5
3A1
100
AcDbEntity
  8
1
370
    30
  6
Continuous
 62
     7
100
AcDbText
 10
101.264385
 20
91.0
 30
0.0
 40
5.0
  1
□76
 41
0.625
 11
101.264385
 21
91.0
 31
0.0
100
AcDbText
 73
     1
  0
ENDBLK
  5
3A2
100
AcDbEntity
  8
1
370
    30
  6
Continuous
 62
     7
100
AcDbBlockEnd
  0
BLOCK
  5
3A5
100
AcDbEntity
  8
1
370
    30
  6
Continuous
 62
     7
100
AcDbBlockBegin
  2
*D5
 70
     0
 10
0.0
 20
0.0
 30
0.0
  3
*D5
  1

  0
LINE
  5
3A6
100
AcDbEntity
  8
1
370
    30
  6
Continuous
 62
     7
100
AcDbLine
 10
72.26441
 20
84.0
 30
0.0
 11
140.26436
 21
84.0
 31
0.0
  0
LINE
  5
3A7
100
AcDbEntity
  8
1
370
    30
  6
Continuous
 62
     7
100
AcDbLine
 10
72.26441
 20
86.0
 30
0.0
 11
72.26441
 21
77.328387
 31
0.0
  0
LINE
  5
3A8
100
AcDbEntity
  8
1
370
    30
  6
Continuous
 62
     7
100
AcDbLine
 10
140.26436
 20
86.0
 30
0.0
 11
140.26436
 21
77.328387
 31
0.0
  0
LINE
  5
3A9
100
AcDbEntity
  8
1
370
    30
  6
Continuous
 62
     7
100
AcDbLine
 10
72.26441
 20
84.0
 30
0.0
 11
75.162187
 21
84.776457
 31
0.0
  0
LINE
  5
3AA
100
AcDbEntity
  8
1
370
    30
  6
Continuous
 62
     7
100
AcDbLine
 10
72.26441
 20
84.0
 30
0.0
 11
75.162187
 21
83.223543
 31
0.0
  0
LINE
  5
3AB
100
AcDbEntity
  8
1
370
    30
  6
Continuous
 62
     7
100
AcDbLine
 10
140.26436
 20
84.0
 30
0.0
 11
137.366583
 21
83.223543
 31
0.0
  0
LINE
  5
3AC
100
AcDbEntity
  8
1
370
    30
  6
Continuous
 62
     7
100
AcDbLine
 10
140.26436
 20
84.0
 30
0.0
 11
137.366583
 21
84.776457
 31
0.0
  0
TEXT
  5
3AD
100
AcDbEntity
  8
1
370
    30
  6
Continuous
 62
     7
100
AcDbText
 10
101.264385
 20
84.0
 30
0.0
 40
5.0
  1
□68
 41
0.625
 11
101.264385
 21
84.0
 31
0.0
100
AcDbText
 73
     1
  0
ENDBLK
  5
3AE
100
AcDbEntity
  8
1
370
    30
  6
Continuous
 62
     7
100
AcDbBlockEnd
  0
BLOCK
  5
3B1
100
AcDbEntity
  8
1
370
    30
  6
Continuous
 62
     7
100
AcDbBlockBegin
  2
*D6
 70
     0
 10
0.0
 20
0.0
 30
0.0
  3
*D6
  1

  0
LINE
  5
3B2
100
AcDbEntity
  8
1
370
    30
  6
Continuous
 62
     7
100
AcDbLine
 10
47.0
 20
76.328387
 30
0.0
 11
47.0
 21
36.828388
 31
0.0
  0
LINE
  5
3B3
100
AcDbEntity
  8
1
370
    30
  6
Continuous
 62
     7
100
AcDbLine
 10
45.0
 20
76.328387
 30
0.0
 11
71.26441
 21
76.328387
 31
0.0
  0
LINE
  5
3B4
100
AcDbEntity
  8
1
370
    30
  6
Continuous
 62
     7
100
AcDbLine
 10
45.0
 20
36.828388
 30
0.0
 11
65.26441
 21
36.828388
 31
0.0
  0
LINE
  5
3B5
100
AcDbEntity
  8
1
370
    30
  6
Continuous
 62
     7
100
AcDbLine
 10
47.0
 20
76.328387
 30
0.0
 11
47.776457
 21
73.43061
 31
0.0
  0
LINE
  5
3B6
100
AcDbEntity
  8
1
370
    30
  6
Continuous
 62
     7
100
AcDbLine
 10
47.0
 20
76.328387
 30
0.0
 11
46.223543
 21
73.43061
 31
0.0
  0
LINE
  5
3B7
100
AcDbEntity
  8
1
370
    30
  6
Continuous
 62
     7
100
AcDbLine
 10
47.0
 20
36.828388
 30
0.0
 11
46.223543
 21
39.726165
 31
0.0
  0
LINE
  5
3B8
100
AcDbEntity
  8
1
370
    30
  6
Continuous
 62
     7
100
AcDbLine
 10
47.0
 20
36.828388
 30
0.0
 11
47.776457
 21
39.726165
 31
0.0
  0
TEXT
  5
3B9
100
AcDbEntity
  8
1
370
    30
  6
Continuous
 62
     7
100
AcDbText
 10
47.0
 20
51.578387
 30
0.0
 40
5.0
  1
39.5
 50
90.0
 41
0.555556
 11
47.0
 21
51.578387
 31
0.0
100
AcDbText
 73
     1
  0
ENDBLK
  5
3BA
100
AcDbEntity
  8
1
370
    30
  6
Continuous
 62
     7
100
AcDbBlockEnd
  0
BLOCK
  5
3BD
100
AcDbEntity
  8
1
370
    30
  6
Continuous
 62
     7
100
AcDbBlockBegin
  2
*D7
 70
     0
 10
0.0
 20
0.0
 30
0.0
  3
*D7
  1

  0
LINE
  5
3BE
100
AcDbEntity
  8
1
370
    30
  6
Continuous
 62
     7
100
AcDbLine
 10
60.0
 20
56.828388
 30
0.0
 11
60.0
 21
51.828388
 31
0.0
  0
LINE
  5
3BF
100
AcDbEntity
  8
1
370
    30
  6
Continuous
 62
     7
100
AcDbLine
 10
58.0
 20
56.828388
 30
0.0
 11
67.26441
 21
56.828388
 31
0.0
  0
LINE
  5
3C0
100
AcDbEntity
  8
1
370
    30
  6
Continuous
 62
     7
100
AcDbLine
 10
58.0
 20
51.828388
 30
0.0
 11
66.76441
 21
51.828388
 31
0.0
  0
LINE
  5
3C1
100
AcDbEntity
  8
1
370
    30
  6
Continuous
 62
     7
100
AcDbLine
 10
60.0
 20
56.828388
 30
0.0
 11
59.223543
 21
59.726165
 31
0.0
  0
LINE
  5
3C2
100
AcDbEntity
  8
1
370
    30
  6
Continuous
 62
     7
100
AcDbLine
 10
60.0
 20
56.828388
 30
0.0
 11
60.776457
 21
59.726165
 31
0.0
  0
LINE
  5
3C3
100
AcDbEntity
  8
1
370
    30
  6
Continuous
 62
     7
100
AcDbLine
 10
60.0
 20
51.828388
 30
0.0
 11
60.776457
 21
48.93061
 31
0.0
  0
LINE
  5
3C4
100
AcDbEntity
  8
1
370
    30
  6
Continuous
 62
     7
100
AcDbLine
 10
60.0
 20
51.828388
 30
0.0
 11
59.223543
 21
48.93061
 31
0.0
  0
TEXT
  5
3C5
100
AcDbEntity
  8
1
370
    30
  6
Continuous
 62
     7
100
AcDbText
 10
60.0
 20
53.0
 30
0.0
 40
5.0
  1
5
 50
90.0
 41
0.5
 11
60.0
 21
53.0
 31
0.0
100
AcDbText
 73
     1
  0
ENDBLK
  5
3C6
100
AcDbEntity
  8
1
370
    30
  6
Continuous
 62
     7
100
AcDbBlockEnd
  0
BLOCK
  5
3C9
100
AcDbEntity
  8
1
370
    30
  6
Continuous
 62
     7
100
AcDbBlockBegin
  2
*D8
 70
     0
 10
0.0
 20
0.0
 30
0.0
  3
*D8
  1

  0
LINE
  5
3CA
100
AcDbEntity
  8
1
370
    30
  6
Continuous
 62
     7
100
AcDbLine
 10
60.0
 20
51.828388
 30
0.0
 11
60.0
 21
36.828388
 31
0.0
  0
LINE
  5
3CB
100
AcDbEntity
  8
1
370
    30
  6
Continuous
 62
     7
100
AcDbLine
 10
58.0
 20
51.828388
 30
0.0
 11
66.76441
 21
51.828388
 31
0.0
  0
LINE
  5
3CC
100
AcDbEntity
  8
1
370
    30
  6
Continuous
 62
     7
100
AcDbLine
 10
58.0
 20
36.828388
 30
0.0
 11
65.26441
 21
36.828388
 31
0.0
  0
LINE
  5
3CD
100
AcDbEntity
  8
1
370
    30
  6
Continuous
 62
     7
100
AcDbLine
 10
60.0
 20
51.828388
 30
0.0
 11
60.776457
 21
48.93061
 31
0.0
  0
LINE
  5
3CE
100
AcDbEntity
  8
1
370
    30
  6
Continuous
 62
     7
100
AcDbLine
 10
60.0
 20
51.828388
 30
0.0
 11
59.223543
 21
48.93061
 31
0.0
  0
LINE
  5
3CF
100
AcDbEntity
  8
1
370
    30
  6
Continuous
 62
     7
100
AcDbLine
 10
60.0
 20
36.828388
 30
0.0
 11
59.223543
 21
39.726165
 31
0.0
  0
LINE
  5
3D0
100
AcDbEntity
  8
1
370
    30
  6
Continuous
 62
     7
100
AcDbLine
 10
60.0
 20
36.828388
 30
0.0
 11
60.776457
 21
39.726165
 31
0.0
  0
TEXT
  5
3D1
100
AcDbEntity
  8
1
370
    30
  6
Continuous
 62
     7
100
AcDbText
 10
60.0
 20
41.828388
 30
0.0
 40
5.0
  1
15
 50
90.0
 41
0.5
 11
60.0
 21
41.828388
 31
0.0
100
AcDbText
 73
     1
  0
ENDBLK
  5
3D2
100
AcDbEntity
  8
1
370
    30
  6
Continuous
 62
     7
100
AcDbBlockEnd
  0
BLOCK
  5
3D5
100
AcDbEntity
  8
1
370
    30
  6
Continuous
 62
     7
100
AcDbBlockBegin
  2
*D9
 70
     0
 10
0.0
 20
0.0
 30
0.0
  3
*D9
  1

  0
LINE
  5
3D6
100
AcDbEntity
  8
1
370
    30
  6
Continuous
 62
     7
100
AcDbLine
 10
60.0
 20
76.328387
 30
0.0
 11
60.0
 21
56.828388
 31
0.0
  0
LINE
  5
3D7
100
AcDbEntity
  8
1
370
    30
  6
Continuous
 62
     7
100
AcDbLine
 10
58.0
 20
76.328387
 30
0.0
 11
71.26441
 21
76.328387
 31
0.0
  0
LINE
  5
3D8
100
AcDbEntity
  8
1
370
    30
  6
Continuous
 62
     7
100
AcDbLine
 10
58.0
 20
56.828388
 30
0.0
 11
67.26441
 21
56.828388
 31
0.0
  0
LINE
  5
3D9
100
AcDbEntity
  8
1
370
    30
  6
Continuous
 62
     7
100
AcDbLine
 10
60.0
 20
76.328387
 30
0.0
 11
60.776457
 21
73.43061
 31
0.0
  0
LINE
  5
3DA
100
AcDbEntity
  8
1
370
    30
  6
Continuous
 62
     7
100
AcDbLine
 10
60.0
 20
76.328387
 30
0.0
 11
59.223543
 21
73.43061
 31
0.0
  0
LINE
  5
3DB
100
AcDbEntity
  8
1
370
    30
  6
Continuous
 62
     7
100
AcDbLine
 10
60.0
 20
56.828388
 30
0.0
 11
59.223543
 21
59.726165
 31
0.0
  0
LINE
  5
3DC
100
AcDbEntity
  8
1
370
    30
  6
Continuous
 62
     7
100
AcDbLine
 10
60.0
 20
56.828388
 30
0.0
 11
60.776457
 21
59.726165
 31
0.0
  0
TEXT
  5
3DD
100
AcDbEntity
  8
1
370
    30
  6
Continuous
 62
     7
100
AcDbText
 10
60.0
 20
61.578387
 30
0.0
 40
5.0
  1
19.5
 50
90.0
 41
0.555556
 11
60.0
 21
61.578387
 31
0.0
100
AcDbText
 73
     1
  0
ENDBLK
  5
3DE
100
AcDbEntity
  8
1
370
    30
  6
Continuous
 62
     7
100
AcDbBlockEnd
  0
BLOCK
  5
48B
100
AcDbEntity
  8
1
370
    30
  6
Continuous
 62
     7
100
AcDbBlockBegin
  2
*D10
 70
     0
 10
0.0
 20
0.0
 30
0.0
  3
*D10
  1

  0
LINE
  5
48C
100
AcDbEntity
  8
1
370
    30
  6
Continuous
 62
     7
100
AcDbLine
 10
277.0
 20
115.478363
 30
0.0
 11
277.0
 21
182.178388
 31
0.0
  0
LINE
  5
48D
100
AcDbEntity
  8
1
370
    30
  6
Continuous
 62
     7
100
AcDbLine
 10
279.0
 20
115.478363
 30
0.0
 11
220.01436
 21
115.478363
 31
0.0
  0
LINE
  5
48E
100
AcDbEntity
  8
1
370
    30
  6
Continuous
 62
     7
100
AcDbLine
 10
279.0
 20
182.178388
 30
0.0
 11
219.51436
 21
182.178388
 31
0.0
  0
LINE
  5
48F
100
AcDbEntity
  8
1
370
    30
  6
Continuous
 62
     7
100
AcDbLine
 10
277.0
 20
115.478363
 30
0.0
 11
276.223543
 21
118.37614
 31
0.0
  0
LINE
  5
490
100
AcDbEntity
  8
1
370
    30
  6
Continuous
 62
     7
100
AcDbLine
 10
277.0
 20
115.478363
 30
0.0
 11
277.776457
 21
118.37614
 31
0.0
  0
LINE
  5
491
100
AcDbEntity
  8
1
370
    30
  6
Continuous
 62
     7
100
AcDbLine
 10
277.0
 20
182.178388
 30
0.0
 11
277.776457
 21
179.28061
 31
0.0
  0
LINE
  5
492
100
AcDbEntity
  8
1
370
    30
  6
Continuous
 62
     7
100
AcDbLine
 10
277.0
 20
182.178388
 30
0.0
 11
276.223543
 21
179.28061
 31
0.0
  0
TEXT
  5
493
100
AcDbEntity
  8
1
370
    30
  6
Continuous
 62
     7
100
AcDbText
 10
277.0
 20
131.328375
 30
0.0
 40
5.0
  1
取付ピッチ66.7
 50
90.0
 41
0.729167
 11
277.0
 21
131.328375
 31
0.0
100
AcDbText
 73
     1
  0
ENDBLK
  5
494
100
AcDbEntity
  8
1
370
    30
  6
Continuous
 62
     7
100
AcDbBlockEnd
  0
ENDSEC
  0
SECTION
  2
ENTITIES
  0
INSERT
  5
F5
100
AcDbEntity
  8
0
  6
Continuous
 62
     7
100
AcDbBlockReference
  2
*G0
 10
0.0
 20
0.0
 30
0.0
  0
LINE
  5
F6
100
AcDbEntity
  8
1
370
    30
  6
Continuous
 62
     7
100
AcDbLine
 10
90.064385
 20
238.828363
 30
0.0
 11
90.26441
 21
238.828363
 31
0.0
  0
LINE
  5
F7
100
AcDbEntity
  8
1
370
    30
  6
Continuous
 62
     7
100
AcDbLine
 10
87.26441
 20
240.828363
 30
0.0
 11
87.26441
 21
240.328363
 31
0.0
  0
ARC
  5
F8
100
AcDbEntity
  8
1
370
    30
  6
Continuous
 62
     7
100
AcDbCircle
 10
88.26441
 20
240.328363
 30
0.0
 40
1.0
100
AcDbArc
 50
180.0
 51
-89.9999
  0
LINE
  5
F9
100
AcDbEntity
  8
1
370
    30
  6
Continuous
 62
     7
100
AcDbLine
 10
88.26441
 20
240.828363
 30
0.0
 11
88.26441
 21
240.328363
 31
0.0
  0
LINE
  5
FA
100
AcDbEntity
  8
1
370
    30
  6
Continuous
 62
     7
100
AcDbLine
 10
88.26441
 20
240.328363
 30
0.0
 11
89.064385
 21
240.328363
 31
0.0
  0
LINE
  5
FB
100
AcDbEntity
  8
1
370
    30
  6
Continuous
 62
     7
100
AcDbLine
 10
89.064385
 20
239.328363
 30
0.0
 11
88.26441
 21
239.328363
 31
0.0
  0
ARC
  5
FC
100
AcDbEntity
  8
1
370
    30
  6
Continuous
 62
     7
100
AcDbCircle
 10
89.064385
 20
239.328363
 30
0.0
 40
1.0
100
AcDbArc
 50
0.0
 51
90.0001
  0
LINE
  5
FD
100
AcDbEntity
  8
1
370
    30
  6
Continuous
 62
     7
100
AcDbLine
 10
91.064385
 20
238.328363
 30
0.0
 11
91.064385
 21
235.828363
 31
0.0
  0
LINE
  5
FE
100
AcDbEntity
  8
1
370
    30
  6
Continuous
 62
     7
100
AcDbLine
 10
89.064385
 20
239.328363
 30
0.0
 11
89.064385
 21
235.828363
 31
0.0
  0
LINE
  5
FF
100
AcDbEntity
  8
1
370
    30
  6
Continuous
 62
     7
100
AcDbLine
 10
90.064385
 20
239.328363
 30
0.0
 11
90.064385
 21
235.828363
 31
0.0
  0
LINE
  5
100
100
AcDbEntity
  8
1
370
    30
  6
Continuous
 62
     7
100
AcDbLine
 10
123.46441
 20
239.328363
 30
0.0
 11
123.46441
 21
235.828363
 31
0.0
  0
LINE
  5
101
100
AcDbEntity
  8
1
370
    30
  6
Continuous
 62
     7
100
AcDbLine
 10
122.46441
 20
239.328363
 30
0.0
 11
122.46441
 21
235.828363
 31
0.0
  0
LINE
  5
102
100
AcDbEntity
  8
1
370
    30
  6
Continuous
 62
     7
100
AcDbLine
 10
121.46441
 20
238.328363
 30
0.0
 11
121.46441
 21
235.828363
 31
0.0
  0
ARC
  5
103
100
AcDbEntity
  8
1
370
    30
  6
Continuous
 62
     7
100
AcDbCircle
 10
124.26441
 20
240.328363
 30
0.0
 40
1.0
100
AcDbArc
 50
-90.0
 51
0.0
  0
LINE
  5
104
100
AcDbEntity
  8
1
370
    30
  6
Continuous
 62
     7
100
AcDbLine
 10
125.26441
 20
240.828363
 30
0.0
 11
125.26441
 21
240.328363
 31
0.0
  0
ARC
  5
105
100
AcDbEntity
  8
1
370
    30
  6
Continuous
 62
     7
100
AcDbCircle
 10
123.46441
 20
239.328363
 30
0.0
 40
1.0
100
AcDbArc
 50
90.0
 51
180.0
  0
LINE
  5
106
100
AcDbEntity
  8
1
370
    30
  6
Continuous
 62
     7
100
AcDbLine
 10
124.26441
 20
240.328363
 30
0.0
 11
123.46441
 21
240.328363
 31
0.0
  0
LINE
  5
107
100
AcDbEntity
  8
1
370
    30
  6
Continuous
 62
     7
100
AcDbLine
 10
124.26441
 20
240.828363
 30
0.0
 11
124.26441
 21
240.328363
 31
0.0
  0
LINE
  5
108
100
AcDbEntity
  8
1
370
    30
  6
Continuous
 62
     7
100
AcDbLine
 10
123.46441
 20
239.328363
 30
0.0
 11
124.26441
 21
239.328363
 31
0.0
  0
LINE
  5
109
100
AcDbEntity
  8
1
370
    30
  6
Continuous
 62
     7
100
AcDbLine
 10
87.46441
 20
237.578363
 30
0.0
 11
87.46441
 21
235.828363
 31
0.0
  0
LINE
  5
10A
100
AcDbEntity
  8
1
370
    30
  6
Continuous
 62
     7
100
AcDbLine
 10
87.46441
 20
237.578363
 30
0.0
 11
89.06441
 21
237.078363
 31
0.0
  0
LINE
  5
10B
100
AcDbEntity
  8
1
370
    30
  6
Continuous
 62
     7
100
AcDbLine
 10
125.064385
 20
237.578363
 30
0.0
 11
125.064385
 21
235.828363
 31
0.0
  0
LINE
  5
10C
100
AcDbEntity
  8
1
370
    30
  6
Continuous
 62
     7
100
AcDbLine
 10
123.46441
 20
237.078363
 30
0.0
 11
125.06441
 21
237.578363
 31
0.0
  0
LINE
  5
10D
100
AcDbEntity
  8
1
370
    30
  6
Continuous
 62
     7
100
AcDbLine
 10
91.064385
 20
237.078363
 30
0.0
 11
103.364385
 21
237.078363
 31
0.0
  0
LINE
  5
10E
100
AcDbEntity
  8
1
370
    30
  6
Continuous
 62
     7
100
AcDbLine
 10
109.164385
 20
237.078363
 30
0.0
 11
121.464385
 21
237.078363
 31
0.0
  0
LINE
  5
10F
100
AcDbEntity
  8
1
370
    30
  6
Continuous
 62
     7
100
AcDbLine
 10
102.868585
 20
113.003413
 30
0.0
 11
103.239685
 21
112.537138
 31
0.0
  0
LINE
  5
110
100
AcDbEntity
  8
1
370
    30
  6
Continuous
 62
     7
100
AcDbLine
 10
103.77631
 20
112.900338
 30
0.0
 11
103.309935
 21
112.529163
 31
0.0
  0
ARC
  5
111
100
AcDbEntity
  8
1
370
    30
  6
Continuous
 62
     7
100
AcDbCircle
 10
103.27881
 20
112.568288
 30
0.0
 40
0.050011
100
AcDbArc
 50
-141.474384
 51
-51.474384
  0
ARC
  5
112
100
AcDbEntity
  8
1
370
    30
  6
Continuous
 62
     7
100
AcDbCircle
 10
91.863335
 20
117.081113
 30
0.0
 40
0.050021
100
AcDbArc
 50
12.556761
 51
100.346961
  0
LINE
  5
113
100
AcDbEntity
  8
1
370
    30
  6
Continuous
 62
     7
100
AcDbLine
 10
91.85436
 20
117.130313
 30
0.0
 11
91.268185
 21
117.022613
 31
0.0
  0
LINE
  5
114
100
AcDbEntity
  8
1
370
    30
  6
Continuous
 62
     7
100
AcDbLine
 10
91.102285
 20
117.648913
 30
0.0
 11
91.20996
 21
117.062763
 31
0.0
  0
ARC
  5
115
100
AcDbEntity
  8
1
370
    30
  6
Continuous
 62
     7
100
AcDbCircle
 10
91.25916
 20
117.071763
 30
0.0
 40
0.050021
100
AcDbArc
 50
-169.605509
 51
-79.599109
  0
ARC
  5
116
100
AcDbEntity
  8
1
370
    30
  6
Continuous
 62
     7
100
AcDbCircle
 10
96.52611
 20
114.258613
 30
0.0
 40
0.049995
100
AcDbArc
 50
-156.575689
 51
-66.575689
  0
LINE
  5
117
100
AcDbEntity
  8
1
370
    30
  6
Continuous
 62
     7
100
AcDbLine
 10
96.77611
 20
114.312263
 30
0.0
 11
96.54596
 21
114.212738
 31
0.0
  0
LINE
  5
118
100
AcDbEntity
  8
1
370
    30
  6
Continuous
 62
     7
100
AcDbLine
 10
96.48016
 20
114.238763
 30
0.0
 11
96.448385
 21
114.312263
 31
0.0
  0
LINE
  5
119
100
AcDbEntity
  8
1
370
    30
  6
Continuous
 62
     7
100
AcDbLine
 10
104.384985
 20
112.505788
 30
0.0
 11
105.117585
 21
112.505788
 31
0.0
  0
LINE
  5
11A
100
AcDbEntity
  8
1
370
    30
  6
Continuous
 62
     7
100
AcDbLine
 10
105.435635
 20
112.505788
 30
0.0
 11
106.086935
 21
112.505788
 31
0.0
  0
LINE
  5
11B
100
AcDbEntity
  8
1
370
    30
  6
Continuous
 62
     7
100
AcDbLine
 10
106.441835
 20
112.505788
 30
0.0
 11
107.093185
 21
112.505788
 31
0.0
  0
LINE
  5
11C
100
AcDbEntity
  8
1
370
    30
  6
Continuous
 62
     7
100
AcDbLine
 10
107.41121
 20
112.505788
 30
0.0
 11
108.143785
 21
112.505788
 31
0.0
  0
LINE
  5
11D
100
AcDbEntity
  8
1
370
    30
  6
Continuous
 62
     7
100
AcDbLine
 10
106.26441
 20
72.328388
 30
0.0
 11
106.26441
 21
69.328388
 31
0.0
  0
LINE
  5
11E
100
AcDbEntity
  8
1
370
    30
  6
Continuous
 62
     7
100
AcDbLine
 10
119.622185
 20
72.328388
 30
0.0
 11
119.622185
 21
69.328388
 31
0.0
  0
LINE
  5
11F
100
AcDbEntity
  8
1
370
    30
  6
Continuous
 62
     7
100
AcDbLine
 10
118.74921
 20
72.328388
 30
0.0
 11
118.74921
 21
69.328388
 31
0.0
  0
LINE
  5
120
100
AcDbEntity
  8
1
370
    30
  6
Continuous
 62
     7
100
AcDbLine
 10
117.85846
 20
72.328388
 30
0.0
 11
117.85846
 21
69.328388
 31
0.0
  0
LINE
  5
121
100
AcDbEntity
  8
1
370
    30
  6
Continuous
 62
     7
100
AcDbLine
 10
116.95116
 20
72.328388
 30
0.0
 11
116.95116
 21
69.328388
 31
0.0
  0
LINE
  5
122
100
AcDbEntity
  8
1
370
    30
  6
Continuous
 62
     7
100
AcDbLine
 10
116.028735
 20
72.328388
 30
0.0
 11
116.028735
 21
69.328388
 31
0.0
  0
LINE
  5
123
100
AcDbEntity
  8
1
370
    30
  6
Continuous
 62
     7
100
AcDbLine
 10
115.092335
 20
72.328388
 30
0.0
 11
115.092335
 21
69.328388
 31
0.0
  0
LINE
  5
124
100
AcDbEntity
  8
1
370
    30
  6
Continuous
 62
     7
100
AcDbLine
 10
114.143435
 20
72.328388
 30
0.0
 11
114.143435
 21
69.328388
 31
0.0
  0
LINE
  5
125
100
AcDbEntity
  8
1
370
    30
  6
Continuous
 62
     7
100
AcDbLine
 10
113.183285
 20
72.328388
 30
0.0
 11
113.183285
 21
69.328388
 31
0.0
  0
LINE
  5
126
100
AcDbEntity
  8
1
370
    30
  6
Continuous
 62
     7
100
AcDbLine
 10
112.21326
 20
72.328388
 30
0.0
 11
112.21326
 21
69.328388
 31
0.0
  0
LINE
  5
127
100
AcDbEntity
  8
1
370
    30
  6
Continuous
 62
     7
100
AcDbLine
 10
111.23481
 20
72.328388
 30
0.0
 11
111.23481
 21
69.328388
 31
0.0
  0
LINE
  5
128
100
AcDbEntity
  8
1
370
    30
  6
Continuous
 62
     7
100
AcDbLine
 10
110.24921
 20
72.328388
 30
0.0
 11
110.24921
 21
69.328388
 31
0.0
  0
LINE
  5
129
100
AcDbEntity
  8
1
370
    30
  6
Continuous
 62
     7
100
AcDbLine
 10
109.257985
 20
72.328388
 30
0.0
 11
109.257985
 21
69.328388
 31
0.0
  0
LINE
  5
12A
100
AcDbEntity
  8
1
370
    30
  6
Continuous
 62
     7
100
AcDbLine
 10
108.26251
 20
72.328388
 30
0.0
 11
108.26251
 21
69.328388
 31
0.0
  0
LINE
  5
12B
100
AcDbEntity
  8
1
370
    30
  6
Continuous
 62
     7
100
AcDbLine
 10
107.26416
 20
72.328388
 30
0.0
 11
107.26416
 21
69.328388
 31
0.0
  0
LINE
  5
12C
100
AcDbEntity
  8
1
370
    30
  6
Continuous
 62
     7
100
AcDbLine
 10
92.26441
 20
69.328388
 30
0.0
 11
120.26441
 21
69.328388
 31
0.0
  0
LINE
  5
12D
100
AcDbEntity
  8
1
370
    30
  6
Continuous
 62
     7
100
AcDbLine
 10
92.26441
 20
72.328388
 30
0.0
 11
120.26441
 21
72.328388
 31
0.0
  0
LINE
  5
12E
100
AcDbEntity
  8
1
370
    30
  6
Continuous
 62
     7
100
AcDbLine
 10
92.90661
 20
72.328388
 30
0.0
 11
92.90661
 21
69.328388
 31
0.0
  0
LINE
  5
12F
100
AcDbEntity
  8
1
370
    30
  6
Continuous
 62
     7
100
AcDbLine
 10
93.77961
 20
72.328388
 30
0.0
 11
93.77961
 21
69.328388
 31
0.0
  0
LINE
  5
130
100
AcDbEntity
  8
1
370
    30
  6
Continuous
 62
     7
100
AcDbLine
 10
94.67036
 20
72.328388
 30
0.0
 11
94.67036
 21
69.328388
 31
0.0
  0
LINE
  5
131
100
AcDbEntity
  8
1
370
    30
  6
Continuous
 62
     7
100
AcDbLine
 10
95.577585
 20
72.328388
 30
0.0
 11
95.577585
 21
69.328388
 31
0.0
  0
LINE
  5
132
100
AcDbEntity
  8
1
370
    30
  6
Continuous
 62
     7
100
AcDbLine
 10
96.50006
 20
72.328388
 30
0.0
 11
96.50006
 21
69.328388
 31
0.0
  0
LINE
  5
133
100
AcDbEntity
  8
1
370
    30
  6
Continuous
 62
     7
100
AcDbLine
 10
97.43641
 20
72.328388
 30
0.0
 11
97.43641
 21
69.328388
 31
0.0
  0
LINE
  5
134
100
AcDbEntity
  8
1
370
    30
  6
Continuous
 62
     7
100
AcDbLine
 10
98.385385
 20
72.328388
 30
0.0
 11
98.385385
 21
69.328388
 31
0.0
  0
LINE
  5
135
100
AcDbEntity
  8
1
370
    30
  6
Continuous
 62
     7
100
AcDbLine
 10
99.34551
 20
72.328388
 30
0.0
 11
99.34551
 21
69.328388
 31
0.0
  0
LINE
  5
136
100
AcDbEntity
  8
1
370
    30
  6
Continuous
 62
     7
100
AcDbLine
 10
100.31556
 20
72.328388
 30
0.0
 11
100.31556
 21
69.328388
 31
0.0
  0
LINE
  5
137
100
AcDbEntity
  8
1
370
    30
  6
Continuous
 62
     7
100
AcDbLine
 10
101.29401
 20
72.328388
 30
0.0
 11
101.29401
 21
69.328388
 31
0.0
  0
LINE
  5
138
100
AcDbEntity
  8
1
370
    30
  6
Continuous
 62
     7
100
AcDbLine
 10
102.279535
 20
72.328388
 30
0.0
 11
102.279535
 21
69.328388
 31
0.0
  0
LINE
  5
139
100
AcDbEntity
  8
1
370
    30
  6
Continuous
 62
     7
100
AcDbLine
 10
103.27081
 20
72.328388
 30
0.0
 11
103.27081
 21
69.328388
 31
0.0
  0
LINE
  5
13A
100
AcDbEntity
  8
1
370
    30
  6
Continuous
 62
     7
100
AcDbLine
 10
104.266285
 20
72.328388
 30
0.0
 11
104.266285
 21
69.328388
 31
0.0
  0
LINE
  5
13B
100
AcDbEntity
  8
1
370
    30
  6
Continuous
 62
     7
100
AcDbLine
 10
105.26466
 20
72.328388
 30
0.0
 11
105.26466
 21
69.328388
 31
0.0
  0
ARC
  5
13C
100
AcDbEntity
  8
1
370
    30
  6
Continuous
 62
     7
100
AcDbCircle
 10
106.26441
 20
138.828363
 30
0.0
 40
25.499989
100
AcDbArc
 50
-59.626256
 51
-50.039656
  0
ARC
  5
13D
100
AcDbEntity
  8
1
370
    30
  6
Continuous
 62
     7
100
AcDbCircle
 10
123.631335
 20
118.906138
 30
0.0
 40
0.050039
100
AcDbArc
 50
-93.867391
 51
-3.902391
  0
LINE
  5
13E
100
AcDbEntity
  8
1
370
    30
  6
Continuous
 62
     7
100
AcDbLine
 10
123.033385
 20
118.896963
 30
0.0
 11
123.627935
 21
118.856213
 31
0.0
  0
ARC
  5
13F
100
AcDbEntity
  8
1
370
    30
  6
Continuous
 62
     7
100
AcDbCircle
 10
123.02996
 20
118.847113
 30
0.0
 40
0.049969
100
AcDbArc
 50
86.041008
 51
173.933908
  0
LINE
  5
140
100
AcDbEntity
  8
1
370
    30
  6
Continuous
 62
     7
100
AcDbLine
 10
122.980285
 20
118.852413
 30
0.0
 11
122.91711
 21
118.259813
 31
0.0
  0
LINE
  5
141
100
AcDbEntity
  8
1
370
    30
  6
Continuous
 62
     7
100
AcDbLine
 10
123.68121
 20
118.902713
 30
0.0
 11
123.707285
 21
119.282888
 31
0.0
  0
ARC
  5
142
100
AcDbEntity
  8
1
370
    30
  6
Continuous
 62
     7
100
AcDbCircle
 10
122.86736
 20
118.265138
 30
0.0
 40
0.050026
100
AcDbArc
 50
-96.023993
 51
-6.094293
  0
ARC
  5
143
100
AcDbEntity
  8
1
370
    30
  6
Continuous
 62
     7
100
AcDbCircle
 10
122.07976
 20
117.653388
 30
0.0
 40
0.05001
100
AcDbArc
 50
-98.190861
 51
-8.226261
  0
ARC
  5
144
100
AcDbEntity
  8
1
370
    30
  6
Continuous
 62
     7
100
AcDbCircle
 10
121.26966
 20
117.071763
 30
0.0
 40
0.049987
100
AcDbArc
 50
-100.343291
 51
-10.414291
  0
LINE
  5
145
100
AcDbEntity
  8
1
370
    30
  6
Continuous
 62
     7
100
AcDbLine
 10
122.269535
 20
118.278562
 30
0.0
 11
122.86211
 21
118.215413
 31
0.0
  0
LINE
  5
146
100
AcDbEntity
  8
1
370
    30
  6
Continuous
 62
     7
100
AcDbLine
 10
121.48286
 20
117.689338
 30
0.0
 11
122.072635
 21
117.603888
 31
0.0
  0
LINE
  5
147
100
AcDbEntity
  8
1
370
    30
  6
Continuous
 62
     7
100
AcDbLine
 10
120.67451
 20
117.130237
 30
0.0
 11
121.26061
 21
117.022588
 31
0.0
  0
ARC
  5
148
100
AcDbEntity
  8
1
370
    30
  6
Continuous
 62
     7
100
AcDbCircle
 10
122.26421
 20
118.228813
 30
0.0
 40
0.050009
100
AcDbArc
 50
83.887548
 51
171.737348
  0
ARC
  5
149
100
AcDbEntity
  8
1
370
    30
  6
Continuous
 62
     7
100
AcDbCircle
 10
121.475635
 20
117.639888
 30
0.0
 40
0.049993
100
AcDbArc
 50
81.748337
 51
169.585737
  0
ARC
  5
14A
100
AcDbEntity
  8
1
370
    30
  6
Continuous
 62
     7
100
AcDbCircle
 10
120.66546
 20
117.081063
 30
0.0
 40
0.050005
100
AcDbArc
 50
79.543991
 51
167.368791
  0
LINE
  5
14B
100
AcDbEntity
  8
1
370
    30
  6
Continuous
 62
     7
100
AcDbLine
 10
122.21471
 20
118.236013
 30
0.0
 11
122.12921
 21
117.646213
 31
0.0
  0
LINE
  5
14C
100
AcDbEntity
  8
1
370
    30
  6
Continuous
 62
     7
100
AcDbLine
 10
121.42651
 20
117.648913
 30
0.0
 11
121.318835
 21
117.062763
 31
0.0
  0
LINE
  5
14D
100
AcDbEntity
  8
1
370
    30
  6
Continuous
 62
     7
100
AcDbLine
 10
120.61671
 20
117.091988
 30
0.0
 11
120.55791
 21
116.828363
 31
0.0
  0
LINE
  5
14E
100
AcDbEntity
  8
1
370
    30
  6
Continuous
 62
     7
100
AcDbLine
 10
108.75256
 20
112.900212
 30
0.0
 11
109.21886
 21
112.529113
 31
0.0
  0
LINE
  5
14F
100
AcDbEntity
  8
1
370
    30
  6
Continuous
 62
     7
100
AcDbLine
 10
109.66021
 20
113.003413
 30
0.0
 11
109.289135
 21
112.537113
 31
0.0
  0
ARC
  5
150
100
AcDbEntity
  8
1
370
    30
  6
Continuous
 62
     7
100
AcDbCircle
 10
109.25001
 20
112.568238
 30
0.0
 40
0.050011
100
AcDbArc
 50
-128.525616
 51
-38.489716
  0
LINE
  5
151
100
AcDbEntity
  8
1
370
    30
  6
Continuous
 62
     7
100
AcDbLine
 10
105.80761
 20
112.785088
 30
0.0
 11
106.22906
 21
112.363712
 31
0.0
  0
ARC
  5
152
100
AcDbEntity
  8
1
370
    30
  6
Continuous
 62
     7
100
AcDbCircle
 10
106.26441
 20
112.399038
 30
0.0
 40
0.05001
100
AcDbArc
 50
-134.979747
 51
-45.029247
  0
LINE
  5
153
100
AcDbEntity
  8
1
370
    30
  6
Continuous
 62
     7
100
AcDbLine
 10
107.70336
 20
112.820863
 30
0.0
 11
107.29816
 21
112.383863
 31
0.0
  0
LINE
  5
154
100
AcDbEntity
  8
1
370
    30
  6
Continuous
 62
     7
100
AcDbLine
 10
106.790535
 20
112.786438
 30
0.0
 11
107.227535
 21
112.381213
 31
0.0
  0
ARC
  5
155
100
AcDbEntity
  8
1
370
    30
  6
Continuous
 62
     7
100
AcDbCircle
 10
107.261485
 20
112.417913
 30
0.0
 40
0.050029
100
AcDbArc
 50
-132.812964
 51
-42.824064
  0
LINE
  5
156
100
AcDbEntity
  8
1
370
    30
  6
Continuous
 62
     7
100
AcDbLine
 10
107.772585
 20
112.824838
 30
0.0
 11
108.22456
 21
112.436388
 31
0.0
  0
LINE
  5
157
100
AcDbEntity
  8
1
370
    30
  6
Continuous
 62
     7
100
AcDbLine
 10
108.683535
 20
112.893663
 30
0.0
 11
108.29511
 21
112.441663
 31
0.0
  0
ARC
  5
158
100
AcDbEntity
  8
1
370
    30
  6
Continuous
 62
     7
100
AcDbCircle
 10
108.257135
 20
112.474313
 30
0.0
 40
0.050013
100
AcDbArc
 50
-130.641679
 51
-40.641679
  0
ARC
  5
159
100
AcDbEntity
  8
1
370
    30
  6
Continuous
 62
     7
100
AcDbCircle
 10
106.26441
 20
138.828363
 30
0.0
 40
25.500012
100
AcDbArc
 50
-105.967849
 51
-74.032149
  0
ARC
  5
15A
100
AcDbEntity
  8
1
370
    30
  6
Continuous
 62
     7
100
AcDbCircle
 10
116.002685
 20
114.258613
 30
0.0
 40
0.050044
100
AcDbArc
 50
-113.337649
 51
-23.377049
  0
ARC
  5
15B
100
AcDbEntity
  8
1
370
    30
  6
Continuous
 62
     7
100
AcDbCircle
 10
115.068785
 20
113.908688
 30
0.0
 40
0.05004
100
AcDbArc
 50
-115.540878
 51
-25.540878
  0
ARC
  5
15C
100
AcDbEntity
  8
1
370
    30
  6
Continuous
 62
     7
100
AcDbCircle
 10
114.122385
 20
113.594287
 30
0.0
 40
0.05002
100
AcDbArc
 50
-117.730532
 51
-27.730532
  0
ARC
  5
15D
100
AcDbEntity
  8
1
370
    30
  6
Continuous
 62
     7
100
AcDbCircle
 10
113.164785
 20
113.315788
 30
0.0
 40
0.050026
100
AcDbArc
 50
-119.883388
 51
-29.845588
  0
ARC
  5
15E
100
AcDbEntity
  8
1
370
    30
  6
Continuous
 62
     7
100
AcDbCircle
 10
112.197385
 20
113.073613
 30
0.0
 40
0.050013
100
AcDbArc
 50
-122.02967
 51
-32.02967
  0
ARC
  5
15F
100
AcDbEntity
  8
1
370
    30
  6
Continuous
 62
     7
100
AcDbCircle
 10
111.221485
 20
112.868113
 30
0.0
 40
0.050015
100
AcDbArc
 50
-124.182547
 51
-34.182547
  0
ARC
  5
160
100
AcDbEntity
  8
1
370
    30
  6
Continuous
 62
     7
100
AcDbCircle
 10
110.238585
 20
112.699588
 30
0.0
 40
0.050032
100
AcDbArc
 50
-126.343107
 51
-36.381107
  0
LINE
  5
161
100
AcDbEntity
  8
1
370
    30
  6
Continuous
 62
     7
100
AcDbLine
 10
114.50951
 20
114.120538
 30
0.0
 11
115.047185
 21
113.863588
 31
0.0
  0
LINE
  5
162
100
AcDbEntity
  8
1
370
    30
  6
Continuous
 62
     7
100
AcDbLine
 10
113.571535
 20
113.827013
 30
0.0
 11
114.09911
 21
113.549988
 31
0.0
  0
LINE
  5
163
100
AcDbEntity
  8
1
370
    30
  6
Continuous
 62
     7
100
AcDbLine
 10
112.62311
 20
113.569163
 30
0.0
 11
113.139885
 21
113.272388
 31
0.0
  0
LINE
  5
164
100
AcDbEntity
  8
1
370
    30
  6
Continuous
 62
     7
100
AcDbLine
 10
111.66566
 20
113.347288
 30
0.0
 11
112.17091
 21
113.031238
 31
0.0
  0
LINE
  5
165
100
AcDbEntity
  8
1
370
    30
  6
Continuous
 62
     7
100
AcDbLine
 10
110.700435
 20
113.161613
 30
0.0
 11
111.19336
 21
112.826738
 31
0.0
  0
LINE
  5
166
100
AcDbEntity
  8
1
370
    30
  6
Continuous
 62
     7
100
AcDbLine
 10
109.72901
 20
113.012563
 30
0.0
 11
110.208935
 21
112.659313
 31
0.0
  0
ARC
  5
167
100
AcDbEntity
  8
1
370
    30
  6
Continuous
 62
     7
100
AcDbCircle
 10
114.487985
 20
114.075437
 30
0.0
 40
0.049984
100
AcDbArc
 50
64.460267
 51
152.313567
  0
ARC
  5
168
100
AcDbEntity
  8
1
370
    30
  6
Continuous
 62
     7
100
AcDbCircle
 10
113.548285
 20
113.782763
 30
0.0
 40
0.049986
100
AcDbArc
 50
62.281498
 51
150.128898
  0
ARC
  5
169
100
AcDbEntity
  8
1
370
    30
  6
Continuous
 62
     7
100
AcDbCircle
 10
112.59821
 20
113.525813
 30
0.0
 40
0.049992
100
AcDbArc
 50
60.127179
 51
148.006879
  0
ARC
  5
16A
100
AcDbEntity
  8
1
370
    30
  6
Continuous
 62
     7
100
AcDbCircle
 10
111.63911
 20
113.304863
 30
0.0
 40
0.05
100
AcDbArc
 50
57.994617
 51
145.860917
  0
ARC
  5
16B
100
AcDbEntity
  8
1
370
    30
  6
Continuous
 62
     7
100
AcDbCircle
 10
110.67236
 20
113.120288
 30
0.0
 40
0.049994
100
AcDbArc
 50
55.801356
 51
143.654756
  0
ARC
  5
16C
100
AcDbEntity
  8
1
370
    30
  6
Continuous
 62
     7
100
AcDbCircle
 10
109.699335
 20
112.972288
 30
0.0
 40
0.050027
100
AcDbArc
 50
53.616861
 51
141.466161
  0
ARC
  5
16D
100
AcDbEntity
  8
1
370
    30
  6
Continuous
 62
     7
100
AcDbCircle
 10
108.721435
 20
112.861088
 30
0.0
 40
0.049995
100
AcDbArc
 50
51.496798
 51
139.315198
  0
ARC
  5
16E
100
AcDbEntity
  8
1
370
    30
  6
Continuous
 62
     7
100
AcDbCircle
 10
107.739985
 20
112.786863
 30
0.0
 40
0.050011
100
AcDbArc
 50
49.317933
 51
137.126333
  0
LINE
  5
16F
100
AcDbEntity
  8
1
370
    30
  6
Continuous
 62
     7
100
AcDbLine
 10
114.443735
 20
114.098638
 30
0.0
 11
114.166685
 21
113.571013
 31
0.0
  0
LINE
  5
170
100
AcDbEntity
  8
1
370
    30
  6
Continuous
 62
     7
100
AcDbLine
 10
113.504935
 20
113.807688
 30
0.0
 11
113.208185
 21
113.290863
 31
0.0
  0
LINE
  5
171
100
AcDbEntity
  8
1
370
    30
  6
Continuous
 62
     7
100
AcDbLine
 10
112.555785
 20
113.552313
 30
0.0
 11
112.239735
 21
113.047088
 31
0.0
  0
LINE
  5
172
100
AcDbEntity
  8
1
370
    30
  6
Continuous
 62
     7
100
AcDbLine
 10
111.597785
 20
113.332938
 30
0.0
 11
111.262885
 21
112.839988
 31
0.0
  0
LINE
  5
173
100
AcDbEntity
  8
1
370
    30
  6
Continuous
 62
     7
100
AcDbLine
 10
110.632085
 20
113.149888
 30
0.0
 11
110.27881
 21
112.669913
 31
0.0
  0
ARC
  5
174
100
AcDbEntity
  8
1
370
    30
  6
Continuous
 62
     7
100
AcDbCircle
 10
106.756535
 20
112.749763
 30
0.0
 40
0.050011
100
AcDbArc
 50
47.167571
 51
134.987371
  0
LINE
  5
175
100
AcDbEntity
  8
1
370
    30
  6
Continuous
 62
     7
100
AcDbLine
 10
116.08036
 20
114.312263
 30
0.0
 11
116.048585
 21
114.238738
 31
0.0
  0
LINE
  5
176
100
AcDbEntity
  8
1
370
    30
  6
Continuous
 62
     7
100
AcDbLine
 10
115.98286
 20
114.212663
 30
0.0
 11
115.75251
 21
114.312263
 31
0.0
  0
LINE
  5
177
100
AcDbEntity
  8
1
370
    30
  6
Continuous
 62
     7
100
AcDbLine
 10
106.721135
 20
112.785088
 30
0.0
 11
106.299735
 21
112.363663
 31
0.0
  0
LINE
  5
178
100
AcDbEntity
  8
1
370
    30
  6
Continuous
 62
     7
100
AcDbLine
 10
115.11396
 20
113.887138
 30
0.0
 11
115.317035
 21
114.312263
 31
0.0
  0
LINE
  5
179
100
AcDbEntity
  8
1
370
    30
  6
Continuous
 62
     7
100
AcDbLine
 10
104.825435
 20
112.820863
 30
0.0
 11
105.23066
 21
112.383863
 31
0.0
  0
LINE
  5
17A
100
AcDbEntity
  8
1
370
    30
  6
Continuous
 62
     7
100
AcDbLine
 10
105.738335
 20
112.786487
 30
0.0
 11
105.301335
 21
112.381238
 31
0.0
  0
ARC
  5
17B
100
AcDbEntity
  8
1
370
    30
  6
Continuous
 62
     7
100
AcDbCircle
 10
105.267335
 20
112.417913
 30
0.0
 40
0.049992
100
AcDbArc
 50
-137.148092
 51
-47.110692
  0
LINE
  5
17C
100
AcDbEntity
  8
1
370
    30
  6
Continuous
 62
     7
100
AcDbLine
 10
103.845285
 20
112.893663
 30
0.0
 11
104.23371
 21
112.441713
 31
0.0
  0
LINE
  5
17D
100
AcDbEntity
  8
1
370
    30
  6
Continuous
 62
     7
100
AcDbLine
 10
104.756235
 20
112.824888
 30
0.0
 11
104.30426
 21
112.436388
 31
0.0
  0
ARC
  5
17E
100
AcDbEntity
  8
1
370
    30
  6
Continuous
 62
     7
100
AcDbCircle
 10
104.27166
 20
112.474363
 30
0.0
 40
0.050008
100
AcDbArc
 50
-139.27754
 51
-49.29244
  0
LINE
  5
17F
100
AcDbEntity
  8
1
370
    30
  6
Continuous
 62
     7
100
AcDbLine
 10
101.89666
 20
113.149888
 30
0.0
 11
102.249885
 21
112.669938
 31
0.0
  0
LINE
  5
180
100
AcDbEntity
  8
1
370
    30
  6
Continuous
 62
     7
100
AcDbLine
 10
100.931035
 20
113.332938
 30
0.0
 11
101.265935
 21
112.840013
 31
0.0
  0
LINE
  5
181
100
AcDbEntity
  8
1
370
    30
  6
Continuous
 62
     7
100
AcDbLine
 10
99.97296
 20
113.552363
 30
0.0
 11
100.28901
 21
113.047113
 31
0.0
  0
LINE
  5
182
100
AcDbEntity
  8
1
370
    30
  6
Continuous
 62
     7
100
AcDbLine
 10
99.02386
 20
113.807688
 30
0.0
 11
99.32061
 21
113.290888
 31
0.0
  0
LINE
  5
183
100
AcDbEntity
  8
1
370
    30
  6
Continuous
 62
     7
100
AcDbLine
 10
98.085085
 20
114.098638
 30
0.0
 11
98.36211
 21
113.571038
 31
0.0
  0
ARC
  5
184
100
AcDbEntity
  8
1
370
    30
  6
Continuous
 62
     7
100
AcDbCircle
 10
102.82946
 20
112.972288
 30
0.0
 40
0.050015
100
AcDbArc
 50
38.485372
 51
126.292472
  0
ARC
  5
185
100
AcDbEntity
  8
1
370
    30
  6
Continuous
 62
     7
100
AcDbCircle
 10
101.856435
 20
113.120288
 30
0.0
 40
0.050017
100
AcDbArc
 50
36.32004
 51
124.09854
  0
ARC
  5
186
100
AcDbEntity
  8
1
370
    30
  6
Continuous
 62
     7
100
AcDbCircle
 10
100.88971
 20
113.304938
 30
0.0
 40
0.050001
100
AcDbArc
 50
34.158848
 51
121.984548
  0
ARC
  5
187
100
AcDbEntity
  8
1
370
    30
  6
Continuous
 62
     7
100
AcDbCircle
 10
99.93061
 20
113.525888
 30
0.0
 40
0.049966
100
AcDbArc
 50
31.996267
 51
119.826767
  0
ARC
  5
188
100
AcDbEntity
  8
1
370
    30
  6
Continuous
 62
     7
100
AcDbCircle
 10
98.980535
 20
113.782838
 30
0.0
 40
0.049992
100
AcDbArc
 50
29.872821
 51
117.684921
  0
LINE
  5
189
100
AcDbEntity
  8
1
370
    30
  6
Continuous
 62
     7
100
AcDbLine
 10
102.79986
 20
113.012638
 30
0.0
 11
102.319885
 21
112.659313
 31
0.0
  0
LINE
  5
18A
100
AcDbEntity
  8
1
370
    30
  6
Continuous
 62
     7
100
AcDbLine
 10
101.82836
 20
113.161738
 30
0.0
 11
101.335385
 21
112.826813
 31
0.0
  0
LINE
  5
18B
100
AcDbEntity
  8
1
370
    30
  6
Continuous
 62
     7
100
AcDbLine
 10
100.86321
 20
113.347338
 30
0.0
 11
100.35796
 21
113.031238
 31
0.0
  0
LINE
  5
18C
100
AcDbEntity
  8
1
370
    30
  6
Continuous
 62
     7
100
AcDbLine
 10
99.90576
 20
113.569263
 30
0.0
 11
99.38891
 21
113.272463
 31
0.0
  0
LINE
  5
18D
100
AcDbEntity
  8
1
370
    30
  6
Continuous
 62
     7
100
AcDbLine
 10
98.957335
 20
113.827138
 30
0.0
 11
98.429685
 21
113.550038
 31
0.0
  0
LINE
  5
18E
100
AcDbEntity
  8
1
370
    30
  6
Continuous
 62
     7
100
AcDbLine
 10
98.019285
 20
114.120613
 30
0.0
 11
97.48151
 21
113.863588
 31
0.0
  0
ARC
  5
18F
100
AcDbEntity
  8
1
370
    30
  6
Continuous
 62
     7
100
AcDbCircle
 10
100.33141
 20
113.073663
 30
0.0
 40
0.050005
100
AcDbArc
 50
-147.930854
 51
-57.952154
  0
ARC
  5
190
100
AcDbEntity
  8
1
370
    30
  6
Continuous
 62
     7
100
AcDbCircle
 10
99.36401
 20
113.315788
 30
0.0
 40
0.050014
100
AcDbArc
 50
-150.141444
 51
-60.141444
  0
ARC
  5
191
100
AcDbEntity
  8
1
370
    30
  6
Continuous
 62
     7
100
AcDbCircle
 10
98.406435
 20
113.594287
 30
0.0
 40
0.049998
100
AcDbArc
 50
-152.256137
 51
-62.292937
  0
ARC
  5
192
100
AcDbEntity
  8
1
370
    30
  6
Continuous
 62
     7
100
AcDbCircle
 10
98.040835
 20
114.075437
 30
0.0
 40
0.049997
100
AcDbArc
 50
27.679814
 51
115.503014
  0
ARC
  5
193
100
AcDbEntity
  8
1
370
    30
  6
Continuous
 62
     7
100
AcDbCircle
 10
102.29021
 20
112.699638
 30
0.0
 40
0.049992
100
AcDbArc
 50
-143.622932
 51
-53.675332
  0
ARC
  5
194
100
AcDbEntity
  8
1
370
    30
  6
Continuous
 62
     7
100
AcDbCircle
 10
101.30731
 20
112.868163
 30
0.0
 40
0.050008
100
AcDbArc
 50
-145.777666
 51
-55.771366
  0
ARC
  5
195
100
AcDbEntity
  8
1
370
    30
  6
Continuous
 62
     7
100
AcDbCircle
 10
97.46001
 20
113.908738
 30
0.0
 40
0.049995
100
AcDbArc
 50
-154.434416
 51
-64.434416
  0
ARC
  5
196
100
AcDbEntity
  8
1
370
    30
  6
Continuous
 62
     7
100
AcDbCircle
 10
105.772335
 20
112.749813
 30
0.0
 40
0.049992
100
AcDbArc
 50
45.0
 51
132.8273
  0
ARC
  5
197
100
AcDbEntity
  8
1
370
    30
  6
Continuous
 62
     7
100
AcDbCircle
 10
104.78881
 20
112.786913
 30
0.0
 40
0.049975
100
AcDbArc
 50
42.830896
 51
130.624396
  0
ARC
  5
198
100
AcDbEntity
  8
1
370
    30
  6
Continuous
 62
     7
100
AcDbCircle
 10
103.80736
 20
112.861138
 30
0.0
 40
0.05003
100
AcDbArc
 50
40.663404
 51
128.457604
  0
LINE
  5
199
100
AcDbEntity
  8
1
370
    30
  6
Continuous
 62
     7
100
AcDbLine
 10
97.21171
 20
114.312263
 30
0.0
 11
97.41486
 21
113.887163
 31
0.0
  0
LINE
  5
19A
100
AcDbEntity
  8
1
370
    30
  6
Continuous
 62
     7
100
AcDbLine
 10
91.91211
 20
117.091988
 30
0.0
 11
91.970885
 21
116.828363
 31
0.0
  0
LINE
  5
19B
100
AcDbEntity
  8
1
370
    30
  6
Continuous
 62
     7
100
AcDbLine
 10
90.314035
 20
118.236013
 30
0.0
 11
90.399535
 21
117.646238
 31
0.0
  0
LINE
  5
19C
100
AcDbEntity
  8
1
370
    30
  6
Continuous
 62
     7
100
AcDbLine
 10
89.54851
 20
118.852413
 30
0.0
 11
89.611685
 21
118.259813
 31
0.0
  0
ARC
  5
19D
100
AcDbEntity
  8
1
370
    30
  6
Continuous
 62
     7
100
AcDbCircle
 10
91.05316
 20
117.639888
 30
0.0
 40
0.049996
100
AcDbArc
 50
10.39966
 51
98.19836
  0
ARC
  5
19E
100
AcDbEntity
  8
1
370
    30
  6
Continuous
 62
     7
100
AcDbCircle
 10
90.264585
 20
118.228813
 30
0.0
 40
0.049993
100
AcDbArc
 50
8.251663
 51
96.064963
  0
ARC
  5
19F
100
AcDbEntity
  8
1
370
    30
  6
Continuous
 62
     7
100
AcDbCircle
 10
89.498835
 20
118.847113
 30
0.0
 40
0.050032
100
AcDbArc
 50
6.080937
 51
93.836537
  0
LINE
  5
1A0
100
AcDbEntity
  8
1
370
    30
  6
Continuous
 62
     7
100
AcDbLine
 10
91.04601
 20
117.689388
 30
0.0
 11
90.456235
 21
117.603888
 31
0.0
  0
LINE
  5
1A1
100
AcDbEntity
  8
1
370
    30
  6
Continuous
 62
     7
100
AcDbLine
 10
90.259335
 20
118.278613
 30
0.0
 11
89.666685
 21
118.215413
 31
0.0
  0
LINE
  5
1A2
100
AcDbEntity
  8
1
370
    30
  6
Continuous
 62
     7
100
AcDbLine
 10
89.495485
 20
118.897038
 30
0.0
 11
88.900885
 21
118.856263
 31
0.0
  0
ARC
  5
1A3
100
AcDbEntity
  8
1
370
    30
  6
Continuous
 62
     7
100
AcDbCircle
 10
90.449035
 20
117.653388
 30
0.0
 40
0.050021
100
AcDbArc
 50
-171.724107
 51
-81.758707
  0
ARC
  5
1A4
100
AcDbEntity
  8
1
370
    30
  6
Continuous
 62
     7
100
AcDbCircle
 10
89.661435
 20
118.265138
 30
0.0
 40
0.050034
100
AcDbArc
 50
-173.890596
 51
-83.890596
  0
ARC
  5
1A5
100
AcDbEntity
  8
1
370
    30
  6
Continuous
 62
     7
100
AcDbCircle
 10
88.89746
 20
118.906138
 30
0.0
 40
0.050017
100
AcDbArc
 50
-176.073532
 51
-86.073532
  0
LINE
  5
1A6
100
AcDbEntity
  8
1
370
    30
  6
Continuous
 62
     7
100
AcDbLine
 10
88.847535
 20
118.902713
 30
0.0
 11
88.82146
 21
119.282888
 31
0.0
  0
ARC
  5
1A7
100
AcDbEntity
  8
1
370
    30
  6
Continuous
 62
     7
100
AcDbCircle
 10
106.26441
 20
138.828363
 30
0.0
 40
25.500011
100
AcDbArc
 50
-129.960367
 51
-120.373767
  0
LINE
  5
1A8
100
AcDbEntity
  8
1
370
    30
  6
Continuous
 62
     7
100
AcDbLine
 10
106.01441
 20
159.828363
 30
0.0
 11
106.01441
 21
157.328363
 31
0.0
  0
LINE
  5
1A9
100
AcDbEntity
  8
1
370
    30
  6
Continuous
 62
     7
100
AcDbLine
 10
106.01441
 20
159.470888
 30
0.0
 11
106.371885
 21
159.828363
 31
0.0
  0
LINE
  5
1AA
100
AcDbEntity
  8
1
370
    30
  6
Continuous
 62
     7
100
AcDbLine
 10
106.01441
 20
159.753738
 30
0.0
 11
106.089035
 21
159.828363
 31
0.0
  0
LINE
  5
1AB
100
AcDbEntity
  8
1
370
    30
  6
Continuous
 62
     7
100
AcDbLine
 10
97.98336
 20
155.093513
 30
0.0
 11
97.617985
 21
154.882563
 31
0.0
  0
LINE
  5
1AC
100
AcDbEntity
  8
1
370
    30
  6
Continuous
 62
     7
100
AcDbLine
 10
98.301985
 20
154.916613
 30
0.0
 11
97.98336
 21
155.093513
 31
0.0
  0
LINE
  5
1AD
100
AcDbEntity
  8
1
370
    30
  6
Continuous
 62
     7
100
AcDbLine
 10
98.88791
 20
153.901738
 30
0.0
 11
98.301985
 21
154.916613
 31
0.0
  0
LINE
  5
1AE
100
AcDbEntity
  8
1
370
    30
  6
Continuous
 62
     7
100
AcDbLine
 10
97.61186
 20
154.518188
 30
0.0
 11
98.19781
 21
153.503313
 31
0.0
  0
LINE
  5
1AF
100
AcDbEntity
  8
1
370
    30
  6
Continuous
 62
     7
100
AcDbLine
 10
97.617985
 20
154.882563
 30
0.0
 11
97.61186
 21
154.518188
 31
0.0
  0
LINE
  5
1B0
100
AcDbEntity
  8
1
370
    30
  6
Continuous
 62
     7
100
AcDbLine
 10
96.62341
 20
154.308338
 30
0.0
 11
96.659785
 21
152.885963
 31
0.0
  0
LINE
  5
1B1
100
AcDbEntity
  8
1
370
    30
  6
Continuous
 62
     7
100
AcDbLine
 10
97.52186
 20
152.752213
 30
0.0
 11
96.62341
 21
154.308338
 31
0.0
  0
LINE
  5
1B2
100
AcDbEntity
  8
1
370
    30
  6
Continuous
 62
     7
100
AcDbLine
 10
96.33141
 20
155.032813
 30
0.0
 11
97.19746
 21
155.532813
 31
0.0
  0
LINE
  5
1B3
100
AcDbEntity
  8
1
370
    30
  6
Continuous
 62
     7
100
AcDbLine
 10
95.33141
 20
156.764888
 30
0.0
 11
96.33141
 21
155.032813
 31
0.0
  0
LINE
  5
1B4
100
AcDbEntity
  8
1
370
    30
  6
Continuous
 62
     7
100
AcDbLine
 10
92.957385
 20
155.075963
 30
0.0
 11
94.242985
 21
153.543913
 31
0.0
  0
LINE
  5
1B5
100
AcDbEntity
  8
1
370
    30
  6
Continuous
 62
     7
100
AcDbLine
 10
92.57436
 20
154.754588
 30
0.0
 11
93.85996
 21
153.222513
 31
0.0
  0
LINE
  5
1B6
100
AcDbEntity
  8
1
370
    30
  6
Continuous
 62
     7
100
AcDbLine
 10
96.180635
 20
155.293988
 30
0.0
 11
96.912685
 21
156.026038
 31
0.0
  0
LINE
  5
1B7
100
AcDbEntity
  8
1
370
    30
  6
Continuous
 62
     7
100
AcDbLine
 10
96.284135
 20
155.114663
 30
0.0
 11
97.01621
 21
155.846738
 31
0.0
  0
LINE
  5
1B8
100
AcDbEntity
  8
1
370
    30
  6
Continuous
 62
     7
100
AcDbLine
 10
96.69521
 20
155.242888
 30
0.0
 11
97.119735
 21
155.667413
 31
0.0
  0
LINE
  5
1B9
100
AcDbEntity
  8
1
370
    30
  6
Continuous
 62
     7
100
AcDbLine
 10
92.812185
 20
154.471163
 30
0.0
 11
93.167085
 21
154.826063
 31
0.0
  0
LINE
  5
1BA
100
AcDbEntity
  8
1
370
    30
  6
Continuous
 62
     7
100
AcDbLine
 10
92.94126
 20
154.317363
 30
0.0
 11
93.296135
 21
154.672263
 31
0.0
  0
LINE
  5
1BB
100
AcDbEntity
  8
1
370
    30
  6
Continuous
 62
     7
100
AcDbLine
 10
93.07031
 20
154.163588
 30
0.0
 11
93.42521
 21
154.518488
 31
0.0
  0
LINE
  5
1BC
100
AcDbEntity
  8
1
370
    30
  6
Continuous
 62
     7
100
AcDbLine
 10
93.199335
 20
154.009788
 30
0.0
 11
93.554235
 21
154.364688
 31
0.0
  0
LINE
  5
1BD
100
AcDbEntity
  8
1
370
    30
  6
Continuous
 62
     7
100
AcDbLine
 10
98.881785
 20
153.537363
 30
0.0
 11
98.88791
 21
153.901738
 31
0.0
  0
LINE
  5
1BE
100
AcDbEntity
  8
1
370
    30
  6
Continuous
 62
     7
100
AcDbLine
 10
98.516435
 20
153.326438
 30
0.0
 11
98.881785
 21
153.537363
 31
0.0
  0
LINE
  5
1BF
100
AcDbEntity
  8
1
370
    30
  6
Continuous
 62
     7
100
AcDbLine
 10
98.19781
 20
153.503313
 30
0.0
 11
98.516435
 21
153.326438
 31
0.0
  0
LINE
  5
1C0
100
AcDbEntity
  8
1
370
    30
  6
Continuous
 62
     7
100
AcDbLine
 10
96.659785
 20
152.885963
 30
0.0
 11
97.512285
 21
153.378163
 31
0.0
  0
LINE
  5
1C1
100
AcDbEntity
  8
1
370
    30
  6
Continuous
 62
     7
100
AcDbLine
 10
94.242985
 20
153.543913
 30
0.0
 11
93.85996
 21
153.222513
 31
0.0
  0
LINE
  5
1C2
100
AcDbEntity
  8
1
370
    30
  6
Continuous
 62
     7
100
AcDbLine
 10
93.32841
 20
153.855988
 30
0.0
 11
93.683285
 21
154.210888
 31
0.0
  0
LINE
  5
1C3
100
AcDbEntity
  8
1
370
    30
  6
Continuous
 62
     7
100
AcDbLine
 10
93.45746
 20
153.702188
 30
0.0
 11
93.81236
 21
154.057113
 31
0.0
  0
LINE
  5
1C4
100
AcDbEntity
  8
1
370
    30
  6
Continuous
 62
     7
100
AcDbLine
 10
93.586485
 20
153.548413
 30
0.0
 11
93.941385
 21
153.903313
 31
0.0
  0
LINE
  5
1C5
100
AcDbEntity
  8
1
370
    30
  6
Continuous
 62
     7
100
AcDbLine
 10
93.715535
 20
153.394613
 30
0.0
 11
94.070435
 21
153.749513
 31
0.0
  0
LINE
  5
1C6
100
AcDbEntity
  8
1
370
    30
  6
Continuous
 62
     7
100
AcDbLine
 10
93.84461
 20
153.240813
 30
0.0
 11
94.19951
 21
153.595713
 31
0.0
  0
LINE
  5
1C7
100
AcDbEntity
  8
1
370
    30
  6
Continuous
 62
     7
100
AcDbLine
 10
116.20991
 20
154.132563
 30
0.0
 11
115.84456
 21
154.343513
 31
0.0
  0
LINE
  5
1C8
100
AcDbEntity
  8
1
370
    30
  6
Continuous
 62
     7
100
AcDbLine
 10
115.84456
 20
154.343513
 30
0.0
 11
115.525935
 21
154.166613
 31
0.0
  0
LINE
  5
1C9
100
AcDbEntity
  8
1
370
    30
  6
Continuous
 62
     7
100
AcDbLine
 10
115.07326
 20
154.788813
 30
0.0
 11
113.78916
 21
153.455338
 31
0.0
  0
LINE
  5
1CA
100
AcDbEntity
  8
1
370
    30
  6
Continuous
 62
     7
100
AcDbLine
 10
114.383135
 20
155.187263
 30
0.0
 11
115.07326
 21
154.788813
 31
0.0
  0
LINE
  5
1CB
100
AcDbEntity
  8
1
370
    30
  6
Continuous
 62
     7
100
AcDbLine
 10
112.997735
 20
156.597013
 30
0.0
 11
112.527885
 21
156.768038
 31
0.0
  0
LINE
  5
1CC
100
AcDbEntity
  8
1
370
    30
  6
Continuous
 62
     7
100
AcDbLine
 10
113.68176
 20
158.476413
 30
0.0
 11
113.21191
 21
158.647388
 31
0.0
  0
LINE
  5
1CD
100
AcDbEntity
  8
1
370
    30
  6
Continuous
 62
     7
100
AcDbLine
 10
113.21191
 20
158.647388
 30
0.0
 11
112.52786
 21
156.768038
 31
0.0
  0
LINE
  5
1CE
100
AcDbEntity
  8
1
370
    30
  6
Continuous
 62
     7
100
AcDbLine
 10
113.68176
 20
158.476413
 30
0.0
 11
112.99771
 21
156.597013
 31
0.0
  0
LINE
  5
1CF
100
AcDbEntity
  8
1
370
    30
  6
Continuous
 62
     7
100
AcDbLine
 10
117.19746
 20
156.764888
 30
0.0
 11
116.33141
 21
157.264888
 31
0.0
  0
LINE
  5
1D0
100
AcDbEntity
  8
1
370
    30
  6
Continuous
 62
     7
100
AcDbLine
 10
115.33141
 20
155.532813
 30
0.0
 11
116.19746
 21
155.032813
 31
0.0
  0
LINE
  5
1D1
100
AcDbEntity
  8
1
370
    30
  6
Continuous
 62
     7
100
AcDbLine
 10
117.19746
 20
156.764888
 30
0.0
 11
116.19746
 21
155.032813
 31
0.0
  0
LINE
  5
1D2
100
AcDbEntity
  8
1
370
    30
  6
Continuous
 62
     7
100
AcDbLine
 10
116.33141
 20
157.264888
 30
0.0
 11
115.33141
 21
155.532813
 31
0.0
  0
LINE
  5
1D3
100
AcDbEntity
  8
1
370
    30
  6
Continuous
 62
     7
100
AcDbLine
 10
113.108085
 20
158.362088
 30
0.0
 11
113.344985
 21
158.598987
 31
0.0
  0
LINE
  5
1D4
100
AcDbEntity
  8
1
370
    30
  6
Continuous
 62
     7
100
AcDbLine
 10
112.946235
 20
157.917363
 30
0.0
 11
113.55236
 21
158.523513
 31
0.0
  0
LINE
  5
1D5
100
AcDbEntity
  8
1
370
    30
  6
Continuous
 62
     7
100
AcDbLine
 10
112.78436
 20
157.472637
 30
0.0
 11
113.620935
 21
158.309238
 31
0.0
  0
LINE
  5
1D6
100
AcDbEntity
  8
1
370
    30
  6
Continuous
 62
     7
100
AcDbLine
 10
112.622485
 20
157.027938
 30
0.0
 11
113.459085
 21
157.864538
 31
0.0
  0
LINE
  5
1D7
100
AcDbEntity
  8
1
370
    30
  6
Continuous
 62
     7
100
AcDbLine
 10
112.82141
 20
156.661188
 30
0.0
 11
113.135335
 21
156.975112
 31
0.0
  0
LINE
  5
1D8
100
AcDbEntity
  8
1
370
    30
  6
Continuous
 62
     7
100
AcDbLine
 10
112.614035
 20
156.736663
 30
0.0
 11
113.29721
 21
157.419838
 31
0.0
  0
LINE
  5
1D9
100
AcDbEntity
  8
1
370
    30
  6
Continuous
 62
     7
100
AcDbLine
 10
116.051385
 20
156.779888
 30
0.0
 11
116.46136
 21
157.189863
 31
0.0
  0
LINE
  5
1DA
100
AcDbEntity
  8
1
370
    30
  6
Continuous
 62
     7
100
AcDbLine
 10
115.665035
 20
156.110688
 30
0.0
 11
116.640685
 21
157.086338
 31
0.0
  0
LINE
  5
1DB
100
AcDbEntity
  8
1
370
    30
  6
Continuous
 62
     7
100
AcDbLine
 10
116.073135
 20
155.104588
 30
0.0
 11
116.46521
 21
155.496663
 31
0.0
  0
LINE
  5
1DC
100
AcDbEntity
  8
1
370
    30
  6
Continuous
 62
     7
100
AcDbLine
 10
115.893835
 20
155.208113
 30
0.0
 11
116.851585
 21
156.165888
 31
0.0
  0
LINE
  5
1DD
100
AcDbEntity
  8
1
370
    30
  6
Continuous
 62
     7
100
AcDbLine
 10
115.71451
 20
155.311638
 30
0.0
 11
117.17861
 21
156.775738
 31
0.0
  0
LINE
  5
1DE
100
AcDbEntity
  8
1
370
    30
  6
Continuous
 62
     7
100
AcDbLine
 10
115.53521
 20
155.415188
 30
0.0
 11
116.99931
 21
156.879288
 31
0.0
  0
LINE
  5
1DF
100
AcDbEntity
  8
1
370
    30
  6
Continuous
 62
     7
100
AcDbLine
 10
115.355885
 20
155.518688
 30
0.0
 11
116.819985
 21
156.982788
 31
0.0
  0
LINE
  5
1E0
100
AcDbEntity
  8
1
370
    30
  6
Continuous
 62
     7
100
AcDbLine
 10
116.216035
 20
153.768188
 30
0.0
 11
116.20991
 21
154.132563
 31
0.0
  0
LINE
  5
1E1
100
AcDbEntity
  8
1
370
    30
  6
Continuous
 62
     7
100
AcDbLine
 10
115.63011
 20
152.753313
 30
0.0
 11
116.216035
 21
153.768188
 31
0.0
  0
LINE
  5
1E2
100
AcDbEntity
  8
1
370
    30
  6
Continuous
 62
     7
100
AcDbLine
 10
115.311485
 20
152.576438
 30
0.0
 11
115.63011
 21
152.753313
 31
0.0
  0
LINE
  5
1E3
100
AcDbEntity
  8
1
370
    30
  6
Continuous
 62
     7
100
AcDbLine
 10
114.94611
 20
152.787363
 30
0.0
 11
115.311485
 21
152.576438
 31
0.0
  0
LINE
  5
1E4
100
AcDbEntity
  8
1
370
    30
  6
Continuous
 62
     7
100
AcDbLine
 10
114.939985
 20
153.151738
 30
0.0
 11
114.94611
 21
152.787363
 31
0.0
  0
LINE
  5
1E5
100
AcDbEntity
  8
1
370
    30
  6
Continuous
 62
     7
100
AcDbLine
 10
115.525935
 20
154.166613
 30
0.0
 11
114.939985
 21
153.151738
 31
0.0
  0
LINE
  5
1E6
100
AcDbEntity
  8
1
370
    30
  6
Continuous
 62
     7
100
AcDbLine
 10
118.668885
 20
153.222513
 30
0.0
 11
118.28586
 21
153.543913
 31
0.0
  0
LINE
  5
1E7
100
AcDbEntity
  8
1
370
    30
  6
Continuous
 62
     7
100
AcDbLine
 10
119.95446
 20
154.754588
 30
0.0
 11
119.571435
 21
155.075963
 31
0.0
  0
LINE
  5
1E8
100
AcDbEntity
  8
1
370
    30
  6
Continuous
 62
     7
100
AcDbLine
 10
119.57146
 20
155.075963
 30
0.0
 11
118.285885
 21
153.543913
 31
0.0
  0
LINE
  5
1E9
100
AcDbEntity
  8
1
370
    30
  6
Continuous
 62
     7
100
AcDbLine
 10
119.95446
 20
154.754588
 30
0.0
 11
118.668885
 21
153.222513
 31
0.0
  0
LINE
  5
1EA
100
AcDbEntity
  8
1
370
    30
  6
Continuous
 62
     7
100
AcDbLine
 10
118.788885
 20
154.143363
 30
0.0
 11
119.653035
 21
155.007538
 31
0.0
  0
LINE
  5
1EB
100
AcDbEntity
  8
1
370
    30
  6
Continuous
 62
     7
100
AcDbLine
 10
118.54101
 20
153.329813
 30
0.0
 11
119.895385
 21
154.684188
 31
0.0
  0
LINE
  5
1EC
100
AcDbEntity
  8
1
370
    30
  6
Continuous
 62
     7
100
AcDbLine
 10
118.387235
 20
153.458863
 30
0.0
 11
119.80686
 21
154.878488
 31
0.0
  0
LINE
  5
1ED
100
AcDbEntity
  8
1
370
    30
  6
Continuous
 62
     7
100
AcDbLine
 10
104.04576
 20
156.944888
 30
0.0
 11
103.630285
 21
156.871637
 31
0.0
  0
LINE
  5
1EE
100
AcDbEntity
  8
1
370
    30
  6
Continuous
 62
     7
100
AcDbLine
 10
104.284685
 20
156.669688
 30
0.0
 11
104.04576
 21
156.944888
 31
0.0
  0
LINE
  5
1EF
100
AcDbEntity
  8
1
370
    30
  6
Continuous
 62
     7
100
AcDbLine
 10
104.48816
 20
155.515638
 30
0.0
 11
104.284685
 21
156.669688
 31
0.0
  0
LINE
  5
1F0
100
AcDbEntity
  8
1
370
    30
  6
Continuous
 62
     7
100
AcDbLine
 10
104.357785
 20
155.175312
 30
0.0
 11
104.48816
 21
155.515638
 31
0.0
  0
LINE
  5
1F1
100
AcDbEntity
  8
1
370
    30
  6
Continuous
 62
     7
100
AcDbLine
 10
103.94231
 20
155.102063
 30
0.0
 11
104.357785
 21
155.175312
 31
0.0
  0
LINE
  5
1F2
100
AcDbEntity
  8
1
370
    30
  6
Continuous
 62
     7
100
AcDbLine
 10
103.70341
 20
155.377263
 30
0.0
 11
103.94231
 21
155.102063
 31
0.0
  0
LINE
  5
1F3
100
AcDbEntity
  8
1
370
    30
  6
Continuous
 62
     7
100
AcDbLine
 10
103.49991
 20
156.531313
 30
0.0
 11
103.70341
 21
155.377263
 31
0.0
  0
LINE
  5
1F4
100
AcDbEntity
  8
1
370
    30
  6
Continuous
 62
     7
100
AcDbLine
 10
103.630285
 20
156.871637
 30
0.0
 11
103.49991
 21
156.531313
 31
0.0
  0
LINE
  5
1F5
100
AcDbEntity
  8
1
370
    30
  6
Continuous
 62
     7
100
AcDbLine
 10
102.46511
 20
154.841588
 30
0.0
 11
102.226185
 21
155.116788
 31
0.0
  0
LINE
  5
1F6
100
AcDbEntity
  8
1
370
    30
  6
Continuous
 62
     7
100
AcDbLine
 10
102.880585
 20
154.914838
 30
0.0
 11
102.46511
 21
154.841588
 31
0.0
  0
LINE
  5
1F7
100
AcDbEntity
  8
1
370
    30
  6
Continuous
 62
     7
100
AcDbLine
 10
103.01096
 20
155.255163
 30
0.0
 11
102.880585
 21
154.914838
 31
0.0
  0
LINE
  5
1F8
100
AcDbEntity
  8
1
370
    30
  6
Continuous
 62
     7
100
AcDbLine
 10
102.922785
 20
155.755263
 30
0.0
 11
103.01096
 21
155.255163
 31
0.0
  0
LINE
  5
1F9
100
AcDbEntity
  8
1
370
    30
  6
Continuous
 62
     7
100
AcDbLine
 10
102.68386
 20
156.030438
 30
0.0
 11
102.922785
 21
155.755263
 31
0.0
  0
LINE
  5
1FA
100
AcDbEntity
  8
1
370
    30
  6
Continuous
 62
     7
100
AcDbLine
 10
102.268385
 20
155.957188
 30
0.0
 11
102.68386
 21
156.030438
 31
0.0
  0
LINE
  5
1FB
100
AcDbEntity
  8
1
370
    30
  6
Continuous
 62
     7
100
AcDbLine
 10
102.13801
 20
155.616888
 30
0.0
 11
102.268385
 21
155.957188
 31
0.0
  0
LINE
  5
1FC
100
AcDbEntity
  8
1
370
    30
  6
Continuous
 62
     7
100
AcDbLine
 10
101.968435
 20
156.578588
 30
0.0
 11
102.13801
 21
155.616888
 31
0.0
  0
LINE
  5
1FD
100
AcDbEntity
  8
1
370
    30
  6
Continuous
 62
     7
100
AcDbLine
 10
102.68396
 20
156.704763
 30
0.0
 11
101.968435
 21
156.578588
 31
0.0
  0
LINE
  5
1FE
100
AcDbEntity
  8
1
370
    30
  6
Continuous
 62
     7
100
AcDbLine
 10
110.375735
 20
156.611163
 30
0.0
 11
109.960285
 21
156.684413
 31
0.0
  0
LINE
  5
1FF
100
AcDbEntity
  8
1
370
    30
  6
Continuous
 62
     7
100
AcDbLine
 10
110.506135
 20
156.270838
 30
0.0
 11
110.375735
 21
156.611163
 31
0.0
  0
LINE
  5
200
100
AcDbEntity
  8
1
370
    30
  6
Continuous
 62
     7
100
AcDbLine
 10
110.302635
 20
155.116763
 30
0.0
 11
110.506135
 21
156.270838
 31
0.0
  0
LINE
  5
201
100
AcDbEntity
  8
1
370
    30
  6
Continuous
 62
     7
100
AcDbLine
 10
110.06371
 20
154.841563
 30
0.0
 11
110.302635
 21
155.116763
 31
0.0
  0
LINE
  5
202
100
AcDbEntity
  8
1
370
    30
  6
Continuous
 62
     7
100
AcDbLine
 10
109.64826
 20
154.914838
 30
0.0
 11
110.06371
 21
154.841563
 31
0.0
  0
LINE
  5
203
100
AcDbEntity
  8
1
370
    30
  6
Continuous
 62
     7
100
AcDbLine
 10
109.51786
 20
155.255138
 30
0.0
 11
109.64826
 21
154.914838
 31
0.0
  0
LINE
  5
204
100
AcDbEntity
  8
1
370
    30
  6
Continuous
 62
     7
100
AcDbLine
 10
109.72136
 20
156.409213
 30
0.0
 11
109.51786
 21
155.255138
 31
0.0
  0
LINE
  5
205
100
AcDbEntity
  8
1
370
    30
  6
Continuous
 62
     7
100
AcDbLine
 10
109.960285
 20
156.684413
 30
0.0
 11
109.72136
 21
156.409213
 31
0.0
  0
LINE
  5
206
100
AcDbEntity
  8
1
370
    30
  6
Continuous
 62
     7
100
AcDbLine
 10
108.36096
 20
156.252438
 30
0.0
 11
108.122035
 21
155.977238
 31
0.0
  0
LINE
  5
207
100
AcDbEntity
  8
1
370
    30
  6
Continuous
 62
     7
100
AcDbLine
 10
108.776435
 20
156.179188
 30
0.0
 11
108.36096
 21
156.252438
 31
0.0
  0
LINE
  5
208
100
AcDbEntity
  8
1
370
    30
  6
Continuous
 62
     7
100
AcDbLine
 10
108.90681
 20
155.838888
 30
0.0
 11
108.776435
 21
156.179188
 31
0.0
  0
LINE
  5
209
100
AcDbEntity
  8
1
370
    30
  6
Continuous
 62
     7
100
AcDbLine
 10
108.82541
 20
155.377238
 30
0.0
 11
108.90681
 21
155.838888
 31
0.0
  0
LINE
  5
20A
100
AcDbEntity
  8
1
370
    30
  6
Continuous
 62
     7
100
AcDbLine
 10
108.58651
 20
155.102038
 30
0.0
 11
108.82541
 21
155.377238
 31
0.0
  0
LINE
  5
20B
100
AcDbEntity
  8
1
370
    30
  6
Continuous
 62
     7
100
AcDbLine
 10
108.171035
 20
155.175312
 30
0.0
 11
108.58651
 21
155.102038
 31
0.0
  0
LINE
  5
20C
100
AcDbEntity
  8
1
370
    30
  6
Continuous
 62
     7
100
AcDbLine
 10
108.04066
 20
155.515613
 30
0.0
 11
108.171035
 21
155.175312
 31
0.0
  0
LINE
  5
20D
100
AcDbEntity
  8
1
370
    30
  6
Continuous
 62
     7
100
AcDbLine
 10
108.244135
 20
156.669688
 30
0.0
 11
108.04066
 21
155.515613
 31
0.0
  0
LINE
  5
20E
100
AcDbEntity
  8
1
370
    30
  6
Continuous
 62
     7
100
AcDbLine
 10
108.48306
 20
156.944888
 30
0.0
 11
108.244135
 21
156.669688
 31
0.0
  0
LINE
  5
20F
100
AcDbEntity
  8
1
370
    30
  6
Continuous
 62
     7
100
AcDbLine
 10
108.89851
 20
156.871637
 30
0.0
 11
108.48306
 21
156.944888
 31
0.0
  0
LINE
  5
210
100
AcDbEntity
  8
1
370
    30
  6
Continuous
 62
     7
100
AcDbLine
 10
109.02891
 20
156.531313
 30
0.0
 11
108.89851
 21
156.871637
 31
0.0
  0
LINE
  5
211
100
AcDbEntity
  8
1
370
    30
  6
Continuous
 62
     7
100
AcDbLine
 10
106.01441
 20
157.328363
 30
0.0
 11
106.51441
 21
157.328363
 31
0.0
  0
LINE
  5
212
100
AcDbEntity
  8
1
370
    30
  6
Continuous
 62
     7
100
AcDbLine
 10
96.19746
 20
157.264888
 30
0.0
 11
95.33141
 21
156.764888
 31
0.0
  0
LINE
  5
213
100
AcDbEntity
  8
1
370
    30
  6
Continuous
 62
     7
100
AcDbLine
 10
96.19746
 20
157.264888
 30
0.0
 11
97.19746
 21
155.532813
 31
0.0
  0
LINE
  5
214
100
AcDbEntity
  8
1
370
    30
  6
Continuous
 62
     7
100
AcDbLine
 10
103.110235
 20
159.596163
 30
0.0
 11
103.45751
 21
157.626513
 31
0.0
  0
LINE
  5
215
100
AcDbEntity
  8
1
370
    30
  6
Continuous
 62
     7
100
AcDbLine
 10
102.125435
 20
159.422513
 30
0.0
 11
102.47271
 21
157.452863
 31
0.0
  0
LINE
  5
216
100
AcDbEntity
  8
1
370
    30
  6
Continuous
 62
     7
100
AcDbLine
 10
106.51441
 20
159.828363
 30
0.0
 11
106.51441
 21
157.328363
 31
0.0
  0
LINE
  5
217
100
AcDbEntity
  8
1
370
    30
  6
Continuous
 62
     7
100
AcDbLine
 10
92.957385
 20
155.075963
 30
0.0
 11
92.57436
 21
154.754588
 31
0.0
  0
LINE
  5
218
100
AcDbEntity
  8
1
370
    30
  6
Continuous
 62
     7
100
AcDbLine
 10
100.000985
 20
156.768038
 30
0.0
 11
99.531135
 21
156.597013
 31
0.0
  0
LINE
  5
219
100
AcDbEntity
  8
1
370
    30
  6
Continuous
 62
     7
100
AcDbLine
 10
99.316885
 20
158.647388
 30
0.0
 11
98.847035
 21
158.476413
 31
0.0
  0
LINE
  5
21A
100
AcDbEntity
  8
1
370
    30
  6
Continuous
 62
     7
100
AcDbLine
 10
99.316885
 20
158.647388
 30
0.0
 11
100.000935
 21
156.768038
 31
0.0
  0
LINE
  5
21B
100
AcDbEntity
  8
1
370
    30
  6
Continuous
 62
     7
100
AcDbLine
 10
98.84706
 20
158.476413
 30
0.0
 11
99.531135
 21
156.597013
 31
0.0
  0
LINE
  5
21C
100
AcDbEntity
  8
1
370
    30
  6
Continuous
 62
     7
100
AcDbLine
 10
102.47271
 20
157.452863
 30
0.0
 11
103.45751
 21
157.626513
 31
0.0
  0
LINE
  5
21D
100
AcDbEntity
  8
1
370
    30
  6
Continuous
 62
     7
100
AcDbLine
 10
103.110235
 20
159.596163
 30
0.0
 11
102.125435
 21
159.422513
 31
0.0
  0
LINE
  5
21E
100
AcDbEntity
  8
1
370
    30
  6
Continuous
 62
     7
100
AcDbLine
 10
109.07136
 20
157.626513
 30
0.0
 11
110.05616
 21
157.452863
 31
0.0
  0
LINE
  5
21F
100
AcDbEntity
  8
1
370
    30
  6
Continuous
 62
     7
100
AcDbLine
 10
110.403435
 20
159.422513
 30
0.0
 11
109.418635
 21
159.596163
 31
0.0
  0
LINE
  5
220
100
AcDbEntity
  8
1
370
    30
  6
Continuous
 62
     7
100
AcDbLine
 10
109.418635
 20
159.596163
 30
0.0
 11
109.07136
 21
157.626513
 31
0.0
  0
LINE
  5
221
100
AcDbEntity
  8
1
370
    30
  6
Continuous
 62
     7
100
AcDbLine
 10
110.403435
 20
159.422513
 30
0.0
 11
110.05616
 21
157.452863
 31
0.0
  0
LINE
  5
222
100
AcDbEntity
  8
1
370
    30
  6
Continuous
 62
     7
100
AcDbLine
 10
106.01441
 20
159.188038
 30
0.0
 11
106.51441
 21
159.688038
 31
0.0
  0
LINE
  5
223
100
AcDbEntity
  8
1
370
    30
  6
Continuous
 62
     7
100
AcDbLine
 10
106.01441
 20
158.905188
 30
0.0
 11
106.51441
 21
159.405188
 31
0.0
  0
LINE
  5
224
100
AcDbEntity
  8
1
370
    30
  6
Continuous
 62
     7
100
AcDbLine
 10
106.01441
 20
158.622338
 30
0.0
 11
106.51441
 21
159.122338
 31
0.0
  0
LINE
  5
225
100
AcDbEntity
  8
1
370
    30
  6
Continuous
 62
     7
100
AcDbLine
 10
106.01441
 20
158.339513
 30
0.0
 11
106.51441
 21
158.839513
 31
0.0
  0
LINE
  5
226
100
AcDbEntity
  8
1
370
    30
  6
Continuous
 62
     7
100
AcDbLine
 10
106.01441
 20
158.056663
 30
0.0
 11
106.51441
 21
158.556663
 31
0.0
  0
LINE
  5
227
100
AcDbEntity
  8
1
370
    30
  6
Continuous
 62
     7
100
AcDbLine
 10
106.01441
 20
157.773838
 30
0.0
 11
106.51441
 21
158.273838
 31
0.0
  0
LINE
  5
228
100
AcDbEntity
  8
1
370
    30
  6
Continuous
 62
     7
100
AcDbLine
 10
106.01441
 20
157.490988
 30
0.0
 11
106.51441
 21
157.990988
 31
0.0
  0
LINE
  5
229
100
AcDbEntity
  8
1
370
    30
  6
Continuous
 62
     7
100
AcDbLine
 10
106.417485
 20
157.328363
 30
0.0
 11
106.51441
 21
157.425288
 31
0.0
  0
LINE
  5
22A
100
AcDbEntity
  8
1
370
    30
  6
Continuous
 62
     7
100
AcDbLine
 10
106.134635
 20
157.328363
 30
0.0
 11
106.51441
 21
157.708137
 31
0.0
  0
LINE
  5
22B
100
AcDbEntity
  8
1
370
    30
  6
Continuous
 62
     7
100
AcDbLine
 10
109.393985
 20
159.456313
 30
0.0
 11
109.51656
 21
159.578888
 31
0.0
  0
LINE
  5
22C
100
AcDbEntity
  8
1
370
    30
  6
Continuous
 62
     7
100
AcDbLine
 10
109.333435
 20
159.112913
 30
0.0
 11
109.75701
 21
159.536487
 31
0.0
  0
LINE
  5
22D
100
AcDbEntity
  8
1
370
    30
  6
Continuous
 62
     7
100
AcDbLine
 10
109.272885
 20
158.769512
 30
0.0
 11
109.99746
 21
159.494113
 31
0.0
  0
LINE
  5
22E
100
AcDbEntity
  8
1
370
    30
  6
Continuous
 62
     7
100
AcDbLine
 10
109.21231
 20
158.426113
 30
0.0
 11
110.237885
 21
159.451713
 31
0.0
  0
LINE
  5
22F
100
AcDbEntity
  8
1
370
    30
  6
Continuous
 62
     7
100
AcDbLine
 10
109.15176
 20
158.082713
 30
0.0
 11
110.384535
 21
159.315513
 31
0.0
  0
LINE
  5
230
100
AcDbEntity
  8
1
370
    30
  6
Continuous
 62
     7
100
AcDbLine
 10
109.09121
 20
157.739338
 30
0.0
 11
110.32401
 21
158.972138
 31
0.0
  0
LINE
  5
231
100
AcDbEntity
  8
1
370
    30
  6
Continuous
 62
     7
100
AcDbLine
 10
109.954135
 20
157.470863
 30
0.0
 11
110.081835
 21
157.598563
 31
0.0
  0
LINE
  5
232
100
AcDbEntity
  8
1
370
    30
  6
Continuous
 62
     7
100
AcDbLine
 10
109.713685
 20
157.513263
 30
0.0
 11
110.14236
 21
157.941963
 31
0.0
  0
LINE
  5
233
100
AcDbEntity
  8
1
370
    30
  6
Continuous
 62
     7
100
AcDbLine
 10
109.473235
 20
157.555638
 30
0.0
 11
110.20291
 21
158.285338
 31
0.0
  0
LINE
  5
234
100
AcDbEntity
  8
1
370
    30
  6
Continuous
 62
     7
100
AcDbLine
 10
109.232785
 20
157.598063
 30
0.0
 11
110.26346
 21
158.628738
 31
0.0
  0
LINE
  5
235
100
AcDbEntity
  8
1
370
    30
  6
Continuous
 62
     7
100
AcDbLine
 10
102.14996
 20
159.283363
 30
0.0
 11
102.324135
 21
159.457563
 31
0.0
  0
LINE
  5
236
100
AcDbEntity
  8
1
370
    30
  6
Continuous
 62
     7
100
AcDbLine
 10
102.192335
 20
159.042938
 30
0.0
 11
102.667535
 21
159.518113
 31
0.0
  0
LINE
  5
237
100
AcDbEntity
  8
1
370
    30
  6
Continuous
 62
     7
100
AcDbLine
 10
102.234735
 20
158.802488
 30
0.0
 11
103.01091
 21
159.578638
 31
0.0
  0
LINE
  5
238
100
AcDbEntity
  8
1
370
    30
  6
Continuous
 62
     7
100
AcDbLine
 10
102.277135
 20
158.562038
 30
0.0
 11
103.140335
 21
159.425238
 31
0.0
  0
LINE
  5
239
100
AcDbEntity
  8
1
370
    30
  6
Continuous
 62
     7
100
AcDbLine
 10
102.31951
 20
158.321588
 30
0.0
 11
103.182735
 21
159.184788
 31
0.0
  0
LINE
  5
23A
100
AcDbEntity
  8
1
370
    30
  6
Continuous
 62
     7
100
AcDbLine
 10
102.361935
 20
158.081138
 30
0.0
 11
103.22516
 21
158.944363
 31
0.0
  0
LINE
  5
23B
100
AcDbEntity
  8
1
370
    30
  6
Continuous
 62
     7
100
AcDbLine
 10
102.40431
 20
157.840688
 30
0.0
 11
103.267535
 21
158.703913
 31
0.0
  0
LINE
  5
23C
100
AcDbEntity
  8
1
370
    30
  6
Continuous
 62
     7
100
AcDbLine
 10
102.44671
 20
157.600238
 30
0.0
 11
103.309935
 21
158.463438
 31
0.0
  0
LINE
  5
23D
100
AcDbEntity
  8
1
370
    30
  6
Continuous
 62
     7
100
AcDbLine
 10
103.29241
 20
157.597412
 30
0.0
 11
103.43711
 21
157.742113
 31
0.0
  0
LINE
  5
23E
100
AcDbEntity
  8
1
370
    30
  6
Continuous
 62
     7
100
AcDbLine
 10
102.949035
 20
157.536863
 30
0.0
 11
103.394735
 21
157.982563
 31
0.0
  0
LINE
  5
23F
100
AcDbEntity
  8
1
370
    30
  6
Continuous
 62
     7
100
AcDbLine
 10
102.60566
 20
157.476313
 30
0.0
 11
103.352335
 21
158.222988
 31
0.0
  0
LINE
  5
240
100
AcDbEntity
  8
1
370
    30
  6
Continuous
 62
     7
100
AcDbLine
 10
98.90931
 20
158.305463
 30
0.0
 11
99.213635
 21
158.609813
 31
0.0
  0
LINE
  5
241
100
AcDbEntity
  8
1
370
    30
  6
Continuous
 62
     7
100
AcDbLine
 10
98.98476
 20
158.098113
 30
0.0
 11
99.37486
 21
158.488188
 31
0.0
  0
LINE
  5
242
100
AcDbEntity
  8
1
370
    30
  6
Continuous
 62
     7
100
AcDbLine
 10
99.060235
 20
157.890738
 30
0.0
 11
99.450335
 21
158.280838
 31
0.0
  0
LINE
  5
243
100
AcDbEntity
  8
1
370
    30
  6
Continuous
 62
     7
100
AcDbLine
 10
99.13571
 20
157.683363
 30
0.0
 11
99.52581
 21
158.073463
 31
0.0
  0
LINE
  5
244
100
AcDbEntity
  8
1
370
    30
  6
Continuous
 62
     7
100
AcDbLine
 10
99.211185
 20
157.475988
 30
0.0
 11
99.601285
 21
157.866088
 31
0.0
  0
LINE
  5
245
100
AcDbEntity
  8
1
370
    30
  6
Continuous
 62
     7
100
AcDbLine
 10
99.286685
 20
157.268638
 30
0.0
 11
99.676785
 21
157.658738
 31
0.0
  0
LINE
  5
246
100
AcDbEntity
  8
1
370
    30
  6
Continuous
 62
     7
100
AcDbLine
 10
99.362135
 20
157.061263
 30
0.0
 11
99.752235
 21
157.451363
 31
0.0
  0
LINE
  5
247
100
AcDbEntity
  8
1
370
    30
  6
Continuous
 62
     7
100
AcDbLine
 10
99.43761
 20
156.853913
 30
0.0
 11
99.82771
 21
157.244013
 31
0.0
  0
LINE
  5
248
100
AcDbEntity
  8
1
370
    30
  6
Continuous
 62
     7
100
AcDbLine
 10
99.513085
 20
156.646537
 30
0.0
 11
99.90321
 21
157.036638
 31
0.0
  0
LINE
  5
249
100
AcDbEntity
  8
1
370
    30
  6
Continuous
 62
     7
100
AcDbLine
 10
99.869635
 20
156.720238
 30
0.0
 11
99.97866
 21
156.829263
 31
0.0
  0
LINE
  5
24A
100
AcDbEntity
  8
1
370
    30
  6
Continuous
 62
     7
100
AcDbLine
 10
95.35241
 20
156.728513
 30
0.0
 11
95.46721
 21
156.843288
 31
0.0
  0
LINE
  5
24B
100
AcDbEntity
  8
1
370
    30
  6
Continuous
 62
     7
100
AcDbLine
 10
95.455935
 20
156.549188
 30
0.0
 11
96.13641
 21
157.229638
 31
0.0
  0
LINE
  5
24C
100
AcDbEntity
  8
1
370
    30
  6
Continuous
 62
     7
100
AcDbLine
 10
95.559485
 20
156.369888
 30
0.0
 11
96.291535
 21
157.101938
 31
0.0
  0
LINE
  5
24D
100
AcDbEntity
  8
1
370
    30
  6
Continuous
 62
     7
100
AcDbLine
 10
95.662985
 20
156.190563
 30
0.0
 11
96.395035
 21
156.922613
 31
0.0
  0
LINE
  5
24E
100
AcDbEntity
  8
1
370
    30
  6
Continuous
 62
     7
100
AcDbLine
 10
95.766535
 20
156.011263
 30
0.0
 11
96.498585
 21
156.743313
 31
0.0
  0
LINE
  5
24F
100
AcDbEntity
  8
1
370
    30
  6
Continuous
 62
     7
100
AcDbLine
 10
95.87006
 20
155.831938
 30
0.0
 11
96.60211
 21
156.563963
 31
0.0
  0
LINE
  5
250
100
AcDbEntity
  8
1
370
    30
  6
Continuous
 62
     7
100
AcDbLine
 10
95.97356
 20
155.652613
 30
0.0
 11
96.70561
 21
156.384663
 31
0.0
  0
LINE
  5
251
100
AcDbEntity
  8
1
370
    30
  6
Continuous
 62
     7
100
AcDbLine
 10
96.077085
 20
155.473288
 30
0.0
 11
96.809135
 21
156.205338
 31
0.0
  0
LINE
  5
252
100
AcDbEntity
  8
1
370
    30
  6
Continuous
 62
     7
100
AcDbLine
 10
92.68316
 20
154.624963
 30
0.0
 11
93.03806
 21
154.979863
 31
0.0
  0
LINE
  5
253
100
AcDbEntity
  8
1
370
    30
  6
Continuous
 62
     7
100
AcDbLine
 10
106.51441
 20
159.828363
 30
0.0
 11
106.01441
 21
159.828363
 31
0.0
  0
LINE
  5
254
100
AcDbEntity
  8
1
370
    30
  6
Continuous
 62
     7
100
AcDbLine
 10
111.469835
 20
161.831513
 30
0.0
 11
111.469835
 21
160.537763
 31
0.0
  0
LINE
  5
255
100
AcDbEntity
  8
1
370
    30
  6
Continuous
 62
     7
100
AcDbLine
 10
111.02061
 20
161.831513
 30
0.0
 11
111.91906
 21
161.831513
 31
0.0
  0
LINE
  5
256
100
AcDbEntity
  8
1
370
    30
  6
Continuous
 62
     7
100
AcDbLine
 10
110.04641
 20
160.959638
 30
0.0
 11
110.632335
 21
160.959638
 31
0.0
  0
LINE
  5
257
100
AcDbEntity
  8
1
370
    30
  6
Continuous
 62
     7
100
AcDbLine
 10
110.33936
 20
161.859638
 30
0.0
 11
110.76906
 21
160.537763
 31
0.0
  0
LINE
  5
258
100
AcDbEntity
  8
1
370
    30
  6
Continuous
 62
     7
100
AcDbLine
 10
109.909685
 20
160.537763
 30
0.0
 11
110.33936
 21
161.859638
 31
0.0
  0
LINE
  5
259
100
AcDbEntity
  8
1
370
    30
  6
Continuous
 62
     7
100
AcDbLine
 10
109.169835
 20
161.831513
 30
0.0
 11
109.169835
 21
160.537763
 31
0.0
  0
LINE
  5
25A
100
AcDbEntity
  8
1
370
    30
  6
Continuous
 62
     7
100
AcDbLine
 10
108.72061
 20
161.831513
 30
0.0
 11
109.61906
 21
161.831513
 31
0.0
  0
LINE
  5
25B
100
AcDbEntity
  8
1
370
    30
  6
Continuous
 62
     7
100
AcDbLine
 10
107.707335
 20
160.650263
 30
0.0
 11
107.648735
 21
160.762763
 31
0.0
  0
LINE
  5
25C
100
AcDbEntity
  8
1
370
    30
  6
Continuous
 62
     7
100
AcDbLine
 10
107.824535
 20
160.537763
 30
0.0
 11
107.707335
 21
160.650263
 31
0.0
  0
LINE
  5
25D
100
AcDbEntity
  8
1
370
    30
  6
Continuous
 62
     7
100
AcDbLine
 10
108.21516
 20
160.537763
 30
0.0
 11
107.824535
 21
160.537763
 31
0.0
  0
LINE
  5
25E
100
AcDbEntity
  8
1
370
    30
  6
Continuous
 62
     7
100
AcDbLine
 10
108.37141
 20
160.706513
 30
0.0
 11
108.21516
 21
160.537763
 31
0.0
  0
LINE
  5
25F
100
AcDbEntity
  8
1
370
    30
  6
Continuous
 62
     7
100
AcDbLine
 10
108.37141
 20
160.987763
 30
0.0
 11
108.37141
 21
160.706513
 31
0.0
  0
LINE
  5
260
100
AcDbEntity
  8
1
370
    30
  6
Continuous
 62
     7
100
AcDbLine
 10
108.21516
 20
161.184638
 30
0.0
 11
108.37141
 21
160.987763
 31
0.0
  0
LINE
  5
261
100
AcDbEntity
  8
1
370
    30
  6
Continuous
 62
     7
100
AcDbLine
 10
107.84406
 20
161.297138
 30
0.0
 11
108.21516
 21
161.184638
 31
0.0
  0
LINE
  5
262
100
AcDbEntity
  8
1
370
    30
  6
Continuous
 62
     7
100
AcDbLine
 10
107.68781
 20
161.437763
 30
0.0
 11
107.84406
 21
161.297138
 31
0.0
  0
LINE
  5
263
100
AcDbEntity
  8
1
370
    30
  6
Continuous
 62
     7
100
AcDbLine
 10
107.68781
 20
161.719013
 30
0.0
 11
107.68781
 21
161.437763
 31
0.0
  0
LINE
  5
264
100
AcDbEntity
  8
1
370
    30
  6
Continuous
 62
     7
100
AcDbLine
 10
107.863585
 20
161.859638
 30
0.0
 11
107.68781
 21
161.719013
 31
0.0
  0
LINE
  5
265
100
AcDbEntity
  8
1
370
    30
  6
Continuous
 62
     7
100
AcDbLine
 10
108.117485
 20
161.859638
 30
0.0
 11
107.863585
 21
161.859638
 31
0.0
  0
LINE
  5
266
100
AcDbEntity
  8
1
370
    30
  6
Continuous
 62
     7
100
AcDbLine
 10
108.31281
 20
161.719013
 30
0.0
 11
108.117485
 21
161.859638
 31
0.0
  0
LINE
  5
267
100
AcDbEntity
  8
1
370
    30
  6
Continuous
 62
     7
100
AcDbLine
 10
106.772185
 20
160.537763
 30
0.0
 11
106.967485
 21
160.537763
 31
0.0
  0
LINE
  5
268
100
AcDbEntity
  8
1
370
    30
  6
Continuous
 62
     7
100
AcDbLine
 10
106.869835
 20
161.887763
 30
0.0
 11
106.869835
 21
160.537763
 31
0.0
  0
LINE
  5
269
100
AcDbEntity
  8
1
370
    30
  6
Continuous
 62
     7
100
AcDbLine
 10
106.772185
 20
161.887763
 30
0.0
 11
106.967485
 21
161.887763
 31
0.0
  0
LINE
  5
26A
100
AcDbEntity
  8
1
370
    30
  6
Continuous
 62
     7
100
AcDbLine
 10
105.75891
 20
160.537763
 30
0.0
 11
105.348735
 21
160.537763
 31
0.0
  0
LINE
  5
26B
100
AcDbEntity
  8
1
370
    30
  6
Continuous
 62
     7
100
AcDbLine
 10
105.973735
 20
160.706513
 30
0.0
 11
105.75891
 21
160.537763
 31
0.0
  0
LINE
  5
26C
100
AcDbEntity
  8
1
370
    30
  6
Continuous
 62
     7
100
AcDbLine
 10
106.090935
 20
160.987763
 30
0.0
 11
105.973735
 21
160.706513
 31
0.0
  0
LINE
  5
26D
100
AcDbEntity
  8
1
370
    30
  6
Continuous
 62
     7
100
AcDbLine
 10
106.090935
 20
161.381513
 30
0.0
 11
106.090935
 21
160.987763
 31
0.0
  0
LINE
  5
26E
100
AcDbEntity
  8
1
370
    30
  6
Continuous
 62
     7
100
AcDbLine
 10
105.973735
 20
161.662763
 30
0.0
 11
106.090935
 21
161.381513
 31
0.0
  0
LINE
  5
26F
100
AcDbEntity
  8
1
370
    30
  6
Continuous
 62
     7
100
AcDbLine
 10
105.75891
 20
161.831513
 30
0.0
 11
105.973735
 21
161.662763
 31
0.0
  0
LINE
  5
270
100
AcDbEntity
  8
1
370
    30
  6
Continuous
 62
     7
100
AcDbLine
 10
105.348735
 20
161.831513
 30
0.0
 11
105.75891
 21
161.831513
 31
0.0
  0
LINE
  5
271
100
AcDbEntity
  8
1
370
    30
  6
Continuous
 62
     7
100
AcDbLine
 10
105.348735
 20
160.537763
 30
0.0
 11
105.348735
 21
161.831513
 31
0.0
  0
LINE
  5
272
100
AcDbEntity
  8
1
370
    30
  6
Continuous
 62
     7
100
AcDbLine
 10
104.472185
 20
160.537763
 30
0.0
 11
104.667485
 21
160.537763
 31
0.0
  0
LINE
  5
273
100
AcDbEntity
  8
1
370
    30
  6
Continuous
 62
     7
100
AcDbLine
 10
104.569835
 20
161.887763
 30
0.0
 11
104.569835
 21
160.537763
 31
0.0
  0
LINE
  5
274
100
AcDbEntity
  8
1
370
    30
  6
Continuous
 62
     7
100
AcDbLine
 10
104.472185
 20
161.887763
 30
0.0
 11
104.667485
 21
161.887763
 31
0.0
  0
LINE
  5
275
100
AcDbEntity
  8
1
370
    30
  6
Continuous
 62
     7
100
AcDbLine
 10
103.86906
 20
161.859638
 30
0.0
 11
103.86906
 21
160.537763
 31
0.0
  0
LINE
  5
276
100
AcDbEntity
  8
1
370
    30
  6
Continuous
 62
     7
100
AcDbLine
 10
103.419835
 20
160.622138
 30
0.0
 11
103.86906
 21
161.859638
 31
0.0
  0
LINE
  5
277
100
AcDbEntity
  8
1
370
    30
  6
Continuous
 62
     7
100
AcDbLine
 10
102.97061
 20
161.859638
 30
0.0
 11
103.419835
 21
160.622138
 31
0.0
  0
LINE
  5
278
100
AcDbEntity
  8
1
370
    30
  6
Continuous
 62
     7
100
AcDbLine
 10
102.97061
 20
160.537763
 30
0.0
 11
102.97061
 21
161.859638
 31
0.0
  0
LINE
  5
279
100
AcDbEntity
  8
1
370
    30
  6
Continuous
 62
     7
100
AcDbLine
 10
102.66046
 20
161.044013
 30
0.0
 11
102.66046
 21
161.859638
 31
0.0
  0
LINE
  5
27A
100
AcDbEntity
  8
1
370
    30
  6
Continuous
 62
     7
100
AcDbLine
 10
102.56281
 20
160.706513
 30
0.0
 11
102.66046
 21
161.044013
 31
0.0
  0
LINE
  5
27B
100
AcDbEntity
  8
1
370
    30
  6
Continuous
 62
     7
100
AcDbLine
 10
102.40656
 20
160.537763
 30
0.0
 11
102.56281
 21
160.706513
 31
0.0
  0
LINE
  5
27C
100
AcDbEntity
  8
1
370
    30
  6
Continuous
 62
     7
100
AcDbLine
 10
102.172185
 20
160.537763
 30
0.0
 11
102.40656
 21
160.537763
 31
0.0
  0
LINE
  5
27D
100
AcDbEntity
  8
1
370
    30
  6
Continuous
 62
     7
100
AcDbLine
 10
102.015935
 20
160.706513
 30
0.0
 11
102.172185
 21
160.537763
 31
0.0
  0
LINE
  5
27E
100
AcDbEntity
  8
1
370
    30
  6
Continuous
 62
     7
100
AcDbLine
 10
101.918285
 20
161.044013
 30
0.0
 11
102.015935
 21
160.706513
 31
0.0
  0
LINE
  5
27F
100
AcDbEntity
  8
1
370
    30
  6
Continuous
 62
     7
100
AcDbLine
 10
101.918285
 20
161.859638
 30
0.0
 11
101.918285
 21
161.044013
 31
0.0
  0
LINE
  5
280
100
AcDbEntity
  8
1
370
    30
  6
Continuous
 62
     7
100
AcDbLine
 10
101.47141
 20
161.859638
 30
0.0
 11
101.47141
 21
160.537763
 31
0.0
  0
LINE
  5
281
100
AcDbEntity
  8
1
370
    30
  6
Continuous
 62
     7
100
AcDbLine
 10
100.748735
 20
161.212763
 30
0.0
 11
101.47141
 21
161.212763
 31
0.0
  0
LINE
  5
282
100
AcDbEntity
  8
1
370
    30
  6
Continuous
 62
     7
100
AcDbLine
 10
100.748735
 20
161.859638
 30
0.0
 11
100.748735
 21
160.537763
 31
0.0
  0
LINE
  5
283
100
AcDbEntity
  8
1
370
    30
  6
Continuous
 62
     7
100
AcDbLine
 10
108.636285
 20
153.659613
 30
0.0
 11
108.636285
 21
152.337738
 31
0.0
  0
LINE
  5
284
100
AcDbEntity
  8
1
370
    30
  6
Continuous
 62
     7
100
AcDbLine
 10
107.82691
 20
153.012738
 30
0.0
 11
108.636285
 21
153.012738
 31
0.0
  0
LINE
  5
285
100
AcDbEntity
  8
1
370
    30
  6
Continuous
 62
     7
100
AcDbLine
 10
107.82691
 20
153.659613
 30
0.0
 11
107.82691
 21
152.337738
 31
0.0
  0
LINE
  5
286
100
AcDbEntity
  8
1
370
    30
  6
Continuous
 62
     7
100
AcDbLine
 10
106.886285
 20
152.900238
 30
0.0
 11
107.280035
 21
152.337738
 31
0.0
  0
LINE
  5
287
100
AcDbEntity
  8
1
370
    30
  6
Continuous
 62
     7
100
AcDbLine
 10
106.886285
 20
152.900238
 30
0.0
 11
106.47066
 21
152.900238
 31
0.0
  0
LINE
  5
288
100
AcDbEntity
  8
1
370
    30
  6
Continuous
 62
     7
100
AcDbLine
 10
107.105035
 20
152.956488
 30
0.0
 11
106.886285
 21
152.900238
 31
0.0
  0
LINE
  5
289
100
AcDbEntity
  8
1
370
    30
  6
Continuous
 62
     7
100
AcDbLine
 10
107.25816
 20
153.153363
 30
0.0
 11
107.105035
 21
152.956488
 31
0.0
  0
LINE
  5
28A
100
AcDbEntity
  8
1
370
    30
  6
Continuous
 62
     7
100
AcDbLine
 10
107.25816
 20
153.378363
 30
0.0
 11
107.25816
 21
153.153363
 31
0.0
  0
LINE
  5
28B
100
AcDbEntity
  8
1
370
    30
  6
Continuous
 62
     7
100
AcDbLine
 10
107.105035
 20
153.575238
 30
0.0
 11
107.25816
 21
153.378363
 31
0.0
  0
LINE
  5
28C
100
AcDbEntity
  8
1
370
    30
  6
Continuous
 62
     7
100
AcDbLine
 10
106.886285
 20
153.631488
 30
0.0
 11
107.105035
 21
153.575238
 31
0.0
  0
LINE
  5
28D
100
AcDbEntity
  8
1
370
    30
  6
Continuous
 62
     7
100
AcDbLine
 10
106.47066
 20
153.631488
 30
0.0
 11
106.886285
 21
153.631488
 31
0.0
  0
LINE
  5
28E
100
AcDbEntity
  8
1
370
    30
  6
Continuous
 62
     7
100
AcDbLine
 10
106.47066
 20
152.337738
 30
0.0
 11
106.47066
 21
153.631488
 31
0.0
  0
LINE
  5
28F
100
AcDbEntity
  8
1
370
    30
  6
Continuous
 62
     7
100
AcDbLine
 10
105.880035
 20
152.618988
 30
0.0
 11
105.792535
 21
152.731488
 31
0.0
  0
LINE
  5
290
100
AcDbEntity
  8
1
370
    30
  6
Continuous
 62
     7
100
AcDbLine
 10
105.880035
 20
152.450238
 30
0.0
 11
105.880035
 21
152.618988
 31
0.0
  0
LINE
  5
291
100
AcDbEntity
  8
1
370
    30
  6
Continuous
 62
     7
100
AcDbLine
 10
105.792535
 20
152.337738
 30
0.0
 11
105.880035
 21
152.450238
 31
0.0
  0
LINE
  5
292
100
AcDbEntity
  8
1
370
    30
  6
Continuous
 62
     7
100
AcDbLine
 10
105.661285
 20
152.337738
 30
0.0
 11
105.792535
 21
152.337738
 31
0.0
  0
LINE
  5
293
100
AcDbEntity
  8
1
370
    30
  6
Continuous
 62
     7
100
AcDbLine
 10
105.573785
 20
152.450238
 30
0.0
 11
105.661285
 21
152.337738
 31
0.0
  0
LINE
  5
294
100
AcDbEntity
  8
1
370
    30
  6
Continuous
 62
     7
100
AcDbLine
 10
105.573785
 20
152.618988
 30
0.0
 11
105.573785
 21
152.450238
 31
0.0
  0
LINE
  5
295
100
AcDbEntity
  8
1
370
    30
  6
Continuous
 62
     7
100
AcDbLine
 10
105.661285
 20
152.731488
 30
0.0
 11
105.573785
 21
152.618988
 31
0.0
  0
LINE
  5
296
100
AcDbEntity
  8
1
370
    30
  6
Continuous
 62
     7
100
AcDbLine
 10
105.792535
 20
152.731488
 30
0.0
 11
105.661285
 21
152.731488
 31
0.0
  0
LINE
  5
297
100
AcDbEntity
  8
1
370
    30
  6
Continuous
 62
     7
100
AcDbLine
 10
104.961285
 20
152.281488
 30
0.0
 11
105.94566
 21
153.603363
 31
0.0
  0
LINE
  5
298
100
AcDbEntity
  8
1
370
    30
  6
Continuous
 62
     7
100
AcDbLine
 10
105.33316
 20
153.434613
 30
0.0
 11
105.24566
 21
153.547113
 31
0.0
  0
LINE
  5
299
100
AcDbEntity
  8
1
370
    30
  6
Continuous
 62
     7
100
AcDbLine
 10
105.33316
 20
153.265863
 30
0.0
 11
105.33316
 21
153.434613
 31
0.0
  0
LINE
  5
29A
100
AcDbEntity
  8
1
370
    30
  6
Continuous
 62
     7
100
AcDbLine
 10
105.24566
 20
153.153363
 30
0.0
 11
105.33316
 21
153.265863
 31
0.0
  0
LINE
  5
29B
100
AcDbEntity
  8
1
370
    30
  6
Continuous
 62
     7
100
AcDbLine
 10
105.11441
 20
153.153363
 30
0.0
 11
105.24566
 21
153.153363
 31
0.0
  0
LINE
  5
29C
100
AcDbEntity
  8
1
370
    30
  6
Continuous
 62
     7
100
AcDbLine
 10
105.02691
 20
153.265863
 30
0.0
 11
105.11441
 21
153.153363
 31
0.0
  0
LINE
  5
29D
100
AcDbEntity
  8
1
370
    30
  6
Continuous
 62
     7
100
AcDbLine
 10
105.02691
 20
153.434613
 30
0.0
 11
105.02691
 21
153.265863
 31
0.0
  0
LINE
  5
29E
100
AcDbEntity
  8
1
370
    30
  6
Continuous
 62
     7
100
AcDbLine
 10
105.11441
 20
153.547113
 30
0.0
 11
105.02691
 21
153.434613
 31
0.0
  0
LINE
  5
29F
100
AcDbEntity
  8
1
370
    30
  6
Continuous
 62
     7
100
AcDbLine
 10
105.24566
 20
153.547113
 30
0.0
 11
105.11441
 21
153.547113
 31
0.0
  0
LINE
  5
2A0
100
AcDbEntity
  8
1
370
    30
  6
Continuous
 62
     7
100
AcDbLine
 10
92.26441
 20
159.828363
 30
0.0
 11
120.26441
 21
159.828363
 31
0.0
  0
LINE
  5
2A1
100
AcDbEntity
  8
1
370
    30
  6
Continuous
 62
     7
100
AcDbLine
 10
89.401435
 20
116.828363
 30
0.0
 11
106.26441
 21
116.828363
 31
0.0
  0
LINE
  5
2A2
100
AcDbEntity
  8
1
370
    30
  6
Continuous
 62
     7
100
AcDbLine
 10
123.127385
 20
116.828363
 30
0.0
 11
106.26441
 21
116.828363
 31
0.0
  0
LINE
  5
2A3
100
AcDbEntity
  8
1
370
    30
  6
Continuous
 62
     7
100
AcDbLine
 10
90.26441
 20
240.828363
 30
0.0
 11
90.26441
 21
238.328363
 31
0.0
  0
LINE
  5
2A4
100
AcDbEntity
  8
1
370
    30
  6
Continuous
 62
     7
100
AcDbLine
 10
87.19296
 20
238.828363
 30
0.0
 11
89.064385
 21
238.828363
 31
0.0
  0
LINE
  5
2A5
100
AcDbEntity
  8
1
370
    30
  6
Continuous
 62
     7
100
AcDbLine
 10
87.085835
 20
235.828363
 30
0.0
 11
87.21276
 21
239.381913
 31
0.0
  0
ARC
  5
2A6
100
AcDbEntity
  8
1
370
    30
  6
Continuous
 62
     7
100
AcDbCircle
 10
88.711785
 20
239.328363
 30
0.0
 40
1.500001
100
AcDbArc
 50
155.89983
 51
177.95473
  0
LINE
  5
2A7
100
AcDbEntity
  8
1
370
    30
  6
Continuous
 62
     7
100
AcDbLine
 10
125.442985
 20
235.828363
 30
0.0
 11
125.31606
 21
239.381913
 31
0.0
  0
ARC
  5
2A8
100
AcDbEntity
  8
1
370
    30
  6
Continuous
 62
     7
100
AcDbCircle
 10
123.81701
 20
239.328363
 30
0.0
 40
1.500006
100
AcDbArc
 50
2.045886
 51
24.100886
  0
ARC
  5
2A9
100
AcDbEntity
  8
1
370
    30
  6
Continuous
 62
     7
100
AcDbCircle
 10
134.71181
 20
239.328338
 30
0.0
 40
1.5
100
AcDbArc
 50
90.0
 51
177.9532
  0
LINE
  5
2AA
100
AcDbEntity
  8
1
370
    30
  6
Continuous
 62
     7
100
AcDbLine
 10
90.064385
 20
238.328363
 30
0.0
 11
103.364385
 21
238.328363
 31
0.0
  0
LINE
  5
2AB
100
AcDbEntity
  8
1
370
    30
  6
Continuous
 62
     7
100
AcDbLine
 10
109.164385
 20
238.328363
 30
0.0
 11
122.464385
 21
238.328363
 31
0.0
  0
LINE
  5
2AC
100
AcDbEntity
  8
1
370
    30
  6
Continuous
 62
     7
100
AcDbLine
 10
96.76441
 20
240.828363
 30
0.0
 11
96.76441
 21
238.328363
 31
0.0
  0
LINE
  5
2AD
100
AcDbEntity
  8
1
370
    30
  6
Continuous
 62
     7
100
AcDbLine
 10
116.26441
 20
240.828363
 30
0.0
 11
116.26441
 21
238.328363
 31
0.0
  0
LINE
  5
2AE
100
AcDbEntity
  8
1
370
    30
  6
Continuous
 62
     7
100
AcDbLine
 10
133.212735
 20
239.381888
 30
0.0
 11
133.08581
 21
235.828363
 31
0.0
  0
LINE
  5
2AF
100
AcDbEntity
  8
1
370
    30
  6
Continuous
 62
     7
100
AcDbLine
 10
72.76441
 20
240.828363
 30
0.0
 11
74.76441
 21
238.828363
 31
0.0
  0
LINE
  5
2B0
100
AcDbEntity
  8
1
370
    30
  6
Continuous
 62
     7
100
AcDbLine
 10
79.44296
 20
235.828363
 30
0.0
 11
79.316035
 21
239.381913
 31
0.0
  0
ARC
  5
2B1
100
AcDbEntity
  8
1
370
    30
  6
Continuous
 62
     7
100
AcDbCircle
 10
77.81701
 20
239.328363
 30
0.0
 40
1.500006
100
AcDbArc
 50
2.045886
 51
90.000986
  0
LINE
  5
2B2
100
AcDbEntity
  8
1
370
    30
  6
Continuous
 62
     7
100
AcDbLine
 10
74.76441
 20
238.828363
 30
0.0
 11
79.33581
 21
238.828363
 31
0.0
  0
LINE
  5
2B3
100
AcDbEntity
  8
1
370
    30
  6
Continuous
 62
     7
100
AcDbLine
 10
132.76441
 20
56.828388
 30
0.0
 11
132.76441
 21
51.828388
 31
0.0
  0
LINE
  5
2B4
100
AcDbEntity
  8
1
370
    30
  6
Continuous
 62
     7
100
AcDbLine
 10
90.01441
 20
55.828388
 30
0.0
 11
125.76441
 21
55.828388
 31
0.0
  0
LINE
  5
2B5
100
AcDbEntity
  8
1
370
    30
  6
Continuous
 62
     7
100
AcDbLine
 10
116.26441
 20
51.828388
 30
0.0
 11
116.26441
 21
55.828388
 31
0.0
  0
LINE
  5
2B6
100
AcDbEntity
  8
1
370
    30
  6
Continuous
 62
     7
100
AcDbLine
 10
121.51441
 20
56.828388
 30
0.0
 11
121.51441
 21
55.828388
 31
0.0
  0
LINE
  5
2B7
100
AcDbEntity
  8
1
370
    30
  6
Continuous
 62
     7
100
AcDbLine
 10
122.51441
 20
56.828388
 30
0.0
 11
122.51441
 21
55.828388
 31
0.0
  0
LINE
  5
2B8
100
AcDbEntity
  8
1
370
    30
  6
Continuous
 62
     7
100
AcDbLine
 10
125.76441
 20
56.828388
 30
0.0
 11
125.76441
 21
51.828388
 31
0.0
  0
LINE
  5
2B9
100
AcDbEntity
  8
1
370
    30
  6
Continuous
 62
     7
100
AcDbLine
 10
90.26441
 20
55.828388
 30
0.0
 11
90.26441
 21
53.828388
 31
0.0
  0
LINE
  5
2BA
100
AcDbEntity
  8
1
370
    30
  6
Continuous
 62
     7
100
AcDbLine
 10
91.01441
 20
56.828388
 30
0.0
 11
91.01441
 21
55.828388
 31
0.0
  0
LINE
  5
2BB
100
AcDbEntity
  8
1
370
    30
  6
Continuous
 62
     7
100
AcDbLine
 10
90.01441
 20
56.828388
 30
0.0
 11
90.01441
 21
55.828388
 31
0.0
  0
LINE
  5
2BC
100
AcDbEntity
  8
1
370
    30
  6
Continuous
 62
     7
100
AcDbLine
 10
72.76441
 20
51.828388
 30
0.0
 11
74.76441
 21
53.828388
 31
0.0
  0
LINE
  5
2BD
100
AcDbEntity
  8
1
370
    30
  6
Continuous
 62
     7
100
AcDbLine
 10
96.76441
 20
51.828388
 30
0.0
 11
96.76441
 21
55.828388
 31
0.0
  0
LINE
  5
2BE
100
AcDbEntity
  8
1
370
    30
  6
Continuous
 62
     7
100
AcDbLine
 10
86.76441
 20
53.828388
 30
0.0
 11
93.76441
 21
53.828388
 31
0.0
  0
LINE
  5
2BF
100
AcDbEntity
  8
1
370
    30
  6
Continuous
 62
     7
100
AcDbLine
 10
79.76441
 20
53.828388
 30
0.0
 11
74.76441
 21
53.828388
 31
0.0
  0
LINE
  5
2C0
100
AcDbEntity
  8
1
370
    30
  6
Continuous
 62
     7
100
AcDbLine
 10
86.76441
 20
56.828388
 30
0.0
 11
86.76441
 21
53.828388
 31
0.0
  0
LINE
  5
2C1
100
AcDbEntity
  8
1
370
    30
  6
Continuous
 62
     7
100
AcDbLine
 10
79.76441
 20
56.828388
 30
0.0
 11
79.76441
 21
53.828388
 31
0.0
  0
LINE
  5
2C2
100
AcDbEntity
  8
1
370
    30
  6
Continuous
 62
     7
100
AcDbLine
 10
93.76441
 20
53.828388
 30
0.0
 11
93.76441
 21
51.828388
 31
0.0
  0
LINE
  5
2C3
100
AcDbEntity
  8
1
370
    30
  6
Continuous
 62
     7
100
AcDbLine
 10
109.76441
 20
56.328388
 30
0.0
 11
102.76441
 21
56.328388
 31
0.0
  0
LINE
  5
2C4
100
AcDbEntity
  8
1
370
    30
  6
Continuous
 62
     7
100
AcDbLine
 10
109.76441
 20
55.828388
 30
0.0
 11
109.76441
 21
56.328388
 31
0.0
  0
LINE
  5
2C5
100
AcDbEntity
  8
1
370
    30
  6
Continuous
 62
     7
100
AcDbLine
 10
107.01441
 20
56.828388
 30
0.0
 11
107.76441
 21
56.328388
 31
0.0
  0
LINE
  5
2C6
100
AcDbEntity
  8
1
370
    30
  6
Continuous
 62
     7
100
AcDbLine
 10
102.76441
 20
55.828388
 30
0.0
 11
102.76441
 21
56.328388
 31
0.0
  0
LINE
  5
2C7
100
AcDbEntity
  8
1
370
    30
  6
Continuous
 62
     7
100
AcDbLine
 10
104.76441
 20
56.328388
 30
0.0
 11
105.51441
 21
56.828388
 31
0.0
  0
LINE
  5
2C8
100
AcDbEntity
  8
1
370
    30
  6
Continuous
 62
     7
100
AcDbLine
 10
109.164385
 20
240.828363
 30
0.0
 11
109.164385
 21
235.828363
 31
0.0
  0
CIRCLE
  5
2C9
100
AcDbEntity
  8
1
370
    30
  6
Continuous
 62
     7
100
AcDbCircle
 10
106.26441
 20
238.328363
 30
0.0
 40
1.0
  0
LINE
  5
2CA
100
AcDbEntity
  8
1
370
    30
  6
Continuous
 62
     7
100
AcDbLine
 10
103.36441
 20
240.828363
 30
0.0
 11
103.36441
 21
235.828363
 31
0.0
  0
LINE
  5
2CB
100
AcDbEntity
  8
1
370
    30
  6
Continuous
 62
     7
100
AcDbLine
 10
67.01441
 20
248.828488
 30
0.0
 11
145.51436
 21
248.828488
 31
0.0
  0
LINE
  5
2CC
100
AcDbEntity
  8
1
370
    30
  6
Continuous
 62
     7
100
AcDbLine
 10
66.26441
 20
254.828488
 30
0.0
 11
146.26436
 21
254.828488
 31
0.0
  0
LINE
  5
2CD
100
AcDbEntity
  8
1
370
    30
  6
Continuous
 62
     7
100
AcDbLine
 10
66.26441
 20
255.828488
 30
0.0
 11
146.26436
 21
255.828488
 31
0.0
  0
LINE
  5
2CE
100
AcDbEntity
  8
1
370
    30
  6
Continuous
 62
     7
100
AcDbLine
 10
67.01441
 20
248.828488
 30
0.0
 11
66.26441
 21
254.828488
 31
0.0
  0
LINE
  5
2CF
100
AcDbEntity
  8
1
370
    30
  6
Continuous
 62
     7
100
AcDbLine
 10
67.76441
 20
240.828363
 30
0.0
 11
67.01441
 21
248.828488
 31
0.0
  0
LINE
  5
2D0
100
AcDbEntity
  8
1
370
    30
  6
Continuous
 62
     7
100
AcDbLine
 10
66.26441
 20
254.828488
 30
0.0
 11
66.26441
 21
255.828488
 31
0.0
  0
LINE
  5
2D1
100
AcDbEntity
  8
1
370
    30
  6
Continuous
 62
     7
100
AcDbLine
 10
145.51436
 20
248.828488
 30
0.0
 11
146.26436
 21
254.828488
 31
0.0
  0
LINE
  5
2D2
100
AcDbEntity
  8
1
370
    30
  6
Continuous
 62
     7
100
AcDbLine
 10
144.76436
 20
240.828363
 30
0.0
 11
145.51436
 21
248.828488
 31
0.0
  0
LINE
  5
2D3
100
AcDbEntity
  8
1
370
    30
  6
Continuous
 62
     7
100
AcDbLine
 10
67.76441
 20
240.828363
 30
0.0
 11
144.76436
 21
240.828363
 31
0.0
  0
LINE
  5
2D4
100
AcDbEntity
  8
1
370
    30
  6
Continuous
 62
     7
100
AcDbLine
 10
146.26436
 20
255.828488
 30
0.0
 11
146.26436
 21
254.828488
 31
0.0
  0
LINE
  5
2D5
100
AcDbEntity
  8
1
370
    30
  6
Continuous
 62
     7
100
AcDbLine
 10
66.26441
 20
37.828388
 30
0.0
 11
146.26436
 21
37.828388
 31
0.0
  0
LINE
  5
2D6
100
AcDbEntity
  8
1
370
    30
  6
Continuous
 62
     7
100
AcDbLine
 10
67.01441
 20
43.828388
 30
0.0
 11
145.51436
 21
43.828388
 31
0.0
  0
LINE
  5
2D7
100
AcDbEntity
  8
1
370
    30
  6
Continuous
 62
     7
100
AcDbLine
 10
67.01441
 20
43.828388
 30
0.0
 11
66.26441
 21
37.828388
 31
0.0
  0
LINE
  5
2D8
100
AcDbEntity
  8
1
370
    30
  6
Continuous
 62
     7
100
AcDbLine
 10
67.76441
 20
51.828388
 30
0.0
 11
67.01441
 21
43.828388
 31
0.0
  0
LINE
  5
2D9
100
AcDbEntity
  8
1
370
    30
  6
Continuous
 62
     7
100
AcDbLine
 10
66.26441
 20
37.828388
 30
0.0
 11
66.26441
 21
36.828388
 31
0.0
  0
LINE
  5
2DA
100
AcDbEntity
  8
1
370
    30
  6
Continuous
 62
     7
100
AcDbLine
 10
145.51436
 20
43.828388
 30
0.0
 11
146.26436
 21
37.828388
 31
0.0
  0
LINE
  5
2DB
100
AcDbEntity
  8
1
370
    30
  6
Continuous
 62
     7
100
AcDbLine
 10
146.26436
 20
36.828388
 30
0.0
 11
146.26436
 21
37.828388
 31
0.0
  0
LINE
  5
2DC
100
AcDbEntity
  8
1
370
    30
  6
Continuous
 62
     7
100
AcDbLine
 10
144.76436
 20
51.828388
 30
0.0
 11
145.51436
 21
43.828388
 31
0.0
  0
LINE
  5
2DD
100
AcDbEntity
  8
1
370
    30
  6
Continuous
 62
     7
100
AcDbLine
 10
67.76441
 20
51.828388
 30
0.0
 11
144.76436
 21
51.828388
 31
0.0
  0
LINE
  5
2DE
100
AcDbEntity
  8
1
370
    30
  6
Continuous
 62
     7
100
AcDbLine
 10
66.26441
 20
36.828388
 30
0.0
 11
146.26436
 21
36.828388
 31
0.0
  0
ARC
  5
2DF
100
AcDbEntity
  8
1
370
    30
  6
Continuous
 62
     7
100
AcDbCircle
 10
72.76441
 20
182.328363
 30
0.0
 40
5.0
100
AcDbArc
 50
90.0
 51
180.0
  0
ARC
  5
2E0
100
AcDbEntity
  8
1
370
    30
  6
Continuous
 62
     7
100
AcDbCircle
 10
72.01441
 20
183.078363
 30
0.0
 40
5.0
100
AcDbArc
 50
90.0
 51
180.0
  0
ARC
  5
2E1
100
AcDbEntity
  8
1
370
    30
  6
Continuous
 62
     7
100
AcDbCircle
 10
140.51436
 20
183.078363
 30
0.0
 40
5.0
100
AcDbArc
 50
0.0
 51
90.0
  0
ARC
  5
2E2
100
AcDbEntity
  8
1
370
    30
  6
Continuous
 62
     7
100
AcDbCircle
 10
139.76436
 20
182.328363
 30
0.0
 40
5.0
100
AcDbArc
 50
0.0
 51
90.0
  0
LINE
  5
2E3
100
AcDbEntity
  8
1
370
    30
  6
Continuous
 62
     7
100
AcDbLine
 10
72.76441
 20
187.328363
 30
0.0
 11
139.76436
 21
187.328363
 31
0.0
  0
LINE
  5
2E4
100
AcDbEntity
  8
1
370
    30
  6
Continuous
 62
     7
100
AcDbLine
 10
72.01441
 20
188.078363
 30
0.0
 11
140.51436
 21
188.078363
 31
0.0
  0
LINE
  5
2E5
100
AcDbEntity
  8
1
370
    30
  6
Continuous
 62
     7
100
AcDbLine
 10
146.26436
 20
188.828363
 30
0.0
 11
146.26436
 21
108.828363
 31
0.0
  0
LINE
  5
2E6
100
AcDbEntity
  8
1
370
    30
  6
Continuous
 62
     7
100
AcDbLine
 10
144.76436
 20
182.328363
 30
0.0
 11
144.76436
 21
115.328363
 31
0.0
  0
LINE
  5
2E7
100
AcDbEntity
  8
1
370
    30
  6
Continuous
 62
     7
100
AcDbLine
 10
145.51436
 20
183.078363
 30
0.0
 11
145.51436
 21
114.578363
 31
0.0
  0
ARC
  5
2E8
100
AcDbEntity
  8
1
370
    30
  6
Continuous
 62
     7
100
AcDbCircle
 10
140.51436
 20
114.578363
 30
0.0
 40
5.0
100
AcDbArc
 50
-90.0
 51
0.0
  0
ARC
  5
2E9
100
AcDbEntity
  8
1
370
    30
  6
Continuous
 62
     7
100
AcDbCircle
 10
139.76436
 20
115.328363
 30
0.0
 40
5.0
100
AcDbArc
 50
-90.0
 51
0.0
  0
LINE
  5
2EA
100
AcDbEntity
  8
1
370
    30
  6
Continuous
 62
     7
100
AcDbLine
 10
139.76436
 20
110.328363
 30
0.0
 11
72.764385
 21
110.328363
 31
0.0
  0
LINE
  5
2EB
100
AcDbEntity
  8
1
370
    30
  6
Continuous
 62
     7
100
AcDbLine
 10
140.51436
 20
109.578363
 30
0.0
 11
72.014385
 21
109.578363
 31
0.0
  0
ARC
  5
2EC
100
AcDbEntity
  8
1
370
    30
  6
Continuous
 62
     7
100
AcDbCircle
 10
72.01441
 20
114.578363
 30
0.0
 40
5.0
100
AcDbArc
 50
180.0
 51
-89.9999
  0
LINE
  5
2ED
100
AcDbEntity
  8
1
370
    30
  6
Continuous
 62
     7
100
AcDbLine
 10
66.26441
 20
188.828363
 30
0.0
 11
66.26441
 21
108.828363
 31
0.0
  0
ARC
  5
2EE
100
AcDbEntity
  8
1
370
    30
  6
Continuous
 62
     7
100
AcDbCircle
 10
72.76441
 20
115.328363
 30
0.0
 40
5.0
100
AcDbArc
 50
180.0
 51
-89.9999
  0
LINE
  5
2EF
100
AcDbEntity
  8
1
370
    30
  6
Continuous
 62
     7
100
AcDbLine
 10
67.76441
 20
182.328363
 30
0.0
 11
67.76441
 21
115.328363
 31
0.0
  0
LINE
  5
2F0
100
AcDbEntity
  8
1
370
    30
  6
Continuous
 62
     7
100
AcDbLine
 10
67.01441
 20
183.078363
 30
0.0
 11
67.01441
 21
114.578363
 31
0.0
  0
ARC
  5
2F1
100
AcDbEntity
  8
1
370
    30
  6
Continuous
 62
     7
100
AcDbCircle
 10
71.26441
 20
188.828363
 30
0.0
 40
5.0
100
AcDbArc
 50
90.0
 51
180.0
  0
ARC
  5
2F2
100
AcDbEntity
  8
1
370
    30
  6
Continuous
 62
     7
100
AcDbCircle
 10
141.26436
 20
188.828363
 30
0.0
 40
5.0
100
AcDbArc
 50
0.0
 51
90.0
  0
LINE
  5
2F3
100
AcDbEntity
  8
1
370
    30
  6
Continuous
 62
     7
100
AcDbLine
 10
71.26441
 20
193.828363
 30
0.0
 11
141.26436
 21
193.828363
 31
0.0
  0
ARC
  5
2F4
100
AcDbEntity
  8
1
370
    30
  6
Continuous
 62
     7
100
AcDbCircle
 10
141.26436
 20
108.828363
 30
0.0
 40
5.0
100
AcDbArc
 50
-90.0
 51
0.0
  0
LINE
  5
2F5
100
AcDbEntity
  8
1
370
    30
  6
Continuous
 62
     7
100
AcDbLine
 10
141.26436
 20
103.828363
 30
0.0
 11
71.264385
 21
103.828363
 31
0.0
  0
ARC
  5
2F6
100
AcDbEntity
  8
1
370
    30
  6
Continuous
 62
     7
100
AcDbCircle
 10
71.26441
 20
108.828363
 30
0.0
 40
5.0
100
AcDbArc
 50
180.0
 51
-89.9999
  0
LINE
  5
2F7
100
AcDbEntity
  8
1
370
    30
  6
Continuous
 62
     7
100
AcDbLine
 10
126.62826
 20
118.996088
 30
0.0
 11
126.183435
 21
119.282912
 31
0.0
  0
LINE
  5
2F8
100
AcDbEntity
  8
1
370
    30
  6
Continuous
 62
     7
100
AcDbLine
 10
86.345335
 20
119.282888
 30
0.0
 11
106.26441
 21
119.282888
 31
0.0
  0
LINE
  5
2F9
100
AcDbEntity
  8
1
370
    30
  6
Continuous
 62
     7
100
AcDbLine
 10
85.90051
 20
118.996088
 30
0.0
 11
86.345335
 21
119.282912
 31
0.0
  0
LINE
  5
2FA
100
AcDbEntity
  8
1
370
    30
  6
Continuous
 62
     7
100
AcDbLine
 10
120.26441
 20
68.328388
 30
0.0
 11
122.064385
 21
67.428387
 31
0.0
  0
LINE
  5
2FB
100
AcDbEntity
  8
1
370
    30
  6
Continuous
 62
     7
100
AcDbLine
 10
122.26441
 20
73.828388
 30
0.0
 11
122.26441
 21
67.828388
 31
0.0
  0
LINE
  5
2FC
100
AcDbEntity
  8
1
370
    30
  6
Continuous
 62
     7
100
AcDbLine
 10
90.76441
 20
67.328388
 30
0.0
 11
121.76441
 21
67.328388
 31
0.0
  0
ARC
  5
2FD
100
AcDbEntity
  8
1
370
    30
  6
Continuous
 62
     7
100
AcDbCircle
 10
121.76441
 20
67.828388
 30
0.0
 40
0.500025
100
AcDbArc
 50
-90.0
 51
-0.0048
  0
LINE
  5
2FE
100
AcDbEntity
  8
1
370
    30
  6
Continuous
 62
     7
100
AcDbLine
 10
90.76441
 20
74.328388
 30
0.0
 11
121.76441
 21
74.328388
 31
0.0
  0
LINE
  5
2FF
100
AcDbEntity
  8
1
370
    30
  6
Continuous
 62
     7
100
AcDbLine
 10
120.26441
 20
73.328388
 30
0.0
 11
92.26441
 21
73.328388
 31
0.0
  0
ARC
  5
300
100
AcDbEntity
  8
1
370
    30
  6
Continuous
 62
     7
100
AcDbCircle
 10
121.76441
 20
73.828362
 30
0.0
 40
0.5
100
AcDbArc
 50
0.0
 51
89.9987
  0
LINE
  5
301
100
AcDbEntity
  8
1
370
    30
  6
Continuous
 62
     7
100
AcDbLine
 10
120.26441
 20
73.328388
 30
0.0
 11
120.26441
 21
68.328388
 31
0.0
  0
LINE
  5
302
100
AcDbEntity
  8
1
370
    30
  6
Continuous
 62
     7
100
AcDbLine
 10
120.26441
 20
73.328388
 30
0.0
 11
122.064385
 21
74.228388
 31
0.0
  0
LINE
  5
303
100
AcDbEntity
  8
1
370
    30
  6
Continuous
 62
     7
100
AcDbLine
 10
92.26441
 20
68.328388
 30
0.0
 11
92.26441
 21
73.328388
 31
0.0
  0
LINE
  5
304
100
AcDbEntity
  8
1
370
    30
  6
Continuous
 62
     7
100
AcDbLine
 10
90.26441
 20
73.828388
 30
0.0
 11
90.26441
 21
67.828388
 31
0.0
  0
LINE
  5
305
100
AcDbEntity
  8
1
370
    30
  6
Continuous
 62
     7
100
AcDbLine
 10
90.46441
 20
74.228388
 30
0.0
 11
92.26441
 21
73.328388
 31
0.0
  0
ARC
  5
306
100
AcDbEntity
  8
1
370
    30
  6
Continuous
 62
     7
100
AcDbCircle
 10
90.76441
 20
73.828362
 30
0.0
 40
0.5
100
AcDbArc
 50
90.002865
 51
-179.998435
  0
LINE
  5
307
100
AcDbEntity
  8
1
370
    30
  6
Continuous
 62
     7
100
AcDbLine
 10
92.26441
 20
68.328388
 30
0.0
 11
90.46441
 21
67.428387
 31
0.0
  0
ARC
  5
308
100
AcDbEntity
  8
1
370
    30
  6
Continuous
 62
     7
100
AcDbCircle
 10
90.76441
 20
67.828388
 30
0.0
 40
0.500025
100
AcDbArc
 50
-179.997135
 51
-90.001935
  0
LINE
  5
309
100
AcDbEntity
  8
1
370
    30
  6
Continuous
 62
     7
100
AcDbLine
 10
120.26441
 20
68.328388
 30
0.0
 11
92.26441
 21
68.328388
 31
0.0
  0
LINE
  5
30A
100
AcDbEntity
  8
1
370
    30
  6
Continuous
 62
     7
100
AcDbLine
 10
68.26441
 20
56.828388
 30
0.0
 11
144.26436
 21
56.828388
 31
0.0
  0
LINE
  5
30B
100
AcDbEntity
  8
1
370
    30
  6
Continuous
 62
     7
100
AcDbLine
 10
144.26436
 20
60.828388
 30
0.0
 11
144.26436
 21
56.828388
 31
0.0
  0
LINE
  5
30C
100
AcDbEntity
  8
1
370
    30
  6
Continuous
 62
     7
100
AcDbLine
 10
140.26436
 20
76.328388
 30
0.0
 11
144.26436
 21
60.828388
 31
0.0
  0
LINE
  5
30D
100
AcDbEntity
  8
1
370
    30
  6
Continuous
 62
     7
100
AcDbLine
 10
68.26441
 20
60.828388
 30
0.0
 11
68.26441
 21
56.828388
 31
0.0
  0
LINE
  5
30E
100
AcDbEntity
  8
1
370
    30
  6
Continuous
 62
     7
100
AcDbLine
 10
68.26441
 20
60.828388
 30
0.0
 11
144.26436
 21
60.828388
 31
0.0
  0
LINE
  5
30F
100
AcDbEntity
  8
1
370
    30
  6
Continuous
 62
     7
100
AcDbLine
 10
72.26441
 20
76.328388
 30
0.0
 11
140.26436
 21
76.328388
 31
0.0
  0
LINE
  5
310
100
AcDbEntity
  8
1
370
    30
  6
Continuous
 62
     7
100
AcDbLine
 10
72.26441
 20
76.328388
 30
0.0
 11
68.26441
 21
60.828388
 31
0.0
  0
LINE
  5
311
100
AcDbEntity
  8
1
370
    30
  6
Continuous
 62
     7
100
AcDbLine
 10
68.26441
 20
231.828363
 30
0.0
 11
144.26436
 21
231.828363
 31
0.0
  0
LINE
  5
312
100
AcDbEntity
  8
1
370
    30
  6
Continuous
 62
     7
100
AcDbLine
 10
68.26441
 20
235.828363
 30
0.0
 11
144.26436
 21
235.828363
 31
0.0
  0
LINE
  5
313
100
AcDbEntity
  8
1
370
    30
  6
Continuous
 62
     7
100
AcDbLine
 10
140.26436
 20
216.328363
 30
0.0
 11
144.26436
 21
231.828363
 31
0.0
  0
LINE
  5
314
100
AcDbEntity
  8
1
370
    30
  6
Continuous
 62
     7
100
AcDbLine
 10
144.26436
 20
231.828363
 30
0.0
 11
144.26436
 21
235.828363
 31
0.0
  0
LINE
  5
315
100
AcDbEntity
  8
1
370
    30
  6
Continuous
 62
     7
100
AcDbLine
 10
72.26441
 20
216.328363
 30
0.0
 11
140.26436
 21
216.328363
 31
0.0
  0
LINE
  5
316
100
AcDbEntity
  8
1
370
    30
  6
Continuous
 62
     7
100
AcDbLine
 10
72.26441
 20
216.328363
 30
0.0
 11
68.26441
 21
231.828363
 31
0.0
  0
LINE
  5
317
100
AcDbEntity
  8
1
370
    30
  6
Continuous
 62
     7
100
AcDbLine
 10
68.26441
 20
231.828363
 30
0.0
 11
68.26441
 21
235.828363
 31
0.0
  0
LINE
  5
318
100
AcDbEntity
  8
1
370
    30
  6
Continuous
 62
     7
100
AcDbLine
 10
106.26441
 20
119.828363
 30
0.0
 11
79.76441
 21
119.828363
 31
0.0
  0
LINE
  5
319
100
AcDbEntity
  8
1
370
    30
  6
Continuous
 62
     7
100
AcDbLine
 10
106.26441
 20
119.828363
 30
0.0
 11
132.76436
 21
119.828363
 31
0.0
  0
LINE
  5
31A
100
AcDbEntity
  8
1
370
    30
  6
Continuous
 62
     7
100
AcDbLine
 10
126.183435
 20
119.282888
 30
0.0
 11
106.26436
 21
119.282888
 31
0.0
  0
LINE
  5
31B
100
AcDbEntity
  8
1
370
    30
  6
Continuous
 62
     7
100
AcDbLine
 10
85.90051
 20
118.996088
 30
0.0
 11
89.401435
 21
116.828363
 31
0.0
  0
LINE
  5
31C
100
AcDbEntity
  8
1
370
    30
  6
Continuous
 62
     7
100
AcDbLine
 10
126.62826
 20
118.996088
 30
0.0
 11
123.127335
 21
116.828363
 31
0.0
  0
LINE
  5
31D
100
AcDbEntity
  8
1
370
    30
  6
Continuous
 62
     7
100
AcDbLine
 10
120.26441
 20
162.328363
 30
0.0
 11
120.26441
 21
152.328363
 31
0.0
  0
ARC
  5
31E
100
AcDbEntity
  8
1
370
    30
  6
Continuous
 62
     7
100
AcDbCircle
 10
119.764335
 20
152.328363
 30
0.0
 40
0.5
100
AcDbArc
 50
-89.997135
 51
0.001165
  0
LINE
  5
31F
100
AcDbEntity
  8
1
370
    30
  6
Continuous
 62
     7
100
AcDbLine
 10
119.76441
 20
151.828363
 30
0.0
 11
106.26441
 21
151.828363
 31
0.0
  0
LINE
  5
320
100
AcDbEntity
  8
1
370
    30
  6
Continuous
 62
     7
100
AcDbLine
 10
92.26441
 20
162.328363
 30
0.0
 11
92.26441
 21
152.328363
 31
0.0
  0
ARC
  5
321
100
AcDbEntity
  8
1
370
    30
  6
Continuous
 62
     7
100
AcDbCircle
 10
92.76441
 20
152.328363
 30
0.0
 40
0.500025
100
AcDbArc
 50
180.0
 51
-90.0017
  0
LINE
  5
322
100
AcDbEntity
  8
1
370
    30
  6
Continuous
 62
     7
100
AcDbLine
 10
92.76441
 20
151.828363
 30
0.0
 11
106.26441
 21
151.828363
 31
0.0
  0
LINE
  5
323
100
AcDbEntity
  8
1
370
    30
  6
Continuous
 62
     7
100
AcDbLine
 10
92.76441
 20
162.828363
 30
0.0
 11
106.26441
 21
162.828363
 31
0.0
  0
ARC
  5
324
100
AcDbEntity
  8
1
370
    30
  6
Continuous
 62
     7
100
AcDbCircle
 10
92.76441
 20
162.328363
 30
0.0
 40
0.5
100
AcDbArc
 50
90.002865
 51
-179.998835
  0
LINE
  5
325
100
AcDbEntity
  8
1
370
    30
  6
Continuous
 62
     7
100
AcDbLine
 10
119.76441
 20
162.828363
 30
0.0
 11
106.26441
 21
162.828363
 31
0.0
  0
ARC
  5
326
100
AcDbEntity
  8
1
370
    30
  6
Continuous
 62
     7
100
AcDbCircle
 10
119.764335
 20
162.328363
 30
0.0
 40
0.500025
100
AcDbArc
 50
0.0
 51
89.9983
  0
LINE
  5
327
100
AcDbEntity
  8
1
370
    30
  6
Continuous
 62
     7
100
AcDbLine
 10
144.26436
 20
181.828363
 30
0.0
 11
144.26436
 21
115.828363
 31
0.0
  0
ARC
  5
328
100
AcDbEntity
  8
1
370
    30
  6
Continuous
 62
     7
100
AcDbCircle
 10
139.26436
 20
181.828363
 30
0.0
 40
5.0
100
AcDbArc
 50
0.0
 51
90.0
  0
ARC
  5
329
100
AcDbEntity
  8
1
370
    30
  6
Continuous
 62
     7
100
AcDbCircle
 10
139.26436
 20
115.828363
 30
0.0
 40
5.0
100
AcDbArc
 50
-90.0
 51
0.0
  0
LINE
  5
32A
100
AcDbEntity
  8
1
370
    30
  6
Continuous
 62
     7
100
AcDbLine
 10
104.17861
 20
112.505788
 30
0.0
 11
90.26441
 21
112.505788
 31
0.0
  0
LINE
  5
32B
100
AcDbEntity
  8
1
370
    30
  6
Continuous
 62
     7
100
AcDbLine
 10
92.198435
 20
114.312263
 30
0.0
 11
90.264335
 21
112.505788
 31
0.0
  0
LINE
  5
32C
100
AcDbEntity
  8
1
370
    30
  6
Continuous
 62
     7
100
AcDbLine
 10
90.26441
 20
114.312263
 30
0.0
 11
90.26441
 21
112.505788
 31
0.0
  0
LINE
  5
32D
100
AcDbEntity
  8
1
370
    30
  6
Continuous
 62
     7
100
AcDbLine
 10
106.26441
 20
114.828363
 30
0.0
 11
136.26436
 21
114.828363
 31
0.0
  0
LINE
  5
32E
100
AcDbEntity
  8
1
370
    30
  6
Continuous
 62
     7
100
AcDbLine
 10
108.35021
 20
112.505788
 30
0.0
 11
122.26441
 21
112.505788
 31
0.0
  0
LINE
  5
32F
100
AcDbEntity
  8
1
370
    30
  6
Continuous
 62
     7
100
AcDbLine
 10
120.33031
 20
114.312263
 30
0.0
 11
122.26441
 21
112.505788
 31
0.0
  0
LINE
  5
330
100
AcDbEntity
  8
1
370
    30
  6
Continuous
 62
     7
100
AcDbLine
 10
122.26441
 20
114.312263
 30
0.0
 11
122.26441
 21
112.505788
 31
0.0
  0
LINE
  5
331
100
AcDbEntity
  8
1
370
    30
  6
Continuous
 62
     7
100
AcDbLine
 10
90.26441
 20
114.312263
 30
0.0
 11
122.26441
 21
114.312263
 31
0.0
  0
LINE
  5
332
100
AcDbEntity
  8
1
370
    30
  6
Continuous
 62
     7
100
AcDbLine
 10
139.26436
 20
110.828363
 30
0.0
 11
73.264385
 21
110.828363
 31
0.0
  0
ARC
  5
333
100
AcDbEntity
  8
1
370
    30
  6
Continuous
 62
     7
100
AcDbCircle
 10
73.26441
 20
115.828363
 30
0.0
 40
5.0
100
AcDbArc
 50
180.0
 51
-89.9999
  0
LINE
  5
334
100
AcDbEntity
  8
1
370
    30
  6
Continuous
 62
     7
100
AcDbLine
 10
68.26441
 20
181.828363
 30
0.0
 11
68.26441
 21
115.828363
 31
0.0
  0
ARC
  5
335
100
AcDbEntity
  8
1
370
    30
  6
Continuous
 62
     7
100
AcDbCircle
 10
73.26441
 20
181.828363
 30
0.0
 40
5.0
100
AcDbArc
 50
90.0
 51
180.0
  0
LINE
  5
336
100
AcDbEntity
  8
1
370
    30
  6
Continuous
 62
     7
100
AcDbLine
 10
73.26441
 20
186.828363
 30
0.0
 11
139.26436
 21
186.828363
 31
0.0
  0
LINE
  5
337
100
AcDbEntity
  8
1
370
    30
  6
Continuous
 62
     7
100
AcDbLine
 10
136.26436
 20
175.828363
 30
0.0
 11
136.26436
 21
121.828363
 31
0.0
  0
LINE
  5
338
100
AcDbEntity
  8
1
370
    30
  6
Continuous
 62
     7
100
AcDbLine
 10
138.26436
 20
142.828363
 30
0.0
 11
136.26436
 21
142.828363
 31
0.0
  0
LINE
  5
339
100
AcDbEntity
  8
1
370
    30
  6
Continuous
 62
     7
100
AcDbLine
 10
134.26436
 20
175.328363
 30
0.0
 11
134.26436
 21
122.328363
 31
0.0
  0
LINE
  5
33A
100
AcDbEntity
  8
1
370
    30
  6
Continuous
 62
     7
100
AcDbLine
 10
135.26436
 20
175.328363
 30
0.0
 11
135.26436
 21
122.328363
 31
0.0
  0
LINE
  5
33B
100
AcDbEntity
  8
1
370
    30
  6
Continuous
 62
     7
100
AcDbLine
 10
140.26436
 20
178.304613
 30
0.0
 11
140.26436
 21
118.828363
 31
0.0
  0
LINE
  5
33C
100
AcDbEntity
  8
1
370
    30
  6
Continuous
 62
     7
100
AcDbLine
 10
138.26436
 20
118.828363
 30
0.0
 11
138.26436
 21
178.828363
 31
0.0
  0
LINE
  5
33D
100
AcDbEntity
  8
1
370
    30
  6
Continuous
 62
     7
100
AcDbLine
 10
134.26436
 20
118.999913
 30
0.0
 11
134.26436
 21
116.828363
 31
0.0
  0
ARC
  5
33E
100
AcDbEntity
  8
1
370
    30
  6
Continuous
 62
     7
100
AcDbCircle
 10
132.76436
 20
122.328363
 30
0.0
 40
1.5
100
AcDbArc
 50
-89.999045
 51
0.000655
  0
LINE
  5
33F
100
AcDbEntity
  8
1
370
    30
  6
Continuous
 62
     7
100
AcDbLine
 10
106.26441
 20
116.828363
 30
0.0
 11
136.26436
 21
116.828363
 31
0.0
  0
ARC
  5
340
100
AcDbEntity
  8
1
370
    30
  6
Continuous
 62
     7
100
AcDbCircle
 10
132.76436
 20
122.328363
 30
0.0
 40
2.5
100
AcDbArc
 50
-90.0
 51
0.0
  0
LINE
  5
341
100
AcDbEntity
  8
1
370
    30
  6
Continuous
 62
     7
100
AcDbLine
 10
126.357385
 20
118.828363
 30
0.0
 11
133.26436
 21
118.828363
 31
0.0
  0
ARC
  5
342
100
AcDbEntity
  8
1
370
    30
  6
Continuous
 62
     7
100
AcDbCircle
 10
133.26436
 20
121.828363
 30
0.0
 40
3.0
100
AcDbArc
 50
-90.0
 51
0.0
  0
ARC
  5
343
100
AcDbEntity
  8
1
370
    30
  6
Continuous
 62
     7
100
AcDbCircle
 10
136.26436
 20
118.828363
 30
0.0
 40
4.0
100
AcDbArc
 50
-90.0
 51
0.0
  0
ARC
  5
344
100
AcDbEntity
  8
1
370
    30
  6
Continuous
 62
     7
100
AcDbCircle
 10
136.26436
 20
118.828363
 30
0.0
 40
2.0
100
AcDbArc
 50
-90.0
 51
0.0
  0
LINE
  5
345
100
AcDbEntity
  8
1
370
    30
  6
Continuous
 62
     7
100
AcDbLine
 10
132.76436
 20
120.828363
 30
0.0
 11
106.26436
 21
120.828363
 31
0.0
  0
LINE
  5
346
100
AcDbEntity
  8
1
370
    30
  6
Continuous
 62
     7
100
AcDbLine
 10
76.26441
 20
175.828363
 30
0.0
 11
76.26441
 21
121.828363
 31
0.0
  0
LINE
  5
347
100
AcDbEntity
  8
1
370
    30
  6
Continuous
 62
     7
100
AcDbLine
 10
74.26441
 20
118.828363
 30
0.0
 11
74.26441
 21
178.828363
 31
0.0
  0
LINE
  5
348
100
AcDbEntity
  8
1
370
    30
  6
Continuous
 62
     7
100
AcDbLine
 10
78.26441
 20
122.328363
 30
0.0
 11
78.26441
 21
175.328363
 31
0.0
  0
LINE
  5
349
100
AcDbEntity
  8
1
370
    30
  6
Continuous
 62
     7
100
AcDbLine
 10
77.26441
 20
175.328363
 30
0.0
 11
77.26441
 21
122.328363
 31
0.0
  0
LINE
  5
34A
100
AcDbEntity
  8
1
370
    30
  6
Continuous
 62
     7
100
AcDbLine
 10
72.26441
 20
178.304613
 30
0.0
 11
72.26441
 21
118.828363
 31
0.0
  0
LINE
  5
34B
100
AcDbEntity
  8
1
370
    30
  6
Continuous
 62
     7
100
AcDbLine
 10
78.26441
 20
118.999913
 30
0.0
 11
78.26441
 21
116.828363
 31
0.0
  0
LINE
  5
34C
100
AcDbEntity
  8
1
370
    30
  6
Continuous
 62
     7
100
AcDbLine
 10
74.26441
 20
142.828363
 30
0.0
 11
76.26441
 21
142.828363
 31
0.0
  0
LINE
  5
34D
100
AcDbEntity
  8
1
370
    30
  6
Continuous
 62
     7
100
AcDbLine
 10
106.26441
 20
116.828363
 30
0.0
 11
76.26441
 21
116.828363
 31
0.0
  0
ARC
  5
34E
100
AcDbEntity
  8
1
370
    30
  6
Continuous
 62
     7
100
AcDbCircle
 10
79.76441
 20
122.328363
 30
0.0
 40
2.5
100
AcDbArc
 50
180.0
 51
-90.0
  0
LINE
  5
34F
100
AcDbEntity
  8
1
370
    30
  6
Continuous
 62
     7
100
AcDbLine
 10
86.171385
 20
118.828363
 30
0.0
 11
79.26441
 21
118.828363
 31
0.0
  0
ARC
  5
350
100
AcDbEntity
  8
1
370
    30
  6
Continuous
 62
     7
100
AcDbCircle
 10
79.26441
 20
121.828363
 30
0.0
 40
3.0
100
AcDbArc
 50
180.0
 51
-90.0
  0
LINE
  5
351
100
AcDbEntity
  8
1
370
    30
  6
Continuous
 62
     7
100
AcDbLine
 10
106.26441
 20
114.828363
 30
0.0
 11
76.26441
 21
114.828363
 31
0.0
  0
ARC
  5
352
100
AcDbEntity
  8
1
370
    30
  6
Continuous
 62
     7
100
AcDbCircle
 10
76.26441
 20
118.828363
 30
0.0
 40
4.0
100
AcDbArc
 50
180.0
 51
-90.0
  0
ARC
  5
353
100
AcDbEntity
  8
1
370
    30
  6
Continuous
 62
     7
100
AcDbCircle
 10
76.26441
 20
118.828363
 30
0.0
 40
2.0
100
AcDbArc
 50
180.0
 51
-90.0
  0
ARC
  5
354
100
AcDbEntity
  8
1
370
    30
  6
Continuous
 62
     7
100
AcDbCircle
 10
79.76441
 20
122.328363
 30
0.0
 40
1.5
100
AcDbArc
 50
180.0
 51
-90.0003
  0
LINE
  5
355
100
AcDbEntity
  8
1
370
    30
  6
Continuous
 62
     7
100
AcDbLine
 10
79.76441
 20
120.828363
 30
0.0
 11
106.26441
 21
120.828363
 31
0.0
  0
LINE
  5
356
100
AcDbEntity
  8
1
370
    30
  6
Continuous
 62
     7
100
AcDbLine
 10
74.26441
 20
154.828363
 30
0.0
 11
76.26441
 21
154.828363
 31
0.0
  0
ARC
  5
357
100
AcDbEntity
  8
1
370
    30
  6
Continuous
 62
     7
100
AcDbCircle
 10
76.26441
 20
178.304613
 30
0.0
 40
4.0
100
AcDbArc
 50
90.0
 51
180.0
  0
LINE
  5
358
100
AcDbEntity
  8
1
370
    30
  6
Continuous
 62
     7
100
AcDbLine
 10
106.26441
 20
176.828363
 30
0.0
 11
79.76441
 21
176.828363
 31
0.0
  0
LINE
  5
359
100
AcDbEntity
  8
1
370
    30
  6
Continuous
 62
     7
100
AcDbLine
 10
79.76441
 20
177.828363
 30
0.0
 11
106.26441
 21
177.828363
 31
0.0
  0
LINE
  5
35A
100
AcDbEntity
  8
1
370
    30
  6
Continuous
 62
     7
100
AcDbLine
 10
79.26441
 20
178.828363
 30
0.0
 11
106.26441
 21
178.828363
 31
0.0
  0
ARC
  5
35B
100
AcDbEntity
  8
1
370
    30
  6
Continuous
 62
     7
100
AcDbCircle
 10
76.26441
 20
178.828363
 30
0.0
 40
2.0
100
AcDbArc
 50
90.0
 51
180.0
  0
LINE
  5
35C
100
AcDbEntity
  8
1
370
    30
  6
Continuous
 62
     7
100
AcDbLine
 10
106.26441
 20
180.828363
 30
0.0
 11
76.26441
 21
180.828363
 31
0.0
  0
LINE
  5
35D
100
AcDbEntity
  8
1
370
    30
  6
Continuous
 62
     7
100
AcDbLine
 10
100.26441
 20
178.828363
 30
0.0
 11
100.26441
 21
180.828363
 31
0.0
  0
LINE
  5
35E
100
AcDbEntity
  8
1
370
    30
  6
Continuous
 62
     7
100
AcDbLine
 10
76.26441
 20
182.304613
 30
0.0
 11
106.26441
 21
182.304613
 31
0.0
  0
ARC
  5
35F
100
AcDbEntity
  8
1
370
    30
  6
Continuous
 62
     7
100
AcDbCircle
 10
79.76441
 20
175.328363
 30
0.0
 40
2.5
100
AcDbArc
 50
90.0
 51
180.0
  0
ARC
  5
360
100
AcDbEntity
  8
1
370
    30
  6
Continuous
 62
     7
100
AcDbCircle
 10
79.26441
 20
175.828363
 30
0.0
 40
3.0
100
AcDbArc
 50
90.0
 51
180.0
  0
ARC
  5
361
100
AcDbEntity
  8
1
370
    30
  6
Continuous
 62
     7
100
AcDbCircle
 10
79.76441
 20
175.328363
 30
0.0
 40
1.5
100
AcDbArc
 50
90.0
 51
179.9999
  0
LINE
  5
362
100
AcDbEntity
  8
1
370
    30
  6
Continuous
 62
     7
100
AcDbLine
 10
138.26436
 20
154.828363
 30
0.0
 11
136.26436
 21
154.828363
 31
0.0
  0
LINE
  5
363
100
AcDbEntity
  8
1
370
    30
  6
Continuous
 62
     7
100
AcDbLine
 10
132.76436
 20
176.828363
 30
0.0
 11
106.26436
 21
176.828363
 31
0.0
  0
LINE
  5
364
100
AcDbEntity
  8
1
370
    30
  6
Continuous
 62
     7
100
AcDbLine
 10
132.76436
 20
177.828363
 30
0.0
 11
106.26436
 21
177.828363
 31
0.0
  0
LINE
  5
365
100
AcDbEntity
  8
1
370
    30
  6
Continuous
 62
     7
100
AcDbLine
 10
133.26436
 20
178.828363
 30
0.0
 11
106.26436
 21
178.828363
 31
0.0
  0
LINE
  5
366
100
AcDbEntity
  8
1
370
    30
  6
Continuous
 62
     7
100
AcDbLine
 10
106.26441
 20
180.828363
 30
0.0
 11
136.26436
 21
180.828363
 31
0.0
  0
LINE
  5
367
100
AcDbEntity
  8
1
370
    30
  6
Continuous
 62
     7
100
AcDbLine
 10
136.26436
 20
182.304613
 30
0.0
 11
106.26436
 21
182.304613
 31
0.0
  0
ARC
  5
368
100
AcDbEntity
  8
1
370
    30
  6
Continuous
 62
     7
100
AcDbCircle
 10
136.26436
 20
178.304613
 30
0.0
 40
4.0
100
AcDbArc
 50
0.0
 51
90.0
  0
ARC
  5
369
100
AcDbEntity
  8
1
370
    30
  6
Continuous
 62
     7
100
AcDbCircle
 10
136.26436
 20
178.828363
 30
0.0
 40
2.0
100
AcDbArc
 50
0.0
 51
90.0
  0
LINE
  5
36A
100
AcDbEntity
  8
1
370
    30
  6
Continuous
 62
     7
100
AcDbLine
 10
112.26441
 20
178.828363
 30
0.0
 11
112.26441
 21
180.828363
 31
0.0
  0
ARC
  5
36B
100
AcDbEntity
  8
1
370
    30
  6
Continuous
 62
     7
100
AcDbCircle
 10
132.76436
 20
175.328363
 30
0.0
 40
1.5
100
AcDbArc
 50
0.0
 51
90.0
  0
ARC
  5
36C
100
AcDbEntity
  8
1
370
    30
  6
Continuous
 62
     7
100
AcDbCircle
 10
132.76436
 20
175.328363
 30
0.0
 40
2.5
100
AcDbArc
 50
0.0
 51
90.0
  0
ARC
  5
36D
100
AcDbEntity
  8
1
370
    30
  6
Continuous
 62
     7
100
AcDbCircle
 10
133.26436
 20
175.828363
 30
0.0
 40
3.0
100
AcDbArc
 50
0.0
 51
90.0
  0
LINE
  5
36E
100
AcDbEntity
  8
1
370
    30
  6
CENTER
 62
     7
100
AcDbLine
 10
106.26441
 20
32.928388
 30
0.0
 11
106.26441
 21
78.928388
 31
0.0
  0
LINE
  5
36F
100
AcDbEntity
  8
1
370
    30
  6
CENTER
 62
     7
100
AcDbLine
 10
106.26441
 20
258.928488
 30
0.0
 11
106.26441
 21
213.928388
 31
0.0
  0
LINE
  5
370
100
AcDbEntity
  8
1
370
    30
  6
CENTER
 62
     7
100
AcDbLine
 10
106.26441
 20
123.928388
 30
0.0
 11
106.26441
 21
99.728388
 31
0.0
  0
LINE
  5
371
100
AcDbEntity
  8
1
370
    30
  6
CENTER
 62
     7
100
AcDbLine
 10
106.26441
 20
196.528413
 30
0.0
 11
106.26441
 21
163.528413
 31
0.0
  0
LINE
  5
372
100
AcDbEntity
  8
1
370
    30
  6
CENTER
 62
     7
100
AcDbLine
 10
106.26441
 20
150.128413
 30
0.0
 11
106.26441
 21
128.728388
 31
0.0
  0
LINE
  5
373
100
AcDbEntity
  8
1
370
    30
  6
CENTER
 62
     7
100
AcDbLine
 10
149.96436
 20
148.828363
 30
0.0
 11
63.96436
 21
148.828363
 31
0.0
  0
DIMENSION
  5
37F
100
AcDbEntity
  8
1
370
    30
  6
Continuous
 62
     7
100
AcDbDimension
  2
*D1
 10
66.26441
 20
202.0
 30
0.0
 11
106.264385
 21
202.0
 31
0.0
 71
     5
 72
     1
 41
1.0
 42
0.0
  1
80
100
AcDbAlignedDimension
 13
66.26441
 23
189.828363
 33
0.0
 14
146.26436
 24
189.828363
 34
0.0
100
AcDbRotatedDimension
  0
DIMENSION
  5
38B
100
AcDbEntity
  8
1
370
    30
  6
Continuous
 62
     7
100
AcDbDimension
  2
*D2
 10
59.0
 20
193.828363
 30
0.0
 11
59.0
 21
148.828363
 31
0.0
 71
     5
 72
     1
 41
1.0
 42
0.0
  1
90
100
AcDbAlignedDimension
 13
70.26441
 23
193.828363
 33
0.0
 14
70.26441
 24
103.828363
 34
0.0
 50
90.0
100
AcDbRotatedDimension
  0
DIMENSION
  5
397
100
AcDbEntity
  8
1
370
    30
  6
Continuous
 62
     7
100
AcDbDimension
  2
*D3
 10
162.0
 20
70.828388
 30
0.0
 11
162.0
 21
53.828388
 31
0.0
 71
     5
 72
     1
 41
1.0
 42
0.0
  1
34
100
AcDbAlignedDimension
 13
127.464435
 23
70.828388
 33
0.0
 14
147.26436
 24
36.828388
 34
0.0
 50
90.0
100
AcDbRotatedDimension
  0
DIMENSION
  5
3A3
100
AcDbEntity
  8
1
370
    30
  6
Continuous
 62
     7
100
AcDbDimension
  2
*D4
 10
68.26441
 20
91.0
 30
0.0
 11
106.264385
 21
91.0
 31
0.0
 71
     5
 72
     1
 41
1.0
 42
0.0
  1
□76
100
AcDbAlignedDimension
 13
68.26441
 23
61.828388
 33
0.0
 14
144.26436
 24
61.828388
 34
0.0
100
AcDbRotatedDimension
  0
DIMENSION
  5
3AF
100
AcDbEntity
  8
1
370
    30
  6
Continuous
 62
     7
100
AcDbDimension
  2
*D5
 10
72.26441
 20
84.0
 30
0.0
 11
106.264385
 21
84.0
 31
0.0
 71
     5
 72
     1
 41
1.0
 42
0.0
  1
□68
100
AcDbAlignedDimension
 13
72.26441
 23
77.328387
 33
0.0
 14
140.26436
 24
77.328387
 34
0.0
100
AcDbRotatedDimension
  0
DIMENSION
  5
3BB
100
AcDbEntity
  8
1
370
    30
  6
Continuous
 62
     7
100
AcDbDimension
  2
*D6
 10
47.0
 20
76.328387
 30
0.0
 11
47.0
 21
56.578387
 31
0.0
 71
     5
 72
     1
 41
1.0
 42
0.0
  1
39.5
100
AcDbAlignedDimension
 13
71.26441
 23
76.328387
 33
0.0
 14
65.26441
 24
36.828388
 34
0.0
 50
90.0
100
AcDbRotatedDimension
  0
DIMENSION
  5
3C7
100
AcDbEntity
  8
1
370
    30
  6
Continuous
 62
     7
100
AcDbDimension
  2
*D7
 10
60.0
 20
56.828388
 30
0.0
 11
60.0
 21
54.25
 31
0.0
 71
     5
 72
     1
 41
1.0
 42
0.0
  1
5
100
AcDbAlignedDimension
 13
67.26441
 23
56.828388
 33
0.0
 14
66.76441
 24
51.828388
 34
0.0
 50
90.0
100
AcDbRotatedDimension
  0
DIMENSION
  5
3D3
100
AcDbEntity
  8
1
370
    30
  6
Continuous
 62
     7
100
AcDbDimension
  2
*D8
 10
60.0
 20
51.828388
 30
0.0
 11
60.0
 21
44.328388
 31
0.0
 71
     5
 72
     1
 41
1.0
 42
0.0
  1
15
100
AcDbAlignedDimension
 13
66.76441
 23
51.828388
 33
0.0
 14
65.26441
 24
36.828388
 34
0.0
 50
90.0
100
AcDbRotatedDimension
  0
DIMENSION
  5
3DF
100
AcDbEntity
  8
1
370
    30
  6
Continuous
 62
     7
100
AcDbDimension
  2
*D9
 10
60.0
 20
76.328387
 30
0.0
 11
60.0
 21
66.578387
 31
0.0
 71
     5
 72
     1
 41
1.0
 42
0.0
  1
19.5
100
AcDbAlignedDimension
 13
71.26441
 23
76.328387
 33
0.0
 14
67.26441
 24
56.828388
 34
0.0
 50
90.0
100
AcDbRotatedDimension
  0
TEXT
  5
3E0
100
AcDbEntity
  8
1
370
    30
  6
Continuous
 62
     7
100
AcDbText
 10
46.0
 20
212.0
 30
0.0
 40
5.0
  1
COVER
 41
0.4
 11
46.0
 21
212.0
 31
0.0
100
AcDbText
 73
     1
  0
LINE
  5
3E1
100
AcDbEntity
  8
1
370
    30
  6
Continuous
 62
     7
100
AcDbLine
 10
74.0
 20
222.0
 30
0.0
 11
72.5
 21
219.401924
 31
0.0
  0
LINE
  5
3E2
100
AcDbEntity
  8
1
370
    30
  6
Continuous
 62
     7
100
AcDbLine
 10
74.0
 20
222.0
 30
0.0
 11
71.401924
 21
220.5
 31
0.0
  0
POLYLINE
  5
3E3
100
AcDbEntity
  8
1
370
    30
  6
Continuous
 62
     7
100
AcDb2dPolyline
 66
     1
 10
0.0
 20
0.0
 30
0.0
  0
VERTEX
  5
3E4
100
AcDbEntity
  8
1
370
    30
  6
Continuous
 62
     7
100
AcDbVertex
100
AcDb2dVertex
 10
74.0
 20
222.0
 30
0.0
  0
VERTEX
  5
3E5
100
AcDbEntity
  8
1
370
    30
  6
Continuous
 62
     7
100
AcDbVertex
100
AcDb2dVertex
 10
60.0
 20
208.0
 30
0.0
  0
VERTEX
  5
3E6
100
AcDbEntity
  8
1
370
    30
  6
Continuous
 62
     7
100
AcDbVertex
100
AcDb2dVertex
 10
45.0
 20
208.0
 30
0.0
  0
SEQEND
  5
3E7
100
AcDbEntity
  8
1
370
    30
  6
Continuous
 62
     7
  0
TEXT
  5
3E8
100
AcDbEntity
  8
1
370
    30
  6
Continuous
 62
     7
100
AcDbText
 10
45.0
 20
208.0
 30
0.0
 40
4.0
  1
カバー
 41
0.833333
 11
45.0
 21
208.0
 31
0.0
100
AcDbText
 73
     1
  0
LINE
  5
3E9
100
AcDbEntity
  8
1
370
    30
  6
Continuous
 62
     7
100
AcDbLine
 10
126.464435
 20
70.828388
 30
0.0
 11
85.764435
 21
70.828388
 31
0.0
  0
LINE
  5
3EA
100
AcDbEntity
  8
1
370
    30
  6
Continuous
 62
     7
100
AcDbLine
 10
67.01441
 20
248.828488
 30
0.0
 11
65.51441
 21
246.230411
 31
0.0
  0
LINE
  5
3EB
100
AcDbEntity
  8
1
370
    30
  6
Continuous
 62
     7
100
AcDbLine
 10
67.01441
 20
248.828488
 30
0.0
 11
64.416334
 21
247.328488
 31
0.0
  0
POLYLINE
  5
3EC
100
AcDbEntity
  8
1
370
    30
  6
Continuous
 62
     7
100
AcDb2dPolyline
 66
     1
 10
0.0
 20
0.0
 30
0.0
  0
VERTEX
  5
3ED
100
AcDbEntity
  8
1
370
    30
  6
Continuous
 62
     7
100
AcDbVertex
100
AcDb2dVertex
 10
67.01441
 20
248.828488
 30
0.0
  0
VERTEX
  5
3EE
100
AcDbEntity
  8
1
370
    30
  6
Continuous
 62
     7
100
AcDbVertex
100
AcDb2dVertex
 10
53.01441
 20
234.828488
 30
0.0
  0
VERTEX
  5
3EF
100
AcDbEntity
  8
1
370
    30
  6
Continuous
 62
     7
100
AcDbVertex
100
AcDb2dVertex
 10
38.01441
 20
234.828488
 30
0.0
  0
SEQEND
  5
3F0
100
AcDbEntity
  8
1
370
    30
  6
Continuous
 62
     7
  0
TEXT
  5
3F1
100
AcDbEntity
  8
1
370
    30
  6
Continuous
 62
     7
100
AcDbText
 10
38.01441
 20
234.828488
 30
0.0
 40
4.0
  1
ベース
 41
0.833333
 11
38.01441
 21
234.828488
 31
0.0
100
AcDbText
 73
     1
  0
TEXT
  5
3F2
100
AcDbEntity
  8
1
370
    30
  6
Continuous
 62
     7
100
AcDbText
 10
39.01441
 20
238.828488
 30
0.0
 40
5.0
  1
BASE
 41
0.4
 11
39.01441
 21
238.828488
 31
0.0
100
AcDbText
 73
     1
  0
ARC
  5
3F3
100
AcDbEntity
  8
1
370
    30
  6
Continuous
 62
     7
100
AcDbCircle
 10
181.264385
 20
130.328388
 30
0.0
 40
0.5
100
AcDbArc
 50
0.002865
 51
90.001165
  0
LINE
  5
3F4
100
AcDbEntity
  8
1
370
    30
  6
Continuous
 62
     7
100
AcDbLine
 10
179.264385
 20
171.328388
 30
0.0
 11
179.264385
 21
131.328388
 31
0.0
  0
ARC
  5
3F5
100
AcDbEntity
  8
1
370
    30
  6
Continuous
 62
     7
100
AcDbCircle
 10
179.764385
 20
131.328388
 30
0.0
 40
0.5
100
AcDbArc
 50
180.0
 51
-90.0018
  0
LINE
  5
3F6
100
AcDbEntity
  8
1
370
    30
  6
Continuous
 62
     7
100
AcDbLine
 10
181.264385
 20
130.828388
 30
0.0
 11
179.764385
 21
130.828388
 31
0.0
  0
ARC
  5
3F7
100
AcDbEntity
  8
1
370
    30
  6
Continuous
 62
     7
100
AcDbCircle
 10
179.764385
 20
171.328388
 30
0.0
 40
0.5
100
AcDbArc
 50
90.0
 51
180.0
  0
LINE
  5
3F8
100
AcDbEntity
  8
1
370
    30
  6
Continuous
 62
     7
100
AcDbLine
 10
179.764385
 20
171.828388
 30
0.0
 11
181.264385
 21
171.828388
 31
0.0
  0
ARC
  5
3F9
100
AcDbEntity
  8
1
370
    30
  6
Continuous
 62
     7
100
AcDbCircle
 10
181.264385
 20
172.328413
 30
0.0
 40
0.500025
100
AcDbArc
 50
-90.0
 51
-0.0017
  0
LINE
  5
3FA
100
AcDbEntity
  8
1
370
    30
  6
Continuous
 62
     7
100
AcDbLine
 10
181.764385
 20
180.328388
 30
0.0
 11
181.764385
 21
172.328388
 31
0.0
  0
LINE
  5
3FB
100
AcDbEntity
  8
1
370
    30
  6
Continuous
 62
     7
100
AcDbLine
 10
208.781085
 20
183.328388
 30
0.0
 11
184.764435
 21
183.328388
 31
0.0
  0
LINE
  5
3FC
100
AcDbEntity
  8
1
370
    30
  6
Continuous
 62
     7
100
AcDbLine
 10
223.74771
 20
183.328388
 30
0.0
 11
247.76441
 21
183.328388
 31
0.0
  0
ARC
  5
3FD
100
AcDbEntity
  8
1
370
    30
  6
Continuous
 62
     7
100
AcDbCircle
 10
223.74771
 20
182.828388
 30
0.0
 40
0.5
100
AcDbArc
 50
90.0
 51
176.1784
  0
ARC
  5
3FE
100
AcDbEntity
  8
1
370
    30
  6
Continuous
 62
     7
100
AcDbCircle
 10
216.26436
 20
183.328388
 30
0.0
 40
6.999998
100
AcDbArc
 50
-176.177377
 51
-3.822577
  0
ARC
  5
3FF
100
AcDbEntity
  8
1
370
    30
  6
Continuous
 62
     7
100
AcDbCircle
 10
247.76441
 20
180.328388
 30
0.0
 40
3.0
100
AcDbArc
 50
0.0
 51
90.0
  0
LINE
  5
400
100
AcDbEntity
  8
1
370
    30
  6
Continuous
 62
     7
100
AcDbLine
 10
250.76441
 20
180.328388
 30
0.0
 11
250.76441
 21
172.328388
 31
0.0
  0
ARC
  5
401
100
AcDbEntity
  8
1
370
    30
  6
Continuous
 62
     7
100
AcDbCircle
 10
251.26441
 20
172.328413
 30
0.0
 40
0.5
100
AcDbArc
 50
-179.997135
 51
-89.998935
  0
ARC
  5
402
100
AcDbEntity
  8
1
370
    30
  6
Continuous
 62
     7
100
AcDbCircle
 10
252.76441
 20
171.328388
 30
0.0
 40
0.5
100
AcDbArc
 50
0.0
 51
90.0
  0
LINE
  5
403
100
AcDbEntity
  8
1
370
    30
  6
Continuous
 62
     7
100
AcDbLine
 10
252.76441
 20
171.828388
 30
0.0
 11
251.26441
 21
171.828388
 31
0.0
  0
ARC
  5
404
100
AcDbEntity
  8
1
370
    30
  6
Continuous
 62
     7
100
AcDbCircle
 10
252.76441
 20
131.328388
 30
0.0
 40
0.5
100
AcDbArc
 50
-90.0
 51
-0.0017
  0
LINE
  5
405
100
AcDbEntity
  8
1
370
    30
  6
Continuous
 62
     7
100
AcDbLine
 10
253.26441
 20
171.328388
 30
0.0
 11
253.26441
 21
131.328388
 31
0.0
  0
LINE
  5
406
100
AcDbEntity
  8
1
370
    30
  6
Continuous
 62
     7
100
AcDbLine
 10
251.26441
 20
130.828388
 30
0.0
 11
252.76441
 21
130.828388
 31
0.0
  0
LINE
  5
407
100
AcDbEntity
  8
1
370
    30
  6
Continuous
 62
     7
100
AcDbLine
 10
208.781085
 20
114.328388
 30
0.0
 11
184.764435
 21
114.328388
 31
0.0
  0
ARC
  5
408
100
AcDbEntity
  8
1
370
    30
  6
Continuous
 62
     7
100
AcDbCircle
 10
251.26441
 20
130.328388
 30
0.0
 40
0.500025
100
AcDbArc
 50
90.0
 51
179.9982
  0
ARC
  5
409
100
AcDbEntity
  8
1
370
    30
  6
Continuous
 62
     7
100
AcDbCircle
 10
247.76441
 20
117.328388
 30
0.0
 40
3.0
100
AcDbArc
 50
-90.0
 51
0.0
  0
LINE
  5
40A
100
AcDbEntity
  8
1
370
    30
  6
Continuous
 62
     7
100
AcDbLine
 10
250.76441
 20
117.328388
 30
0.0
 11
250.76441
 21
130.328388
 31
0.0
  0
LINE
  5
40B
100
AcDbEntity
  8
1
370
    30
  6
Continuous
 62
     7
100
AcDbLine
 10
223.74771
 20
114.328388
 30
0.0
 11
247.76441
 21
114.328388
 31
0.0
  0
ARC
  5
40C
100
AcDbEntity
  8
1
370
    30
  6
Continuous
 62
     7
100
AcDbCircle
 10
223.74771
 20
114.828388
 30
0.0
 40
0.499987
100
AcDbArc
 50
-176.178302
 51
-90.000002
  0
LINE
  5
40D
100
AcDbEntity
  8
1
370
    30
  6
Continuous
 62
     7
100
AcDbLine
 10
216.295585
 20
128.323388
 30
0.0
 11
216.295585
 21
127.990888
 31
0.0
  0
ARC
  5
40E
100
AcDbEntity
  8
1
370
    30
  6
Continuous
 62
     7
100
AcDbCircle
 10
208.781085
 20
114.828388
 30
0.0
 40
0.5
100
AcDbArc
 50
-90.0
 51
-3.8216
  0
ARC
  5
40F
100
AcDbEntity
  8
1
370
    30
  6
Continuous
 62
     7
100
AcDbCircle
 10
216.26436
 20
114.328388
 30
0.0
 40
7.000023
100
AcDbArc
 50
3.822609
 51
176.177409
  0
ARC
  5
410
100
AcDbEntity
  8
1
370
    30
  6
Continuous
 62
     7
100
AcDbCircle
 10
184.764385
 20
117.328388
 30
0.0
 40
3.0
100
AcDbArc
 50
180.0
 51
-90.0
  0
LINE
  5
411
100
AcDbEntity
  8
1
370
    30
  6
Continuous
 62
     7
100
AcDbLine
 10
204.26436
 20
175.828363
 30
0.0
 11
205.26436
 21
175.828363
 31
0.0
  0
LINE
  5
412
100
AcDbEntity
  8
1
370
    30
  6
Continuous
 62
     7
100
AcDbLine
 10
204.455935
 20
180.294163
 30
0.0
 11
204.84701
 21
180.685238
 31
0.0
  0
LINE
  5
413
100
AcDbEntity
  8
1
370
    30
  6
Continuous
 62
     7
100
AcDbLine
 10
204.069585
 20
179.624988
 30
0.0
 11
204.950535
 21
180.505912
 31
0.0
  0
LINE
  5
414
100
AcDbEntity
  8
1
370
    30
  6
Continuous
 62
     7
100
AcDbLine
 10
203.683235
 20
178.955787
 30
0.0
 11
205.054035
 21
180.326588
 31
0.0
  0
LINE
  5
415
100
AcDbEntity
  8
1
370
    30
  6
Continuous
 62
     7
100
AcDbLine
 10
203.338635
 20
178.328363
 30
0.0
 11
205.15761
 21
180.147288
 31
0.0
  0
LINE
  5
416
100
AcDbEntity
  8
1
370
    30
  6
Continuous
 62
     7
100
AcDbLine
 10
203.62146
 20
178.328363
 30
0.0
 11
205.26111
 21
179.967963
 31
0.0
  0
LINE
  5
417
100
AcDbEntity
  8
1
370
    30
  6
Continuous
 62
     7
100
AcDbLine
 10
203.90431
 20
178.328363
 30
0.0
 11
205.364635
 21
179.788688
 31
0.0
  0
LINE
  5
418
100
AcDbEntity
  8
1
370
    30
  6
Continuous
 62
     7
100
AcDbLine
 10
204.187135
 20
178.328363
 30
0.0
 11
205.46816
 21
179.609363
 31
0.0
  0
LINE
  5
419
100
AcDbEntity
  8
1
370
    30
  6
Continuous
 62
     7
100
AcDbLine
 10
204.26436
 20
178.122738
 30
0.0
 11
205.57166
 21
179.430038
 31
0.0
  0
LINE
  5
41A
100
AcDbEntity
  8
1
370
    30
  6
Continuous
 62
     7
100
AcDbLine
 10
204.26436
 20
177.839888
 30
0.0
 11
205.675185
 21
179.250713
 31
0.0
  0
LINE
  5
41B
100
AcDbEntity
  8
1
370
    30
  6
Continuous
 62
     7
100
AcDbLine
 10
204.26436
 20
177.557063
 30
0.0
 11
205.77876
 21
179.071438
 31
0.0
  0
LINE
  5
41C
100
AcDbEntity
  8
1
370
    30
  6
Continuous
 62
     7
100
AcDbLine
 10
205.318485
 20
178.328363
 30
0.0
 11
205.882285
 21
178.892113
 31
0.0
  0
LINE
  5
41D
100
AcDbEntity
  8
1
370
    30
  6
Continuous
 62
     7
100
AcDbLine
 10
204.26436
 20
177.274213
 30
0.0
 11
205.26436
 21
178.274213
 31
0.0
  0
LINE
  5
41E
100
AcDbEntity
  8
1
370
    30
  6
Continuous
 62
     7
100
AcDbLine
 10
205.601335
 20
178.328363
 30
0.0
 11
205.98581
 21
178.712788
 31
0.0
  0
LINE
  5
41F
100
AcDbEntity
  8
1
370
    30
  6
Continuous
 62
     7
100
AcDbLine
 10
204.26436
 20
176.991388
 30
0.0
 11
205.26436
 21
177.991388
 31
0.0
  0
LINE
  5
420
100
AcDbEntity
  8
1
370
    30
  6
Continuous
 62
     7
100
AcDbLine
 10
205.88416
 20
178.328363
 30
0.0
 11
206.08931
 21
178.533488
 31
0.0
  0
LINE
  5
421
100
AcDbEntity
  8
1
370
    30
  6
Continuous
 62
     7
100
AcDbLine
 10
204.26436
 20
176.708538
 30
0.0
 11
205.26436
 21
177.708538
 31
0.0
  0
LINE
  5
422
100
AcDbEntity
  8
1
370
    30
  6
Continuous
 62
     7
100
AcDbLine
 10
206.16701
 20
178.328363
 30
0.0
 11
206.192835
 21
178.354163
 31
0.0
  0
LINE
  5
423
100
AcDbEntity
  8
1
370
    30
  6
Continuous
 62
     7
100
AcDbLine
 10
204.26436
 20
176.425713
 30
0.0
 11
205.26436
 21
177.425713
 31
0.0
  0
LINE
  5
424
100
AcDbEntity
  8
1
370
    30
  6
Continuous
 62
     7
100
AcDbLine
 10
204.26436
 20
176.142863
 30
0.0
 11
205.26436
 21
177.142863
 31
0.0
  0
LINE
  5
425
100
AcDbEntity
  8
1
370
    30
  6
Continuous
 62
     7
100
AcDbLine
 10
204.26436
 20
175.860038
 30
0.0
 11
205.26436
 21
176.860038
 31
0.0
  0
LINE
  5
426
100
AcDbEntity
  8
1
370
    30
  6
Continuous
 62
     7
100
AcDbLine
 10
205.081185
 20
175.828363
 30
0.0
 11
205.26436
 21
176.011513
 31
0.0
  0
LINE
  5
427
100
AcDbEntity
  8
1
370
    30
  6
Continuous
 62
     7
100
AcDbLine
 10
204.79836
 20
175.828363
 30
0.0
 11
205.26436
 21
176.294363
 31
0.0
  0
LINE
  5
428
100
AcDbEntity
  8
1
370
    30
  6
Continuous
 62
     7
100
AcDbLine
 10
204.51551
 20
175.828363
 30
0.0
 11
205.26436
 21
176.577188
 31
0.0
  0
LINE
  5
429
100
AcDbEntity
  8
1
370
    30
  6
Continuous
 62
     7
100
AcDbLine
 10
205.26436
 20
178.328363
 30
0.0
 11
206.207735
 21
178.328363
 31
0.0
  0
LINE
  5
42A
100
AcDbEntity
  8
1
370
    30
  6
Continuous
 62
     7
100
AcDbLine
 10
203.32101
 20
178.328363
 30
0.0
 11
204.76436
 21
180.828363
 31
0.0
  0
LINE
  5
42B
100
AcDbEntity
  8
1
370
    30
  6
Continuous
 62
     7
100
AcDbLine
 10
206.207735
 20
178.328363
 30
0.0
 11
204.76436
 21
180.828363
 31
0.0
  0
LINE
  5
42C
100
AcDbEntity
  8
1
370
    30
  6
Continuous
 62
     7
100
AcDbLine
 10
203.32101
 20
178.328363
 30
0.0
 11
204.26436
 21
178.328363
 31
0.0
  0
LINE
  5
42D
100
AcDbEntity
  8
1
370
    30
  6
Continuous
 62
     7
100
AcDbLine
 10
205.26436
 20
178.328363
 30
0.0
 11
205.26436
 21
175.828363
 31
0.0
  0
LINE
  5
42E
100
AcDbEntity
  8
1
370
    30
  6
Continuous
 62
     7
100
AcDbLine
 10
204.26436
 20
178.328363
 30
0.0
 11
204.26436
 21
175.828363
 31
0.0
  0
LINE
  5
42F
100
AcDbEntity
  8
1
370
    30
  6
Continuous
 62
     7
100
AcDbLine
 10
200.10031
 20
177.773388
 30
0.0
 11
198.467485
 21
177.773388
 31
0.0
  0
LINE
  5
430
100
AcDbEntity
  8
1
370
    30
  6
Continuous
 62
     7
100
AcDbLine
 10
200.959685
 20
177.963388
 30
0.0
 11
200.10031
 21
177.773388
 31
0.0
  0
LINE
  5
431
100
AcDbEntity
  8
1
370
    30
  6
Continuous
 62
     7
100
AcDbLine
 10
201.561235
 20
178.628388
 30
0.0
 11
200.959685
 21
177.963388
 31
0.0
  0
LINE
  5
432
100
AcDbEntity
  8
1
370
    30
  6
Continuous
 62
     7
100
AcDbLine
 10
201.561235
 20
179.388387
 30
0.0
 11
201.561235
 21
178.628388
 31
0.0
  0
LINE
  5
433
100
AcDbEntity
  8
1
370
    30
  6
Continuous
 62
     7
100
AcDbLine
 10
200.959685
 20
180.053388
 30
0.0
 11
201.561235
 21
179.388387
 31
0.0
  0
LINE
  5
434
100
AcDbEntity
  8
1
370
    30
  6
Continuous
 62
     7
100
AcDbLine
 10
200.10031
 20
180.243388
 30
0.0
 11
200.959685
 21
180.053388
 31
0.0
  0
LINE
  5
435
100
AcDbEntity
  8
1
370
    30
  6
Continuous
 62
     7
100
AcDbLine
 10
198.467485
 20
180.243388
 30
0.0
 11
200.10031
 21
180.243388
 31
0.0
  0
LINE
  5
436
100
AcDbEntity
  8
1
370
    30
  6
Continuous
 62
     7
100
AcDbLine
 10
198.467485
 20
175.873388
 30
0.0
 11
198.467485
 21
180.243388
 31
0.0
  0
LINE
  5
437
100
AcDbEntity
  8
1
370
    30
  6
Continuous
 62
     7
100
AcDbLine
 10
196.64716
 20
177.583388
 30
0.0
 11
196.64716
 21
180.338388
 31
0.0
  0
LINE
  5
438
100
AcDbEntity
  8
1
370
    30
  6
Continuous
 62
     7
100
AcDbLine
 10
196.217485
 20
176.443388
 30
0.0
 11
196.64716
 21
177.583388
 31
0.0
  0
LINE
  5
439
100
AcDbEntity
  8
1
370
    30
  6
Continuous
 62
     7
100
AcDbLine
 10
195.529985
 20
175.873388
 30
0.0
 11
196.217485
 21
176.443388
 31
0.0
  0
LINE
  5
43A
100
AcDbEntity
  8
1
370
    30
  6
Continuous
 62
     7
100
AcDbLine
 10
194.498735
 20
175.873388
 30
0.0
 11
195.529985
 21
175.873388
 31
0.0
  0
LINE
  5
43B
100
AcDbEntity
  8
1
370
    30
  6
Continuous
 62
     7
100
AcDbLine
 10
193.811235
 20
176.443388
 30
0.0
 11
194.498735
 21
175.873388
 31
0.0
  0
LINE
  5
43C
100
AcDbEntity
  8
1
370
    30
  6
Continuous
 62
     7
100
AcDbLine
 10
193.381535
 20
177.583388
 30
0.0
 11
193.811235
 21
176.443388
 31
0.0
  0
LINE
  5
43D
100
AcDbEntity
  8
1
370
    30
  6
Continuous
 62
     7
100
AcDbLine
 10
193.381535
 20
180.338388
 30
0.0
 11
193.381535
 21
177.583388
 31
0.0
  0
ARC
  5
43E
100
AcDbEntity
  8
1
370
    30
  6
Continuous
 62
     7
100
AcDbCircle
 10
184.764385
 20
180.328388
 30
0.0
 40
3.0
100
AcDbArc
 50
90.0
 51
180.0
  0
ARC
  5
43F
100
AcDbEntity
  8
1
370
    30
  6
Continuous
 62
     7
100
AcDbCircle
 10
208.781085
 20
182.828388
 30
0.0
 40
0.499987
100
AcDbArc
 50
3.821698
 51
89.999898
  0
LINE
  5
440
100
AcDbEntity
  8
1
370
    30
  6
Continuous
 62
     7
100
AcDbLine
 10
181.764385
 20
117.328388
 30
0.0
 11
181.764385
 21
130.328388
 31
0.0
  0
LINE
  5
441
100
AcDbEntity
  8
1
370
    30
  6
Continuous
 62
     7
100
AcDbLine
 10
251.26441
 20
181.828388
 30
0.0
 11
251.26441
 21
171.828388
 31
0.0
  0
LINE
  5
442
100
AcDbEntity
  8
1
370
    30
  6
Continuous
 62
     7
100
AcDbLine
 10
182.764385
 20
186.328363
 30
0.0
 11
249.76441
 21
186.328363
 31
0.0
  0
LINE
  5
443
100
AcDbEntity
  8
1
370
    30
  6
Continuous
 62
     7
100
AcDbLine
 10
183.014385
 20
186.078363
 30
0.0
 11
249.51441
 21
186.078363
 31
0.0
  0
ARC
  5
444
100
AcDbEntity
  8
1
370
    30
  6
Continuous
 62
     7
100
AcDbCircle
 10
222.74516
 20
183.328388
 30
0.0
 40
0.5
100
AcDbArc
 50
90.0
 51
-175.5894
  0
LINE
  5
445
100
AcDbEntity
  8
1
370
    30
  6
Continuous
 62
     7
100
AcDbLine
 10
249.26441
 20
183.828388
 30
0.0
 11
222.74516
 21
183.828388
 31
0.0
  0
LINE
  5
446
100
AcDbEntity
  8
1
370
    30
  6
Continuous
 62
     7
100
AcDbLine
 10
221.26436
 20
182.828388
 30
0.0
 11
221.26436
 21
186.078388
 31
0.0
  0
ARC
  5
447
100
AcDbEntity
  8
1
370
    30
  6
Continuous
 62
     7
100
AcDbCircle
 10
216.26436
 20
182.828388
 30
0.0
 40
5.0
100
AcDbArc
 50
180.0
 51
0.0
  0
ARC
  5
448
100
AcDbEntity
  8
1
370
    30
  6
Continuous
 62
     7
100
AcDbCircle
 10
216.26436
 20
182.828388
 30
0.0
 40
6.000004
100
AcDbArc
 50
175.588166
 51
4.411766
  0
LINE
  5
449
100
AcDbEntity
  8
1
370
    30
  6
Continuous
 62
     7
100
AcDbLine
 10
181.264385
 20
171.828388
 30
0.0
 11
181.264385
 21
181.828388
 31
0.0
  0
ARC
  5
44A
100
AcDbEntity
  8
1
370
    30
  6
Continuous
 62
     7
100
AcDbCircle
 10
209.78366
 20
183.328388
 30
0.0
 40
0.499981
100
AcDbArc
 50
-4.410571
 51
90.000229
  0
LINE
  5
44B
100
AcDbEntity
  8
1
370
    30
  6
Continuous
 62
     7
100
AcDbLine
 10
183.264385
 20
183.828388
 30
0.0
 11
209.78361
 21
183.828388
 31
0.0
  0
LINE
  5
44C
100
AcDbEntity
  8
1
370
    30
  6
Continuous
 62
     7
100
AcDbLine
 10
211.26436
 20
182.828388
 30
0.0
 11
211.26436
 21
186.078388
 31
0.0
  0
CIRCLE
  5
44D
100
AcDbEntity
  8
1
370
    30
  6
Continuous
 62
     7
100
AcDbCircle
 10
216.26436
 20
182.178388
 30
0.0
 40
2.25
  0
LINE
  5
44E
100
AcDbEntity
  8
1
370
    30
  6
Continuous
 62
     7
100
AcDbLine
 10
215.76436
 20
113.228363
 30
0.0
 11
216.76436
 21
113.228363
 31
0.0
  0
LINE
  5
44F
100
AcDbEntity
  8
1
370
    30
  6
Continuous
 62
     7
100
AcDbLine
 10
215.76436
 20
117.728363
 30
0.0
 11
216.76436
 21
117.728363
 31
0.0
  0
LINE
  5
450
100
AcDbEntity
  8
1
370
    30
  6
Continuous
 62
     7
100
AcDbLine
 10
211.26436
 20
114.828363
 30
0.0
 11
211.26436
 21
111.578363
 31
0.0
  0
ARC
  5
451
100
AcDbEntity
  8
1
370
    30
  6
Continuous
 62
     7
100
AcDbCircle
 10
209.78361
 20
114.328388
 30
0.0
 40
0.5
100
AcDbArc
 50
-90.0
 51
4.4115
  0
LINE
  5
452
100
AcDbEntity
  8
1
370
    30
  6
Continuous
 62
     7
100
AcDbLine
 10
221.26436
 20
114.828363
 30
0.0
 11
221.26436
 21
111.578363
 31
0.0
  0
ARC
  5
453
100
AcDbEntity
  8
1
370
    30
  6
Continuous
 62
     7
100
AcDbCircle
 10
222.745135
 20
114.328388
 30
0.0
 40
0.500008
100
AcDbArc
 50
175.586793
 51
-90.001707
  0
ARC
  5
454
100
AcDbEntity
  8
1
370
    30
  6
Continuous
 62
     7
100
AcDbCircle
 10
216.26436
 20
114.828363
 30
0.0
 40
5.0
100
AcDbArc
 50
0.0
 51
180.0
  0
ARC
  5
455
100
AcDbEntity
  8
1
370
    30
  6
Continuous
 62
     7
100
AcDbCircle
 10
216.26436
 20
114.828363
 30
0.0
 40
6.000025
100
AcDbArc
 50
-4.411339
 51
-175.588439
  0
ARC
  5
456
100
AcDbEntity
  8
1
370
    30
  6
Continuous
 62
     7
100
AcDbCircle
 10
216.76436
 20
115.478363
 30
0.0
 40
2.25
100
AcDbArc
 50
-90.0
 51
90.0
  0
ARC
  5
457
100
AcDbEntity
  8
1
370
    30
  6
Continuous
 62
     7
100
AcDbCircle
 10
215.76436
 20
115.478363
 30
0.0
 40
2.25
100
AcDbArc
 50
90.0
 51
-90.0
  0
LINE
  5
458
100
AcDbEntity
  8
1
370
    30
  6
Continuous
 62
     7
100
AcDbLine
 10
181.264385
 20
130.828388
 30
0.0
 11
181.264385
 21
115.828388
 31
0.0
  0
LINE
  5
459
100
AcDbEntity
  8
1
370
    30
  6
Continuous
 62
     7
100
AcDbLine
 10
209.78361
 20
113.828388
 30
0.0
 11
183.264385
 21
113.828388
 31
0.0
  0
LINE
  5
45A
100
AcDbEntity
  8
1
370
    30
  6
Continuous
 62
     7
100
AcDbLine
 10
251.26441
 20
115.828388
 30
0.0
 11
251.26441
 21
130.828388
 31
0.0
  0
ARC
  5
45B
100
AcDbEntity
  8
1
370
    30
  6
Continuous
 62
     7
100
AcDbCircle
 10
249.26441
 20
115.828388
 30
0.0
 40
2.0
100
AcDbArc
 50
-90.0
 51
0.0
  0
LINE
  5
45C
100
AcDbEntity
  8
1
370
    30
  6
Continuous
 62
     7
100
AcDbLine
 10
222.745135
 20
113.828388
 30
0.0
 11
249.26441
 21
113.828388
 31
0.0
  0
LINE
  5
45D
100
AcDbEntity
  8
1
370
    30
  6
Continuous
 62
     7
100
AcDbLine
 10
256.26441
 20
107.828388
 30
0.0
 11
256.26441
 21
189.828363
 31
0.0
  0
LINE
  5
45E
100
AcDbEntity
  8
1
370
    30
  6
Continuous
 62
     7
100
AcDbLine
 10
253.51441
 20
182.078363
 30
0.0
 11
253.51441
 21
115.578363
 31
0.0
  0
LINE
  5
45F
100
AcDbEntity
  8
1
370
    30
  6
Continuous
 62
     7
100
AcDbLine
 10
253.76441
 20
182.328363
 30
0.0
 11
253.76441
 21
115.328363
 31
0.0
  0
LINE
  5
460
100
AcDbEntity
  8
1
370
    30
  6
Continuous
 62
     7
100
AcDbLine
 10
254.76441
 20
182.328363
 30
0.0
 11
254.76441
 21
115.328363
 31
0.0
  0
LINE
  5
461
100
AcDbEntity
  8
1
370
    30
  6
Continuous
 62
     7
100
AcDbLine
 10
255.51441
 20
183.078363
 30
0.0
 11
255.51441
 21
114.578363
 31
0.0
  0
LINE
  5
462
100
AcDbEntity
  8
1
370
    30
  6
Continuous
 62
     7
100
AcDbLine
 10
180.264385
 20
193.828363
 30
0.0
 11
252.26441
 21
193.828363
 31
0.0
  0
LINE
  5
463
100
AcDbEntity
  8
1
370
    30
  6
Continuous
 62
     7
100
AcDbLine
 10
250.51441
 20
188.078363
 30
0.0
 11
182.014385
 21
188.078363
 31
0.0
  0
ARC
  5
464
100
AcDbEntity
  8
1
370
    30
  6
Continuous
 62
     7
100
AcDbCircle
 10
249.76441
 20
182.328363
 30
0.0
 40
5.0
100
AcDbArc
 50
0.0
 51
90.0
  0
ARC
  5
465
100
AcDbEntity
  8
1
370
    30
  6
Continuous
 62
     7
100
AcDbCircle
 10
249.76441
 20
182.328363
 30
0.0
 40
4.0
100
AcDbArc
 50
0.0
 51
90.0
  0
ARC
  5
466
100
AcDbEntity
  8
1
370
    30
  6
Continuous
 62
     7
100
AcDbCircle
 10
249.51441
 20
182.078363
 30
0.0
 40
4.0
100
AcDbArc
 50
0.0
 51
90.0
  0
LINE
  5
467
100
AcDbEntity
  8
1
370
    30
  6
Continuous
 62
     7
100
AcDbLine
 10
249.76441
 20
187.328363
 30
0.0
 11
182.764385
 21
187.328363
 31
0.0
  0
ARC
  5
468
100
AcDbEntity
  8
1
370
    30
  6
Continuous
 62
     7
100
AcDbCircle
 10
250.51441
 20
183.078363
 30
0.0
 40
5.0
100
AcDbArc
 50
0.0
 51
90.0
  0
ARC
  5
469
100
AcDbEntity
  8
1
370
    30
  6
Continuous
 62
     7
100
AcDbCircle
 10
249.26441
 20
181.828388
 30
0.0
 40
2.0
100
AcDbArc
 50
0.0
 51
90.0
  0
ARC
  5
46A
100
AcDbEntity
  8
1
370
    30
  6
Continuous
 62
     7
100
AcDbCircle
 10
252.26441
 20
189.828363
 30
0.0
 40
4.0
100
AcDbArc
 50
0.0
 51
90.0001
  0
LINE
  5
46B
100
AcDbEntity
  8
1
370
    30
  6
Continuous
 62
     7
100
AcDbLine
 10
176.264385
 20
189.828363
 30
0.0
 11
176.264385
 21
107.828388
 31
0.0
  0
LINE
  5
46C
100
AcDbEntity
  8
1
370
    30
  6
Continuous
 62
     7
100
AcDbLine
 10
177.014385
 20
114.578363
 30
0.0
 11
177.014385
 21
183.078363
 31
0.0
  0
ARC
  5
46D
100
AcDbEntity
  8
1
370
    30
  6
Continuous
 62
     7
100
AcDbCircle
 10
183.014385
 20
182.078363
 30
0.0
 40
4.0
100
AcDbArc
 50
90.0
 51
180.0
  0
ARC
  5
46E
100
AcDbEntity
  8
1
370
    30
  6
Continuous
 62
     7
100
AcDbCircle
 10
182.764385
 20
182.328363
 30
0.0
 40
4.0
100
AcDbArc
 50
90.0
 51
180.0
  0
ARC
  5
46F
100
AcDbEntity
  8
1
370
    30
  6
Continuous
 62
     7
100
AcDbCircle
 10
182.764385
 20
182.328363
 30
0.0
 40
5.0
100
AcDbArc
 50
90.0
 51
180.0
  0
ARC
  5
470
100
AcDbEntity
  8
1
370
    30
  6
Continuous
 62
     7
100
AcDbCircle
 10
182.014385
 20
183.078363
 30
0.0
 40
5.0
100
AcDbArc
 50
90.0
 51
-179.9999
  0
ARC
  5
471
100
AcDbEntity
  8
1
370
    30
  6
Continuous
 62
     7
100
AcDbCircle
 10
183.264385
 20
181.828388
 30
0.0
 40
2.0
100
AcDbArc
 50
90.0
 51
180.0
  0
ARC
  5
472
100
AcDbEntity
  8
1
370
    30
  6
Continuous
 62
     7
100
AcDbCircle
 10
180.26436
 20
189.828363
 30
0.0
 40
4.0
100
AcDbArc
 50
89.999642
 51
179.999842
  0
ARC
  5
473
100
AcDbEntity
  8
1
370
    30
  6
Continuous
 62
     7
100
AcDbCircle
 10
182.764385
 20
115.328338
 30
0.0
 40
5.0
100
AcDbArc
 50
179.999714
 51
-90.000086
  0
ARC
  5
474
100
AcDbEntity
  8
1
370
    30
  6
Continuous
 62
     7
100
AcDbCircle
 10
182.764385
 20
115.328388
 30
0.0
 40
4.0
100
AcDbArc
 50
180.0
 51
-90.0
  0
ARC
  5
475
100
AcDbEntity
  8
1
370
    30
  6
Continuous
 62
     7
100
AcDbCircle
 10
183.014385
 20
115.578388
 30
0.0
 40
4.0
100
AcDbArc
 50
180.0
 51
-90.0
  0
ARC
  5
476
100
AcDbEntity
  8
1
370
    30
  6
Continuous
 62
     7
100
AcDbCircle
 10
182.014385
 20
114.578363
 30
0.0
 40
5.0
100
AcDbArc
 50
179.999714
 51
-89.999786
  0
ARC
  5
477
100
AcDbEntity
  8
1
370
    30
  6
Continuous
 62
     7
100
AcDbCircle
 10
183.264385
 20
115.828388
 30
0.0
 40
2.0
100
AcDbArc
 50
180.0
 51
-90.0
  0
ARC
  5
478
100
AcDbEntity
  8
1
370
    30
  6
Continuous
 62
     7
100
AcDbCircle
 10
180.26436
 20
107.828363
 30
0.0
 40
3.999975
100
AcDbArc
 50
179.999642
 51
-90.000158
  0
LINE
  5
479
100
AcDbEntity
  8
1
370
    30
  6
Continuous
 62
     7
100
AcDbLine
 10
179.014385
 20
182.078363
 30
0.0
 11
179.014385
 21
115.578363
 31
0.0
  0
LINE
  5
47A
100
AcDbEntity
  8
1
370
    30
  6
Continuous
 62
     7
100
AcDbLine
 10
178.764385
 20
182.328363
 30
0.0
 11
178.764385
 21
115.328363
 31
0.0
  0
LINE
  5
47B
100
AcDbEntity
  8
1
370
    30
  6
Continuous
 62
     7
100
AcDbLine
 10
177.764385
 20
115.328388
 30
0.0
 11
177.764385
 21
182.328363
 31
0.0
  0
ARC
  5
47C
100
AcDbEntity
  8
1
370
    30
  6
Continuous
 62
     7
100
AcDbCircle
 10
249.76441
 20
115.328388
 30
0.0
 40
4.0
100
AcDbArc
 50
-90.0
 51
0.0
  0
ARC
  5
47D
100
AcDbEntity
  8
1
370
    30
  6
Continuous
 62
     7
100
AcDbCircle
 10
249.51441
 20
115.578388
 30
0.0
 40
4.0
100
AcDbArc
 50
-90.0
 51
0.0
  0
ARC
  5
47E
100
AcDbEntity
  8
1
370
    30
  6
Continuous
 62
     7
100
AcDbCircle
 10
249.76441
 20
115.328338
 30
0.0
 40
5.0
100
AcDbArc
 50
-90.0
 51
0.0002
  0
LINE
  5
47F
100
AcDbEntity
  8
1
370
    30
  6
Continuous
 62
     7
100
AcDbLine
 10
249.51441
 20
111.578388
 30
0.0
 11
183.014385
 21
111.578388
 31
0.0
  0
LINE
  5
480
100
AcDbEntity
  8
1
370
    30
  6
Continuous
 62
     7
100
AcDbLine
 10
249.76441
 20
111.328388
 30
0.0
 11
182.764385
 21
111.328388
 31
0.0
  0
LINE
  5
481
100
AcDbEntity
  8
1
370
    30
  6
Continuous
 62
     7
100
AcDbLine
 10
249.76441
 20
110.328388
 30
0.0
 11
182.764385
 21
110.328388
 31
0.0
  0
LINE
  5
482
100
AcDbEntity
  8
1
370
    30
  6
Continuous
 62
     7
100
AcDbLine
 10
180.264385
 20
103.828388
 30
0.0
 11
252.26441
 21
103.828388
 31
0.0
  0
ARC
  5
483
100
AcDbEntity
  8
1
370
    30
  6
Continuous
 62
     7
100
AcDbCircle
 10
250.51441
 20
114.578363
 30
0.0
 40
5.0
100
AcDbArc
 50
-90.0
 51
0.0004
  0
LINE
  5
484
100
AcDbEntity
  8
1
370
    30
  6
Continuous
 62
     7
100
AcDbLine
 10
250.51441
 20
109.578363
 30
0.0
 11
182.014385
 21
109.578363
 31
0.0
  0
ARC
  5
485
100
AcDbEntity
  8
1
370
    30
  6
Continuous
 62
     7
100
AcDbCircle
 10
252.26441
 20
107.828363
 30
0.0
 40
3.999975
100
AcDbArc
 50
-90.0
 51
0.0003
  0
LINE
  5
486
100
AcDbEntity
  8
1
370
    30
  6
CENTER
 62
     7
100
AcDbLine
 10
216.26436
 20
195.828363
 30
0.0
 11
216.26436
 21
100.828363
 31
0.0
  0
LINE
  5
487
100
AcDbEntity
  8
1
370
    30
  6
CENTER
 62
     7
100
AcDbLine
 10
173.46436
 20
148.828363
 30
0.0
 11
184.46436
 21
148.828363
 31
0.0
  0
LINE
  5
488
100
AcDbEntity
  8
1
370
    30
  6
CENTER
 62
     7
100
AcDbLine
 10
219.780685
 20
115.478363
 30
0.0
 11
212.52036
 21
115.478363
 31
0.0
  0
LINE
  5
489
100
AcDbEntity
  8
1
370
    30
  6
CENTER
 62
     7
100
AcDbLine
 10
219.679235
 20
182.178388
 30
0.0
 11
212.586085
 21
182.178388
 31
0.0
  0
DIMENSION
  5
495
100
AcDbEntity
  8
1
370
    30
  6
Continuous
 62
     7
100
AcDbDimension
  2
*D10
 10
277.0
 20
115.478363
 30
0.0
 11
277.0
 21
148.828375
 31
0.0
 71
     5
 72
     1
 41
1.0
 42
0.0
  1
取付ピッチ66.7
100
AcDbAlignedDimension
 13
220.01436
 23
115.478363
 33
0.0
 14
219.51436
 24
182.178388
 34
0.0
 50
90.0
100
AcDbRotatedDimension
  0
TEXT
  5
496
100
AcDbEntity
  8
1
370
    30
  6
Continuous
 62
     7
100
AcDbText
 10
223.96436
 20
198.928388
 30
0.0
 40
5.0
  1
壁面取付穴　%%c4.5
 41
0.62963
 11
223.96436
 21
198.928388
 31
0.0
100
AcDbText
 73
     1
  0
TEXT
  5
497
100
AcDbEntity
  8
1
370
    30
  6
Continuous
 62
     7
100
AcDbText
 10
223.96436
 20
203.928388
 30
0.0
 40
5.0
  1
HOLES FOR WALL MOUNTING
 41
0.422018
 11
223.96436
 21
203.928388
 31
0.0
100
AcDbText
 73
     1
  0
LINE
  5
498
100
AcDbEntity
  8
1
370
    30
  6
Continuous
 62
     7
100
AcDbLine
 10
216.26436
 20
184.428388
 30
0.0
 11
216.775425
 21
187.384536
 31
0.0
  0
LINE
  5
499
100
AcDbEntity
  8
1
370
    30
  6
Continuous
 62
     7
100
AcDbLine
 10
216.26436
 20
184.428388
 30
0.0
 11
218.185029
 21
186.732955
 31
0.0
  0
POLYLINE
  5
49A
100
AcDbEntity
  8
1
370
    30
  6
Continuous
 62
     7
100
AcDb2dPolyline
 66
     1
 10
0.0
 20
0.0
 30
0.0
  0
VERTEX
  5
49B
100
AcDbEntity
  8
1
370
    30
  6
Continuous
 62
     7
100
AcDbVertex
100
AcDb2dVertex
 10
216.26436
 20
184.428388
 30
0.0
  0
VERTEX
  5
49C
100
AcDbEntity
  8
1
370
    30
  6
Continuous
 62
     7
100
AcDbVertex
100
AcDb2dVertex
 10
223.0
 20
199.0
 30
0.0
  0
VERTEX
  5
49D
100
AcDbEntity
  8
1
370
    30
  6
Continuous
 62
     7
100
AcDbVertex
100
AcDb2dVertex
 10
272.0
 20
199.0
 30
0.0
  0
SEQEND
  5
49E
100
AcDbEntity
  8
1
370
    30
  6
Continuous
 62
     7
  0
TEXT
  5
49F
100
AcDbEntity
  8
1
370
    30
  6
Continuous
 62
     7
100
AcDbText
 10
272.0
 20
199.0
 30
0.0
 40
4.0
  1
 
 41
0.833333
 11
272.0
 21
199.0
 31
0.0
100
AcDbText
 73
     1
  0
TEXT
  5
4A0
100
AcDbEntity
  8
1
370
    30
  6
Continuous
 62
     7
100
AcDbText
 10
271.0
 20
134.0
 30
0.0
 40
5.0
  1
MOUNTING PITCH
 50
90.0
 41
0.411765
 11
271.0
 21
134.0
 31
0.0
100
AcDbText
 73
     1
  0
LINE
  5
4A1
100
AcDbEntity
  8
1
370
    30
  6
Continuous
 62
     7
100
AcDbLine
 10
187.0
 20
92.0
 30
0.0
 11
207.0
 21
92.0
 31
0.0
  0
TEXT
  5
4A2
100
AcDbEntity
  8
1
370
    30
  6
Continuous
 62
     7
100
AcDbText
 10
189.0
 20
97.0
 30
0.0
 40
5.0
  1
SUB-BASE
 41
0.4
 11
189.0
 21
97.0
 31
0.0
100
AcDbText
 73
     1
  0
TEXT
  5
4A3
100
AcDbEntity
  8
1
370
    30
  6
Continuous
 62
     7
100
AcDbText
 10
187.0
 20
92.0
 30
0.0
 40
5.0
  1
サブベース
 41
0.666667
 11
187.0
 21
92.0
 31
0.0
100
AcDbText
 73
     1
  0
LINE
  5
4A4
100
AcDbEntity
  8
1
370
    30
  6
Continuous
 62
     7
100
AcDbLine
 10
218.203427
 20
113.748743
 30
0.0
 11
219.87744
 21
111.259228
 31
0.0
  0
LINE
  5
4A5
100
AcDbEntity
  8
1
370
    30
  6
Continuous
 62
     7
100
AcDbLine
 10
218.203427
 20
113.748743
 30
0.0
 11
218.408408
 21
110.755754
 31
0.0
  0
POLYLINE
  5
4A6
100
AcDbEntity
  8
1
370
    30
  6
Continuous
 62
     7
100
AcDb2dPolyline
 66
     1
 10
0.0
 20
0.0
 30
0.0
  0
VERTEX
  5
4A7
100
AcDbEntity
  8
1
370
    30
  6
Continuous
 62
     7
100
AcDbVertex
100
AcDb2dVertex
 10
218.203427
 20
113.748743
 30
0.0
  0
VERTEX
  5
4A8
100
AcDbEntity
  8
1
370
    30
  6
Continuous
 62
     7
100
AcDbVertex
100
AcDb2dVertex
 10
226.0
 20
91.0
 30
0.0
  0
VERTEX
  5
4A9
100
AcDbEntity
  8
1
370
    30
  6
Continuous
 62
     7
100
AcDbVertex
100
AcDb2dVertex
 10
275.02357
 20
91.0
 30
0.0
  0
SEQEND
  5
4AA
100
AcDbEntity
  8
1
370
    30
  6
Continuous
 62
     7
  0
TEXT
  5
4AB
100
AcDbEntity
  8
1
370
    30
  6
Continuous
 62
     7
100
AcDbText
 10
275.02357
 20
90.0
 30
0.0
 40
4.0
  1
 
 41
0.833333
 11
275.02357
 21
90.0
 31
0.0
100
AcDbText
 73
     1
  0
TEXT
  5
4AC
100
AcDbEntity
  8
1
370
    30
  6
Continuous
 62
     7
100
AcDbText
 10
226.96436
 20
90.928388
 30
0.0
 40
5.0
  1
壁面取付穴　%%c4.5×5.5
 41
0.60274
 11
226.96436
 21
90.928388
 31
0.0
100
AcDbText
 73
     1
  0
TEXT
  5
4AD
100
AcDbEntity
  8
1
370
    30
  6
Continuous
 62
     7
100
AcDbText
 10
226.96436
 20
95.928388
 30
0.0
 40
5.0
  1
HOLES FOR WALL MOUNTING
 41
0.422018
 11
226.96436
 21
95.928388
 31
0.0
100
AcDbText
 73
     1
  0
LINE
  5
4AE
100
AcDbEntity
  8
1
370
    30
  6
CENTER
 62
     7
100
AcDbLine
 10
235.46436
 20
148.828363
 30
0.0
 11
259.96441
 21
148.828363
 31
0.0
  0
LINE
  5
4AF
100
AcDbEntity
  8
1
370
    30
  6
CENTER
 62
     7
100
AcDbLine
 10
184.46436
 20
148.828363
 30
0.0
 11
235.46436
 21
148.828363
 31
0.0
  0
TEXT
  5
4B0
100
AcDbEntity
  8
1
370
    30
  6
Continuous
 62
     7
100
AcDbText
 10
314.0
 20
16.0
 30
0.0
 40
5.0
  1
１：１　　　ＡＨＳ－Ｃ１０９０
 41
0.666667
 11
314.0
 21
16.0
 31
0.0
100
AcDbText
 73
     1
  0
ENDSEC
  0
SECTION
  2
OBJECTS
  0
DICTIONARY
  5
19
100
AcDbDictionary
280
     0
281
     1
  3
ACAD_GROUP
350
1A
  3
ACAD_MLINESTYLE
350
1B
  3
ACAD_LAYOUT
350
1E
  3
ACAD_PLOTSETTINGS
350
22
  3
ACAD_PLOTSTYLENAME
350
1F
  3
ACAD_WIPEOUT_VARS
350
23
  0
DICTIONARY
  5
1A
102
{ACAD_REACTORS
330
19
102
}
100
AcDbDictionary
280
     0
281
     1
  0
DICTIONARY
  5
1B
102
{ACAD_REACTORS
330
19
102
}
100
AcDbDictionary
280
     0
281
     1
  3
Standard
350
1C
  0
MLINESTYLE
  5
1C
102
{ACAD_REACTORS
330
1B
102
}
100
AcDbMlineStyle
  2
Standard
 70
     0
  3

 62
     0
 51
90.0
 52
90.0
 71
     2
 49
0.5
 62
   256
  6
ByLayer
 49
-0.5
 62
   256
  6
ByLayer
  0
ACDBDICTIONARYWDFLT
  5
1F
102
{ACAD_REACTORS
330
19
102
}
100
AcDbDictionary
281
     1
  3
Normal
350
1D
100
AcDbDictionaryWithDefault
340
1D
  0
ACDBPLACEHOLDER
  5
1D
102
{ACAD_REACTORS
330
1F
102
}
  0
LAYOUT
  5
20
102
{ACAD_REACTORS
330
1E
102
}
100
AcDbPlotSettings
  1

  2

  4

  6

 40
0.0
 41
0.0
 42
0.0
 43
0.0
 44
0.0
 45
0.0
 46
0.0
 47
0.0
 48
0.0
 49
0.0
140
0.0
141
0.0
142
1.0
143
1.0
 70
  1024
 72
     0
 73
     0
 74
     0
  7

 75
     0
147
1.0
148
0.0
149
0.0
100
AcDbLayout
  1
Model
 70
     0
 71
     0
 10
0.0
 20
0.0
 11
0.0
 21
0.0
 12
0.0
 22
0.0
 32
0.0
 14
0.0
 24
0.0
 34
0.0
 15
0.0
 25
0.0
 35
0.0
146
0.0
 13
0.0
 23
0.0
 33
0.0
 16
0.0
 26
0.0
 36
0.0
 17
0.0
 27
0.0
 37
0.0
 76
     0
330
A
331
0
345
0
346
0
  0
LAYOUT
  5
21
102
{ACAD_REACTORS
330
1E
102
}
100
AcDbPlotSettings
  1

  2

  4

  6

 40
0.0
 41
0.0
 42
0.0
 43
0.0
 44
0.0
 45
0.0
 46
0.0
 47
0.0
 48
0.0
 49
0.0
140
0.0
141
0.0
142
1.0
143
1.0
 70
     0
 72
     0
 73
     0
 74
     0
  7

 75
     0
147
1.0
148
0.0
149
0.0
100
AcDbLayout
  1
Layout1
 70
     0
 71
     0
 10
0.0
 20
0.0
 11
0.0
 21
0.0
 12
0.0
 22
0.0
 32
0.0
 14
0.0
 24
0.0
 34
0.0
 15
0.0
 25
0.0
 35
0.0
146
0.0
 13
0.0
 23
0.0
 33
0.0
 16
0.0
 26
0.0
 36
0.0
 17
0.0
 27
0.0
 37
0.0
 76
     0
330
B
331
0
345
0
346
0
  0
DICTIONARY
  5
1E
102
{ACAD_REACTORS
330
19
102
}
100
AcDbDictionary
280
     0
281
     1
  3
Layout1
350
21
  3
Model
350
20
  0
DICTIONARY
  5
22
102
{ACAD_REACTORS
330
19
102
}
100
AcDbDictionary
280
     0
281
     1
  0
WIPEOUTVARIABLES
  5
23
100
AcDbWipeoutVariables
 70
     1
  0
ENDSEC
  0
EOF
