  0
SECTION
  2
HEADER
  9
$ACADVER
  1
AC1015
  9
$ACADMAINTVER
 70
     6
  9
$DWGCODEPAGE
  3
DOS932
  9
$INSBASE
 10
0.0
 20
0.0
 30
0.0
  9
$EXTMIN
 10
0.0
 20
0.0
 30
0.0
  9
$EXTMAX
 10
420.0
 20
297.0
 30
0.0
  9
$LIMMIN
 10
0.0
 20
0.0
  9
$LIMMAX
 10
420.0
 20
297.0
  9
$ORTHOMODE
 70
     0
  9
$REGENMODE
 70
     1
  9
$FILLMODE
 70
     1
  9
$QTEXTMODE
 70
     0
  9
$MIRRTEXT
 70
     1
  9
$LTSCALE
 40
0.25
  9
$ATTMODE
 70
     1
  9
$TEXTSIZE
 40
5.0
  9
$TRACEWID
 40
0.05
  9
$TEXTSTYLE
  7
Standard
  9
$CLAYER
  8
0
  9
$CELTYPE
  6
Continuous
  9
$CECOLOR
 62
   256
  9
$CELTSCALE
 40
1.0
  9
$DISPSILH
 70
     0
  9
$DIMSCALE
 40
1.0
  9
$DIMASZ
 40
4.0
  9
$DIMEXO
 40
2.0
  9
$DIMDLI
 40
10.0
  9
$DIMRND
 40
0.0
  9
$DIMDLE
 40
0.0
  9
$DIMEXE
 40
2.0
  9
$DIMTP
 40
0.0
  9
$DIMTM
 40
0.0
  9
$DIMTXT
 40
4.0
  9
$DIMCEN
 40
0.09
  9
$DIMTSZ
 40
0.0
  9
$DIMTOL
 70
     0
  9
$DIMLIM
 70
     0
  9
$DIMTIH
 70
     0
  9
$DIMTOH
 70
     0
  9
$DIMSE1
 70
     0
  9
$DIMSE2
 70
     0
  9
$DIMTAD
 70
     3
  9
$DIMZIN
 70
     0
  9
$DIMBLK
  1

  9
$DIMASO
 70
     1
  9
$DIMSHO
 70
     1
  9
$DIMPOST
  1

  9
$DIMAPOST
  1

  9
$DIMALT
 70
     0
  9
$DIMALTD
 70
     2
  9
$DIMALTF
 40
25.4
  9
$DIMLFAC
 40
1.0
  9
$DIMTOFL
 70
     1
  9
$DIMTVP
 40
0.7
  9
$DIMTIX
 70
     0
  9
$DIMSOXD
 70
     0
  9
$DIMSAH
 70
     0
  9
$DIMBLK1
  1

  9
$DIMBLK2
  1

  9
$DIMSTYLE
  2
Standard
  9
$DIMCLRD
 70
     0
  9
$DIMCLRE
 70
     0
  9
$DIMCLRT
 70
     0
  9
$DIMTFAC
 40
0.5
  9
$DIMGAP
 40
0.0
  9
$DIMJUST
 70
     0
  9
$DIMSD1
 70
     0
  9
$DIMSD2
 70
     0
  9
$DIMTOLJ
 70
     1
  9
$DIMTZIN
 70
     0
  9
$DIMALTZ
 70
     0
  9
$DIMALTTZ
 70
     0
  9
$DIMUPT
 70
     0
  9
$DIMDEC
 70
     2
  9
$DIMTDEC
 70
     4
  9
$DIMALTU
 70
     2
  9
$DIMALTTD
 70
     2
  9
$DIMTXSTY
  7
Standard
  9
$DIMAUNIT
 70
     0
  9
$DIMADEC
 70
     0
  9
$DIMALTRND
 40
0.0
  9
$DIMAZIN
 70
     0
  9
$DIMDSEP
 70
     0
  9
$DIMATFIT
 70
     3
  9
$DIMFRAC
 70
     0
  9
$DIMLDRBLK
  1

  9
$DIMLUNIT
 70
     2
  9
$DIMLWD
 70
     0
  9
$DIMLWE
 70
     0
  9
$DIMTMOVE
 70
     0
  9
$LUNITS
 70
     2
  9
$LUPREC
 70
     4
  9
$SKETCHINC
 40
0.1
  9
$FILLETRAD
 40
0.0
  9
$AUNITS
 70
     0
  9
$AUPREC
 70
     0
  9
$MENU
  1
acad
  9
$ELEVATION
 40
0.0
  9
$PELEVATION
 40
0.0
  9
$THICKNESS
 40
0.0
  9
$LIMCHECK
 70
     0
  9
$CHAMFERA
 40
0.0
  9
$CHAMFERB
 40
0.0
  9
$CHAMFERC
 40
0.0
  9
$CHAMFERD
 40
0.0
  9
$SKPOLY
 70
     0
  9
$TDCREATE
 40
2454203.413182871
  9
$TDUCREATE
 40
0.000000000
  9
$TDUPDATE
 40
2454203.413182871
  9
$TDUUPDATE
 40
0.000000000
  9
$TDINDWG
 40
0.0000000000
  9
$TDUSRTIMER
 40
0.0000000000
  9
$USRTIMER
 70
     1
  9
$ANGBASE
 50
0.0
  9
$ANGDIR
 70
     0
  9
$PDMODE
 70
     0
  9
$PDSIZE
 40
0.0
  9
$PLINEWID
 40
0.0
  9
$SPLFRAME
 70
     0
  9
$SPLINETYPE
 70
     6
  9
$SPLINESEGS
 70
     8
  9
$HANDSEED
  5
309
  9
$SURFTAB1
 70
     6
  9
$SURFTAB2
 70
     6
  9
$SURFTYPE
 70
     6
  9
$SURFU
 70
     6
  9
$SURFV
 70
     6
  9
$UCSBASE
  2

  9
$UCSNAME
  2

  9
$UCSORG
 10
0.0
 20
0.0
 30
0.0
  9
$UCSXDIR
 10
1.0
 20
0.0
 30
0.0
  9
$UCSYDIR
 10
0.0
 20
1.0
 30
0.0
  9
$UCSORTHOREF
  2

  9
$UCSORTHOVIEW
 70
     0
  9
$UCSORGTOP
 10
0.0
 20
0.0
 30
0.0
  9
$UCSORGBOTTOM
 10
0.0
 20
0.0
 30
0.0
  9
$UCSORGLEFT
 10
0.0
 20
0.0
 30
0.0
  9
$UCSORGRIGHT
 10
0.0
 20
0.0
 30
0.0
  9
$UCSORGFRONT
 10
0.0
 20
0.0
 30
0.0
  9
$UCSORGBACK
 10
0.0
 20
0.0
 30
0.0
  9
$PUCSBASE
  2

  9
$PUCSNAME
  2

  9
$PUCSORG
 10
0.0
 20
0.0
 30
0.0
  9
$PUCSXDIR
 10
1.0
 20
0.0
 30
0.0
  9
$PUCSYDIR
 10
0.0
 20
1.0
 30
0.0
  9
$PUCSORTHOREF
  2

  9
$PUCSORTHOVIEW
 70
     0
  9
$PUCSORGTOP
 10
0.0
 20
0.0
 30
0.0
  9
$PUCSORGBOTTOM
 10
0.0
 20
0.0
 30
0.0
  9
$PUCSORGLEFT
 10
0.0
 20
0.0
 30
0.0
  9
$PUCSORGRIGHT
 10
0.0
 20
0.0
 30
0.0
  9
$PUCSORGFRONT
 10
0.0
 20
0.0
 30
0.0
  9
$PUCSORGBACK
 10
0.0
 20
0.0
 30
0.0
  9
$USERI1
 70
     0
  9
$USERI2
 70
     0
  9
$USERI3
 70
     0
  9
$USERI4
 70
     0
  9
$USERI5
 70
     0
  9
$USERR1
 40
0.0
  9
$USERR2
 40
0.0
  9
$USERR3
 40
0.0
  9
$USERR4
 40
0.0
  9
$USERR5
 40
0.0
  9
$WORLDVIEW
 70
     1
  9
$SHADEDGE
 70
     3
  9
$SHADEDIF
 70
    70
  9
$TILEMODE
 70
     1
  9
$MAXACTVP
 70
    16
  9
$PINSBASE
 10
0.0
 20
0.0
 30
0.0
  9
$PLIMCHECK
 70
     0
  9
$PEXTMIN
 10
0.0
 20
0.0
 30
0.0
  9
$PEXTMAX
 10
420.0
 20
297.0
 30
0.0
  9
$PLIMMIN
 10
0.0
 20
0.0
  9
$PLIMMAX
 10
420.0
 20
297.0
  9
$UNITMODE
 70
     0
  9
$VISRETAIN
 70
     0
  9
$PLINEGEN
 70
     1
  9
$PSLTSCALE
 70
     0
  9
$TREEDEPTH
 70
  3020
  9
$CMLSTYLE
  2
Standard
  9
$CMLJUST
 70
     0
  9
$CMLSCALE
 40
1.0
  9
$PROXYGRAPHICS
 70
     0
  9
$MEASUREMENT
 70
     0
  9
$CELWEIGHT
370
     0
  9
$ENDCAPS
280
     0
  9
$JOINSTYLE
280
     0
  9
$LWDISPLAY
290
     0
  9
$INSUNITS
 70
     0
  9
$HYPERLINKBASE
  1

  9
$STYLESHEET
  1

  9
$XEDIT
290
     1
  9
$CEPSNTYPE
380
     0
  9
$PSTYLEMODE
290
     1
  9
$FINGERPRINTGUID
  2

  9
$VERSIONGUID
  2

  9
$EXTNAMES
290
     1
  9
$PSVPSCALE
 40
0.0
  0
ENDSEC
  0
SECTION
  2
CLASSES
  0
CLASS
  1
LWPOLYLINE
  2
AcDbPolyline
  3
AutoCAD 2000
 90
    32768
280
     0
281
     1
  0
CLASS
  1
IMAGE
  2
AcDbRasterImage
  3
ISM
 90
    32895
280
     0
281
     1
  0
CLASS
  1
OLE2FRAME
  2
AcDbOle2Frame
  3
AutoCAD 2000
 90
    32768
280
     0
281
     1
  0
CLASS
  1
HATCH
  2
AcDbHatch
  3
AutoCAD 2000
 90
    32768
280
     0
281
     1
  0
CLASS
  1
DICTIONARYVAR
  2
AcDbDictionaryVar
  3
AutoCAD 2000
 90
    32768
280
     0
281
     0
  0
CLASS
  1
RASTERVARIABLES
  2
AcDbRasterVariables
  3
ISM
 90
    32768
280
     0
281
     0
  0
CLASS
  1
IMAGEDEF
  2
AcDbRasterImageDef
  3
ISM
 90
    32768
280
     0
281
     0
  0
CLASS
  1
IMAGEDEF_REACTOR
  2
AcDbRasterImageDefReactor
  3
ISM
 90
    32769
280
     0
281
     0
  0
CLASS
  1
IDBUFFER
  2
AcDbIdBuffer
  3
AutoCAD 2000
 90
    32768
280
     0
281
     0
  0
CLASS
  1
SPATIAL_FILTER
  2
AcDbSpatialFilter
  3
AutoCAD 2000
 90
    32768
280
     0
281
     0
  0
CLASS
  1
XRECORD
  2
AcDbXrecord
  3
AutoCAD 2000
 90
    32768
280
     0
281
     0
  0
CLASS
  1
SORTENTSTABLE
  2
AcDbSortentsTable
  3
AutoCAD 2000
 90
    32768
280
     0
281
     0
  0
CLASS
  1
LAYER_INDEX
  2
AcDbLayerIndex
  3
AutoCAD 2000
 90
    32768
280
     0
281
     0
  0
CLASS
  1
SPATIAL_INDEX
  2
AcDbSpatialIndex
  3
AutoCAD 2000
 90
    32768
280
     0
281
     0
  0
CLASS
  1
OBJECT_PTR
  2
CAseDLPNTableRecord
  3
"ASE-LPNTableRecord"
 90
    32769
280
     0
281
     0
  0
CLASS
  1
LAYOUT
  2
AcDbLayout
  3
AutoCAD 2000
 90
        0
280
     0
281
     0
  0
CLASS
  1
PLOTSETTINGS
  2
AcDbPlotSettings
  3
AutoCAD 2000
 90
    32768
280
     0
281
     0
  0
CLASS
  1
ACDBDICTIONARYWDFLT
  2
AcDbDictionaryWithDefault
  3
AutoCAD 2000
 90
        0
280
     0
281
     0
  0
CLASS
  1
ACDBPLACEHOLDER
  2
AcDbPlaceHolder
  3
AutoCAD 2000
 90
        0
280
     0
281
     0
  0
CLASS
  1
VBA_PROJECT
  2
AcDbVbaProject
  3
acadvba
 90
    32768
280
     0
281
     0
  0
CLASS
  1
WIPEOUT
  2
AcDbWipeout
  3
WipeOut|AutoCAD Express Tool|expresstools@autodesk.com
 90
    32895
280
     0
281
     1
  0
CLASS
  1
WIPEOUTVARIABLES
  2
AcDbWipeoutVariables
  3
WipeOut|AutoCAD Express Tool|expresstools@autodesk.com
 90
        0
280
     0
281
     0
  0
CLASS
  1
RTEXT
  2
RText
  3
RText|AutoCAD Express Tool|expresstools@autodesk.com
 90
    32768
280
     0
281
     1
  0
CLASS
  1
ARCALIGNEDTEXT
  2
AcDbArcAlignedText
  3
ATEXT|AutoCAD Express Tool|expresstools@autodesk.com
 90
    32768
280
     0
281
     1
  0
ENDSEC
  0
SECTION
  2
TABLES
  0
TABLE
  2
VPORT
  5
7
100
AcDbSymbolTable
 70
     1
  0
VPORT
  5
15
100
AcDbSymbolTableRecord
100
AcDbViewportTableRecord
  2
*ACTIVE
 70
     0
 10
0.0
 20
0.0
 11
1.0
 21
1.0
 12
6.591288
 22
4.579184
 13
0.0
 23
0.0
 14
1.0
 24
1.0
 15
0.0
 25
0.0
 16
0.0
 26
0.0
 36
1.0
 17
0.0
 27
0.0
 37
0.0
 40
9.158369
 41
0.688564
 42
50.0
 43
0.0
 44
0.0
 50
0.0
 51
0.0
 71
     0
 72
   100
 73
     1
 74
     1
 75
     0
 76
     0
 77
     0
 78
     0
281
     0
 65
     0
110
0.0
120
0.0
130
0.0
111
1.0
121
0.0
131
0.0
112
0.0
122
1.0
132
0.0
345
0
346
0
 79
     0
146
0.0
  0
ENDTAB
  0
TABLE
  2
LTYPE
  5
4
100
AcDbSymbolTable
 70
     9
  0
LTYPE
  5
11
100
AcDbSymbolTableRecord
100
AcDbLinetypeTableRecord
  2
ByBlock
 70
    64
  3

 72
    65
 73
     0
 40
0.0
  0
LTYPE
  5
12
100
AcDbSymbolTableRecord
100
AcDbLinetypeTableRecord
  2
ByLayer
 70
    64
  3

 72
    65
 73
     0
 40
0.0
  0
LTYPE
  5
13
100
AcDbSymbolTableRecord
100
AcDbLinetypeTableRecord
  2
Continuous
 70
    64
  3
Solid line
 72
    65
 73
     0
 40
0.0
  0
LTYPE
  5
25
100
AcDbSymbolTableRecord
100
AcDbLinetypeTableRecord
  2
HIDDEN
 70
    64
  3
- - - - - - - - 
 72
    65
 73
     2
 40
12.6
 49
8.4
 74
     0
 49
-4.2
 74
     0
  0
LTYPE
  5
26
100
AcDbSymbolTableRecord
100
AcDbLinetypeTableRecord
  2
DOT
 70
    64
  3
･ ･ ･ ･ ･ ･ ･ ･ 
 72
    65
 73
     2
 40
8.0
 49
6.0
 74
     0
 49
-2.0
 74
     0
  0
LTYPE
  5
27
100
AcDbSymbolTableRecord
100
AcDbLinetypeTableRecord
  2
CENTER
 70
    64
  3
- ･ - ･ - ･ - ･ 
 72
    65
 73
     4
 40
50.5
 49
30.0
 74
     0
 49
-9.0
 74
     0
 49
2.5
 74
     0
 49
-9.0
 74
     0
  0
LTYPE
  5
28
100
AcDbSymbolTableRecord
100
AcDbLinetypeTableRecord
  2
PHANTOM
 70
    64
  3
- ･･ - ･･ - ･･ - ･･ 
 72
    65
 73
     6
 40
58.0
 49
30.0
 74
     0
 49
-9.0
 74
     0
 49
2.5
 74
     0
 49
-5.0
 74
     0
 49
2.5
 74
     0
 49
-9.0
 74
     0
  0
LTYPE
  5
29
100
AcDbSymbolTableRecord
100
AcDbLinetypeTableRecord
  2
ACAD_ISO06W100
 70
    64
  3
____ ... ____ ... ____
 72
    65
 73
     8
 40
37.5
 49
24.0
 74
     0
 49
-3.0
 74
     0
 49
0.5
 74
     0
 49
-3.0
 74
     0
 49
0.5
 74
     0
 49
-3.0
 74
     0
 49
0.5
 74
     0
 49
-3.0
 74
     0
  0
LTYPE
  5
2A
100
AcDbSymbolTableRecord
100
AcDbLinetypeTableRecord
  2
ACAD_ISO14W100
 70
    64
  3
__ . . . __ . . . __ . . . 
 72
    65
 73
     8
 40
25.5
 49
12.0
 74
     0
 49
-3.0
 74
     0
 49
0.5
 74
     0
 49
-3.0
 74
     0
 49
0.5
 74
     0
 49
-3.0
 74
     0
 49
0.5
 74
     0
 49
-3.0
 74
     0
  0
ENDTAB
  0
TABLE
  2
LAYER
  5
2
100
AcDbSymbolTable
 70
   129
  0
LAYER
  5
14
100
AcDbSymbolTableRecord
100
AcDbLayerTableRecord
  2
0
 70
     0
 62
     7
  6
Continuous
290
     1
370
    -3
390
1D
  0
LAYER
  5
2B
100
AcDbSymbolTableRecord
100
AcDbLayerTableRecord
  2
1
 70
     0
 62
     7
  6
Continuous
290
     1
370
    -3
390
1D
  0
LAYER
  5
2C
100
AcDbSymbolTableRecord
100
AcDbLayerTableRecord
  2
2
 70
     0
 62
     5
  6
Continuous
290
     1
370
    -3
390
1D
  0
LAYER
  5
2D
100
AcDbSymbolTableRecord
100
AcDbLayerTableRecord
  2
3
 70
     0
 62
    94
  6
Continuous
290
     1
370
    -3
390
1D
  0
LAYER
  5
2E
100
AcDbSymbolTableRecord
100
AcDbLayerTableRecord
  2
4
 70
     0
 62
     6
  6
Continuous
290
     1
370
    -3
390
1D
  0
LAYER
  5
2F
100
AcDbSymbolTableRecord
100
AcDbLayerTableRecord
  2
5
 70
     0
 62
     7
  6
Continuous
290
     1
370
    -3
390
1D
  0
LAYER
  5
30
100
AcDbSymbolTableRecord
100
AcDbLayerTableRecord
  2
6
 70
     0
 62
     7
  6
Continuous
290
     1
370
    -3
390
1D
  0
LAYER
  5
31
100
AcDbSymbolTableRecord
100
AcDbLayerTableRecord
  2
7
 70
     0
 62
     7
  6
Continuous
290
     1
370
    -3
390
1D
  0
LAYER
  5
32
100
AcDbSymbolTableRecord
100
AcDbLayerTableRecord
  2
8
 70
     0
 62
     7
  6
Continuous
290
     1
370
    -3
390
1D
  0
LAYER
  5
33
100
AcDbSymbolTableRecord
100
AcDbLayerTableRecord
  2
9
 70
     0
 62
     7
  6
Continuous
290
     1
370
    -3
390
1D
  0
LAYER
  5
34
100
AcDbSymbolTableRecord
100
AcDbLayerTableRecord
  2
10
 70
     0
 62
   253
  6
Continuous
290
     1
370
    -3
390
1D
  0
LAYER
  5
35
100
AcDbSymbolTableRecord
100
AcDbLayerTableRecord
  2
11
 70
     0
 62
     7
  6
Continuous
290
     1
370
    -3
390
1D
  0
LAYER
  5
36
100
AcDbSymbolTableRecord
100
AcDbLayerTableRecord
  2
12
 70
     0
 62
     7
  6
Continuous
290
     1
370
    -3
390
1D
  0
LAYER
  5
37
100
AcDbSymbolTableRecord
100
AcDbLayerTableRecord
  2
13
 70
     0
 62
     7
  6
Continuous
290
     1
370
    -3
390
1D
  0
LAYER
  5
38
100
AcDbSymbolTableRecord
100
AcDbLayerTableRecord
  2
14
 70
     0
 62
     7
  6
Continuous
290
     1
370
    -3
390
1D
  0
LAYER
  5
39
100
AcDbSymbolTableRecord
100
AcDbLayerTableRecord
  2
15
 70
     0
 62
     7
  6
Continuous
290
     1
370
    -3
390
1D
  0
LAYER
  5
3A
100
AcDbSymbolTableRecord
100
AcDbLayerTableRecord
  2
16
 70
     0
 62
     7
  6
Continuous
290
     1
370
    -3
390
1D
  0
LAYER
  5
3B
100
AcDbSymbolTableRecord
100
AcDbLayerTableRecord
  2
17
 70
     0
 62
     7
  6
Continuous
290
     1
370
    -3
390
1D
  0
LAYER
  5
3C
100
AcDbSymbolTableRecord
100
AcDbLayerTableRecord
  2
18
 70
     0
 62
     7
  6
Continuous
290
     1
370
    -3
390
1D
  0
LAYER
  5
3D
100
AcDbSymbolTableRecord
100
AcDbLayerTableRecord
  2
19
 70
     0
 62
     7
  6
Continuous
290
     1
370
    -3
390
1D
  0
LAYER
  5
3E
100
AcDbSymbolTableRecord
100
AcDbLayerTableRecord
  2
20
 70
     0
 62
     7
  6
Continuous
290
     1
370
    -3
390
1D
  0
LAYER
  5
3F
100
AcDbSymbolTableRecord
100
AcDbLayerTableRecord
  2
21
 70
     0
 62
     7
  6
Continuous
290
     1
370
    -3
390
1D
  0
LAYER
  5
40
100
AcDbSymbolTableRecord
100
AcDbLayerTableRecord
  2
22
 70
     0
 62
     7
  6
Continuous
290
     1
370
    -3
390
1D
  0
LAYER
  5
41
100
AcDbSymbolTableRecord
100
AcDbLayerTableRecord
  2
23
 70
     0
 62
     7
  6
Continuous
290
     1
370
    -3
390
1D
  0
LAYER
  5
42
100
AcDbSymbolTableRecord
100
AcDbLayerTableRecord
  2
24
 70
     0
 62
     7
  6
Continuous
290
     1
370
    -3
390
1D
  0
LAYER
  5
43
100
AcDbSymbolTableRecord
100
AcDbLayerTableRecord
  2
25
 70
     0
 62
     7
  6
Continuous
290
     1
370
    -3
390
1D
  0
LAYER
  5
44
100
AcDbSymbolTableRecord
100
AcDbLayerTableRecord
  2
26
 70
     0
 62
     7
  6
Continuous
290
     1
370
    -3
390
1D
  0
LAYER
  5
45
100
AcDbSymbolTableRecord
100
AcDbLayerTableRecord
  2
27
 70
     0
 62
     7
  6
Continuous
290
     1
370
    -3
390
1D
  0
LAYER
  5
46
100
AcDbSymbolTableRecord
100
AcDbLayerTableRecord
  2
28
 70
     0
 62
     7
  6
Continuous
290
     1
370
    -3
390
1D
  0
LAYER
  5
47
100
AcDbSymbolTableRecord
100
AcDbLayerTableRecord
  2
29
 70
     0
 62
     7
  6
Continuous
290
     1
370
    -3
390
1D
  0
LAYER
  5
48
100
AcDbSymbolTableRecord
100
AcDbLayerTableRecord
  2
30
 70
     0
 62
     7
  6
Continuous
290
     1
370
    -3
390
1D
  0
LAYER
  5
49
100
AcDbSymbolTableRecord
100
AcDbLayerTableRecord
  2
31
 70
     0
 62
     7
  6
Continuous
290
     1
370
    -3
390
1D
  0
LAYER
  5
4A
100
AcDbSymbolTableRecord
100
AcDbLayerTableRecord
  2
32
 70
     0
 62
     7
  6
Continuous
290
     1
370
    -3
390
1D
  0
LAYER
  5
4B
100
AcDbSymbolTableRecord
100
AcDbLayerTableRecord
  2
33
 70
     0
 62
     7
  6
Continuous
290
     1
370
    -3
390
1D
  0
LAYER
  5
4C
100
AcDbSymbolTableRecord
100
AcDbLayerTableRecord
  2
34
 70
     0
 62
     7
  6
Continuous
290
     1
370
    -3
390
1D
  0
LAYER
  5
4D
100
AcDbSymbolTableRecord
100
AcDbLayerTableRecord
  2
35
 70
     0
 62
     7
  6
Continuous
290
     1
370
    -3
390
1D
  0
LAYER
  5
4E
100
AcDbSymbolTableRecord
100
AcDbLayerTableRecord
  2
36
 70
     0
 62
     7
  6
Continuous
290
     1
370
    -3
390
1D
  0
LAYER
  5
4F
100
AcDbSymbolTableRecord
100
AcDbLayerTableRecord
  2
37
 70
     0
 62
     7
  6
Continuous
290
     1
370
    -3
390
1D
  0
LAYER
  5
50
100
AcDbSymbolTableRecord
100
AcDbLayerTableRecord
  2
38
 70
     0
 62
     7
  6
Continuous
290
     1
370
    -3
390
1D
  0
LAYER
  5
51
100
AcDbSymbolTableRecord
100
AcDbLayerTableRecord
  2
39
 70
     0
 62
     7
  6
Continuous
290
     1
370
    -3
390
1D
  0
LAYER
  5
52
100
AcDbSymbolTableRecord
100
AcDbLayerTableRecord
  2
40
 70
     0
 62
     7
  6
Continuous
290
     1
370
    -3
390
1D
  0
LAYER
  5
53
100
AcDbSymbolTableRecord
100
AcDbLayerTableRecord
  2
41
 70
     0
 62
     7
  6
Continuous
290
     1
370
    -3
390
1D
  0
LAYER
  5
54
100
AcDbSymbolTableRecord
100
AcDbLayerTableRecord
  2
42
 70
     0
 62
     7
  6
Continuous
290
     1
370
    -3
390
1D
  0
LAYER
  5
55
100
AcDbSymbolTableRecord
100
AcDbLayerTableRecord
  2
43
 70
     0
 62
     7
  6
Continuous
290
     1
370
    -3
390
1D
  0
LAYER
  5
56
100
AcDbSymbolTableRecord
100
AcDbLayerTableRecord
  2
44
 70
     0
 62
     7
  6
Continuous
290
     1
370
    -3
390
1D
  0
LAYER
  5
57
100
AcDbSymbolTableRecord
100
AcDbLayerTableRecord
  2
45
 70
     0
 62
     7
  6
Continuous
290
     1
370
    -3
390
1D
  0
LAYER
  5
58
100
AcDbSymbolTableRecord
100
AcDbLayerTableRecord
  2
46
 70
     0
 62
     7
  6
Continuous
290
     1
370
    -3
390
1D
  0
LAYER
  5
59
100
AcDbSymbolTableRecord
100
AcDbLayerTableRecord
  2
47
 70
     0
 62
     7
  6
Continuous
290
     1
370
    -3
390
1D
  0
LAYER
  5
5A
100
AcDbSymbolTableRecord
100
AcDbLayerTableRecord
  2
48
 70
     0
 62
     7
  6
Continuous
290
     1
370
    -3
390
1D
  0
LAYER
  5
5B
100
AcDbSymbolTableRecord
100
AcDbLayerTableRecord
  2
49
 70
     0
 62
     7
  6
Continuous
290
     1
370
    -3
390
1D
  0
LAYER
  5
5C
100
AcDbSymbolTableRecord
100
AcDbLayerTableRecord
  2
50
 70
     0
 62
     7
  6
Continuous
290
     1
370
    -3
390
1D
  0
LAYER
  5
5D
100
AcDbSymbolTableRecord
100
AcDbLayerTableRecord
  2
51
 70
     0
 62
     7
  6
Continuous
290
     1
370
    -3
390
1D
  0
LAYER
  5
5E
100
AcDbSymbolTableRecord
100
AcDbLayerTableRecord
  2
52
 70
     0
 62
     7
  6
Continuous
290
     1
370
    -3
390
1D
  0
LAYER
  5
5F
100
AcDbSymbolTableRecord
100
AcDbLayerTableRecord
  2
53
 70
     0
 62
     7
  6
Continuous
290
     1
370
    -3
390
1D
  0
LAYER
  5
60
100
AcDbSymbolTableRecord
100
AcDbLayerTableRecord
  2
54
 70
     0
 62
     7
  6
Continuous
290
     1
370
    -3
390
1D
  0
LAYER
  5
61
100
AcDbSymbolTableRecord
100
AcDbLayerTableRecord
  2
55
 70
     0
 62
     7
  6
Continuous
290
     1
370
    -3
390
1D
  0
LAYER
  5
62
100
AcDbSymbolTableRecord
100
AcDbLayerTableRecord
  2
56
 70
     0
 62
     7
  6
Continuous
290
     1
370
    -3
390
1D
  0
LAYER
  5
63
100
AcDbSymbolTableRecord
100
AcDbLayerTableRecord
  2
57
 70
     0
 62
     7
  6
Continuous
290
     1
370
    -3
390
1D
  0
LAYER
  5
64
100
AcDbSymbolTableRecord
100
AcDbLayerTableRecord
  2
58
 70
     0
 62
     7
  6
Continuous
290
     1
370
    -3
390
1D
  0
LAYER
  5
65
100
AcDbSymbolTableRecord
100
AcDbLayerTableRecord
  2
59
 70
     0
 62
     7
  6
Continuous
290
     1
370
    -3
390
1D
  0
LAYER
  5
66
100
AcDbSymbolTableRecord
100
AcDbLayerTableRecord
  2
60
 70
     0
 62
     7
  6
Continuous
290
     1
370
    -3
390
1D
  0
LAYER
  5
67
100
AcDbSymbolTableRecord
100
AcDbLayerTableRecord
  2
61
 70
     0
 62
     7
  6
Continuous
290
     1
370
    -3
390
1D
  0
LAYER
  5
68
100
AcDbSymbolTableRecord
100
AcDbLayerTableRecord
  2
62
 70
     0
 62
     7
  6
Continuous
290
     1
370
    -3
390
1D
  0
LAYER
  5
69
100
AcDbSymbolTableRecord
100
AcDbLayerTableRecord
  2
63
 70
     0
 62
     7
  6
Continuous
290
     1
370
    -3
390
1D
  0
LAYER
  5
6A
100
AcDbSymbolTableRecord
100
AcDbLayerTableRecord
  2
64
 70
     0
 62
     7
  6
Continuous
290
     1
370
    -3
390
1D
  0
LAYER
  5
6B
100
AcDbSymbolTableRecord
100
AcDbLayerTableRecord
  2
65
 70
     0
 62
     7
  6
Continuous
290
     1
370
    -3
390
1D
  0
LAYER
  5
6C
100
AcDbSymbolTableRecord
100
AcDbLayerTableRecord
  2
66
 70
     0
 62
     7
  6
Continuous
290
     1
370
    -3
390
1D
  0
LAYER
  5
6D
100
AcDbSymbolTableRecord
100
AcDbLayerTableRecord
  2
67
 70
     0
 62
     7
  6
Continuous
290
     1
370
    -3
390
1D
  0
LAYER
  5
6E
100
AcDbSymbolTableRecord
100
AcDbLayerTableRecord
  2
68
 70
     0
 62
     7
  6
Continuous
290
     1
370
    -3
390
1D
  0
LAYER
  5
6F
100
AcDbSymbolTableRecord
100
AcDbLayerTableRecord
  2
69
 70
     0
 62
     7
  6
Continuous
290
     1
370
    -3
390
1D
  0
LAYER
  5
70
100
AcDbSymbolTableRecord
100
AcDbLayerTableRecord
  2
70
 70
     0
 62
     7
  6
Continuous
290
     1
370
    -3
390
1D
  0
LAYER
  5
71
100
AcDbSymbolTableRecord
100
AcDbLayerTableRecord
  2
71
 70
     0
 62
     7
  6
Continuous
290
     1
370
    -3
390
1D
  0
LAYER
  5
72
100
AcDbSymbolTableRecord
100
AcDbLayerTableRecord
  2
72
 70
     0
 62
     7
  6
Continuous
290
     1
370
    -3
390
1D
  0
LAYER
  5
73
100
AcDbSymbolTableRecord
100
AcDbLayerTableRecord
  2
73
 70
     0
 62
     7
  6
Continuous
290
     1
370
    -3
390
1D
  0
LAYER
  5
74
100
AcDbSymbolTableRecord
100
AcDbLayerTableRecord
  2
74
 70
     0
 62
     7
  6
Continuous
290
     1
370
    -3
390
1D
  0
LAYER
  5
75
100
AcDbSymbolTableRecord
100
AcDbLayerTableRecord
  2
75
 70
     0
 62
     7
  6
Continuous
290
     1
370
    -3
390
1D
  0
LAYER
  5
76
100
AcDbSymbolTableRecord
100
AcDbLayerTableRecord
  2
76
 70
     0
 62
     7
  6
Continuous
290
     1
370
    -3
390
1D
  0
LAYER
  5
77
100
AcDbSymbolTableRecord
100
AcDbLayerTableRecord
  2
77
 70
     0
 62
     7
  6
Continuous
290
     1
370
    -3
390
1D
  0
LAYER
  5
78
100
AcDbSymbolTableRecord
100
AcDbLayerTableRecord
  2
78
 70
     0
 62
     7
  6
Continuous
290
     1
370
    -3
390
1D
  0
LAYER
  5
79
100
AcDbSymbolTableRecord
100
AcDbLayerTableRecord
  2
79
 70
     0
 62
     7
  6
Continuous
290
     1
370
    -3
390
1D
  0
LAYER
  5
7A
100
AcDbSymbolTableRecord
100
AcDbLayerTableRecord
  2
80
 70
     0
 62
     7
  6
Continuous
290
     1
370
    -3
390
1D
  0
LAYER
  5
7B
100
AcDbSymbolTableRecord
100
AcDbLayerTableRecord
  2
81
 70
     0
 62
     7
  6
Continuous
290
     1
370
    -3
390
1D
  0
LAYER
  5
7C
100
AcDbSymbolTableRecord
100
AcDbLayerTableRecord
  2
82
 70
     0
 62
     7
  6
Continuous
290
     1
370
    -3
390
1D
  0
LAYER
  5
7D
100
AcDbSymbolTableRecord
100
AcDbLayerTableRecord
  2
83
 70
     0
 62
     7
  6
Continuous
290
     1
370
    -3
390
1D
  0
LAYER
  5
7E
100
AcDbSymbolTableRecord
100
AcDbLayerTableRecord
  2
84
 70
     0
 62
     7
  6
Continuous
290
     1
370
    -3
390
1D
  0
LAYER
  5
7F
100
AcDbSymbolTableRecord
100
AcDbLayerTableRecord
  2
85
 70
     0
 62
     7
  6
Continuous
290
     1
370
    -3
390
1D
  0
LAYER
  5
80
100
AcDbSymbolTableRecord
100
AcDbLayerTableRecord
  2
86
 70
     0
 62
     7
  6
Continuous
290
     1
370
    -3
390
1D
  0
LAYER
  5
81
100
AcDbSymbolTableRecord
100
AcDbLayerTableRecord
  2
87
 70
     0
 62
     7
  6
Continuous
290
     1
370
    -3
390
1D
  0
LAYER
  5
82
100
AcDbSymbolTableRecord
100
AcDbLayerTableRecord
  2
88
 70
     0
 62
     7
  6
Continuous
290
     1
370
    -3
390
1D
  0
LAYER
  5
83
100
AcDbSymbolTableRecord
100
AcDbLayerTableRecord
  2
89
 70
     0
 62
     7
  6
Continuous
290
     1
370
    -3
390
1D
  0
LAYER
  5
84
100
AcDbSymbolTableRecord
100
AcDbLayerTableRecord
  2
90
 70
     0
 62
     7
  6
Continuous
290
     1
370
    -3
390
1D
  0
LAYER
  5
85
100
AcDbSymbolTableRecord
100
AcDbLayerTableRecord
  2
91
 70
     0
 62
     7
  6
Continuous
290
     1
370
    -3
390
1D
  0
LAYER
  5
86
100
AcDbSymbolTableRecord
100
AcDbLayerTableRecord
  2
92
 70
     0
 62
     7
  6
Continuous
290
     1
370
    -3
390
1D
  0
LAYER
  5
87
100
AcDbSymbolTableRecord
100
AcDbLayerTableRecord
  2
93
 70
     0
 62
     7
  6
Continuous
290
     1
370
    -3
390
1D
  0
LAYER
  5
88
100
AcDbSymbolTableRecord
100
AcDbLayerTableRecord
  2
94
 70
     0
 62
     7
  6
Continuous
290
     1
370
    -3
390
1D
  0
LAYER
  5
89
100
AcDbSymbolTableRecord
100
AcDbLayerTableRecord
  2
95
 70
     0
 62
     7
  6
Continuous
290
     1
370
    -3
390
1D
  0
LAYER
  5
8A
100
AcDbSymbolTableRecord
100
AcDbLayerTableRecord
  2
96
 70
     0
 62
     7
  6
Continuous
290
     1
370
    -3
390
1D
  0
LAYER
  5
8B
100
AcDbSymbolTableRecord
100
AcDbLayerTableRecord
  2
97
 70
     0
 62
     7
  6
Continuous
290
     1
370
    -3
390
1D
  0
LAYER
  5
8C
100
AcDbSymbolTableRecord
100
AcDbLayerTableRecord
  2
98
 70
     0
 62
     7
  6
Continuous
290
     1
370
    -3
390
1D
  0
LAYER
  5
8D
100
AcDbSymbolTableRecord
100
AcDbLayerTableRecord
  2
99
 70
     0
 62
     7
  6
Continuous
290
     1
370
    -3
390
1D
  0
LAYER
  5
8E
100
AcDbSymbolTableRecord
100
AcDbLayerTableRecord
  2
100
 70
     0
 62
     7
  6
Continuous
290
     1
370
    -3
390
1D
  0
LAYER
  5
8F
100
AcDbSymbolTableRecord
100
AcDbLayerTableRecord
  2
101
 70
     0
 62
     7
  6
Continuous
290
     1
370
    -3
390
1D
  0
LAYER
  5
90
100
AcDbSymbolTableRecord
100
AcDbLayerTableRecord
  2
102
 70
     0
 62
     7
  6
Continuous
290
     1
370
    -3
390
1D
  0
LAYER
  5
91
100
AcDbSymbolTableRecord
100
AcDbLayerTableRecord
  2
103
 70
     0
 62
     7
  6
Continuous
290
     1
370
    -3
390
1D
  0
LAYER
  5
92
100
AcDbSymbolTableRecord
100
AcDbLayerTableRecord
  2
104
 70
     0
 62
     7
  6
Continuous
290
     1
370
    -3
390
1D
  0
LAYER
  5
93
100
AcDbSymbolTableRecord
100
AcDbLayerTableRecord
  2
105
 70
     0
 62
     7
  6
Continuous
290
     1
370
    -3
390
1D
  0
LAYER
  5
94
100
AcDbSymbolTableRecord
100
AcDbLayerTableRecord
  2
106
 70
     0
 62
     7
  6
Continuous
290
     1
370
    -3
390
1D
  0
LAYER
  5
95
100
AcDbSymbolTableRecord
100
AcDbLayerTableRecord
  2
107
 70
     0
 62
     7
  6
Continuous
290
     1
370
    -3
390
1D
  0
LAYER
  5
96
100
AcDbSymbolTableRecord
100
AcDbLayerTableRecord
  2
108
 70
     0
 62
     7
  6
Continuous
290
     1
370
    -3
390
1D
  0
LAYER
  5
97
100
AcDbSymbolTableRecord
100
AcDbLayerTableRecord
  2
109
 70
     0
 62
     7
  6
Continuous
290
     1
370
    -3
390
1D
  0
LAYER
  5
98
100
AcDbSymbolTableRecord
100
AcDbLayerTableRecord
  2
110
 70
     0
 62
     7
  6
Continuous
290
     1
370
    -3
390
1D
  0
LAYER
  5
99
100
AcDbSymbolTableRecord
100
AcDbLayerTableRecord
  2
111
 70
     0
 62
     7
  6
Continuous
290
     1
370
    -3
390
1D
  0
LAYER
  5
9A
100
AcDbSymbolTableRecord
100
AcDbLayerTableRecord
  2
112
 70
     0
 62
     7
  6
Continuous
290
     1
370
    -3
390
1D
  0
LAYER
  5
9B
100
AcDbSymbolTableRecord
100
AcDbLayerTableRecord
  2
113
 70
     0
 62
     7
  6
Continuous
290
     1
370
    -3
390
1D
  0
LAYER
  5
9C
100
AcDbSymbolTableRecord
100
AcDbLayerTableRecord
  2
114
 70
     0
 62
     7
  6
Continuous
290
     1
370
    -3
390
1D
  0
LAYER
  5
9D
100
AcDbSymbolTableRecord
100
AcDbLayerTableRecord
  2
115
 70
     0
 62
     7
  6
Continuous
290
     1
370
    -3
390
1D
  0
LAYER
  5
9E
100
AcDbSymbolTableRecord
100
AcDbLayerTableRecord
  2
116
 70
     0
 62
     7
  6
Continuous
290
     1
370
    -3
390
1D
  0
LAYER
  5
9F
100
AcDbSymbolTableRecord
100
AcDbLayerTableRecord
  2
117
 70
     0
 62
     7
  6
Continuous
290
     1
370
    -3
390
1D
  0
LAYER
  5
A0
100
AcDbSymbolTableRecord
100
AcDbLayerTableRecord
  2
118
 70
     0
 62
     7
  6
Continuous
290
     1
370
    -3
390
1D
  0
LAYER
  5
A1
100
AcDbSymbolTableRecord
100
AcDbLayerTableRecord
  2
119
 70
     0
 62
     7
  6
Continuous
290
     1
370
    -3
390
1D
  0
LAYER
  5
A2
100
AcDbSymbolTableRecord
100
AcDbLayerTableRecord
  2
120
 70
     0
 62
     7
  6
Continuous
290
     1
370
    -3
390
1D
  0
LAYER
  5
A3
100
AcDbSymbolTableRecord
100
AcDbLayerTableRecord
  2
121
 70
     0
 62
     7
  6
Continuous
290
     1
370
    -3
390
1D
  0
LAYER
  5
A4
100
AcDbSymbolTableRecord
100
AcDbLayerTableRecord
  2
122
 70
     0
 62
     7
  6
Continuous
290
     1
370
    -3
390
1D
  0
LAYER
  5
A5
100
AcDbSymbolTableRecord
100
AcDbLayerTableRecord
  2
123
 70
     0
 62
     7
  6
Continuous
290
     1
370
    -3
390
1D
  0
LAYER
  5
A6
100
AcDbSymbolTableRecord
100
AcDbLayerTableRecord
  2
124
 70
     0
 62
     7
  6
Continuous
290
     1
370
    -3
390
1D
  0
LAYER
  5
A7
100
AcDbSymbolTableRecord
100
AcDbLayerTableRecord
  2
125
 70
     0
 62
     7
  6
Continuous
290
     1
370
    -3
390
1D
  0
LAYER
  5
A8
100
AcDbSymbolTableRecord
100
AcDbLayerTableRecord
  2
126
 70
     0
 62
     7
  6
Continuous
290
     1
370
    -3
390
1D
  0
LAYER
  5
A9
100
AcDbSymbolTableRecord
100
AcDbLayerTableRecord
  2
127
 70
     0
 62
     7
  6
Continuous
290
     1
370
    -3
390
1D
  0
LAYER
  5
AA
100
AcDbSymbolTableRecord
100
AcDbLayerTableRecord
  2
128
 70
     0
 62
     7
  6
Continuous
290
     1
370
    -3
390
1D
  0
ENDTAB
  0
TABLE
  2
STYLE
  5
3
100
AcDbSymbolTable
 70
     2
  0
STYLE
  5
17
100
AcDbSymbolTableRecord
100
AcDbTextStyleTableRecord
  2
Standard
 70
     0
 40
0.0
 41
1.0
 50
0.0
 71
     0
 42
0.0
  3
txt
  4
bigfont
  0
STYLE
  5
24
100
AcDbSymbolTableRecord
100
AcDbTextStyleTableRecord
  2
T_STANDARD
 70
    68
 40
10.0
 41
1.0
 50
0.0
 71
     0
 42
10.0
  3
txt
  4
bigfont
  0
ENDTAB
  0
TABLE
  2
VIEW
  5
5
100
AcDbSymbolTable
 70
     0
  0
ENDTAB
  0
TABLE
  2
UCS
  5
6
100
AcDbSymbolTable
 70
     0
  0
ENDTAB
  0
TABLE
  2
APPID
  5
8
100
AcDbSymbolTable
 70
     1
  0
APPID
  5
16
100
AcDbSymbolTableRecord
100
AcDbRegAppTableRecord
  2
ACAD
 70
     0
  0
ENDTAB
  0
TABLE
  2
DIMSTYLE
  5
9
100
AcDbSymbolTable
 70
     1
100
AcDbDimStyleTable
 71
     0
  0
DIMSTYLE
105
18
100
AcDbSymbolTableRecord
100
AcDbDimStyleTableRecord
  2
Standard
 70
     0
  3

  4

 40
1.0
 41
0.18
 42
0.0625
 43
0.38
 44
0.18
 45
0.0
 46
0.0
 47
0.0
 48
0.0
 71
     0
 72
     0
 73
     1
 74
     1
 75
     0
 76
     0
 77
     0
 78
     0
 79
     0
140
0.18
141
0.09
142
0.0
143
25.4
144
1.0
145
0.0
146
1.0
147
0.09
148
0.0
170
     0
171
     2
172
     0
173
     0
174
     0
175
     0
176
     0
177
     0
178
     0
179
     0
271
     4
272
     4
273
     2
274
     2
275
     0
276
     0
277
     2
278
    46
279
     0
280
     0
281
     0
282
     0
283
     1
284
     0
285
     0
286
     0
288
     0
340
17
341
0
342
0
343
0
344
0
371
    -2
372
    -2
  0
ENDTAB
  0
TABLE
  2
BLOCK_RECORD
  5
1
100
AcDbSymbolTable
 70
    12
  0
BLOCK_RECORD
  5
A
100
AcDbSymbolTableRecord
100
AcDbBlockTableRecord
  2
*MODEL_SPACE
340
20
  0
BLOCK_RECORD
  5
B
100
AcDbSymbolTableRecord
100
AcDbBlockTableRecord
  2
*PAPER_SPACE
340
21
  0
BLOCK_RECORD
  5
AB
100
AcDbSymbolTableRecord
100
AcDbBlockTableRecord
  2
*G0
340
0
102
{BLKREFS
331
AE
102
}
  0
BLOCK_RECORD
  5
241
100
AcDbSymbolTableRecord
100
AcDbBlockTableRecord
  2
*D1
340
0
  0
BLOCK_RECORD
  5
24D
100
AcDbSymbolTableRecord
100
AcDbBlockTableRecord
  2
*D2
340
0
  0
BLOCK_RECORD
  5
262
100
AcDbSymbolTableRecord
100
AcDbBlockTableRecord
  2
*G3
340
0
102
{BLKREFS
331
27D
102
}
  0
BLOCK_RECORD
  5
27E
100
AcDbSymbolTableRecord
100
AcDbBlockTableRecord
  2
*G4
340
0
102
{BLKREFS
331
299
102
}
  0
BLOCK_RECORD
  5
2A3
100
AcDbSymbolTableRecord
100
AcDbBlockTableRecord
  2
*D5
340
0
  0
BLOCK_RECORD
  5
2AE
100
AcDbSymbolTableRecord
100
AcDbBlockTableRecord
  2
*D6
340
0
  0
BLOCK_RECORD
  5
2BA
100
AcDbSymbolTableRecord
100
AcDbBlockTableRecord
  2
*D7
340
0
  0
BLOCK_RECORD
  5
2C5
100
AcDbSymbolTableRecord
100
AcDbBlockTableRecord
  2
*D8
340
0
  0
BLOCK_RECORD
  5
2D1
100
AcDbSymbolTableRecord
100
AcDbBlockTableRecord
  2
*D9
340
0
  0
BLOCK_RECORD
  5
2DD
100
AcDbSymbolTableRecord
100
AcDbBlockTableRecord
  2
*D10
340
0
  0
BLOCK_RECORD
  5
2E8
100
AcDbSymbolTableRecord
100
AcDbBlockTableRecord
  2
*D11
340
0
  0
ENDTAB
  0
ENDSEC
  0
SECTION
  2
BLOCKS
  0
BLOCK
  5
D
100
AcDbEntity
  8
0
100
AcDbBlockBegin
  2
*MODEL_SPACE
 70
     0
 10
0.0
 20
0.0
 30
0.0
  3
*MODEL_SPACE
  1

  0
ENDBLK
  5
E
100
AcDbEntity
  8
0
100
AcDbBlockEnd
  0
BLOCK
  5
F
100
AcDbEntity
 67
     1
  8
0
100
AcDbBlockBegin
  2
*PAPER_SPACE
 70
     0
 10
0.0
 20
0.0
 30
0.0
  3
*PAPER_SPACE
  1

  0
ENDBLK
  5
10
100
AcDbEntity
 67
     1
  8
0
100
AcDbBlockEnd
  0
BLOCK
  5
AC
100
AcDbEntity
  8
0
  6
Continuous
 62
     7
100
AcDbBlockBegin
  2
*G0
 70
     0
 10
0.0
 20
0.0
 30
0.0
  3
*G0
  1

  0
ENDBLK
  5
AD
100
AcDbEntity
  8
0
100
AcDbBlockEnd
  0
BLOCK
  5
242
100
AcDbEntity
  8
3
370
    30
  6
Continuous
 62
    94
100
AcDbBlockBegin
  2
*D1
 70
     0
 10
0.0
 20
0.0
 30
0.0
  3
*D1
  1

  0
LINE
  5
243
100
AcDbEntity
  8
3
370
    30
  6
Continuous
 62
    94
100
AcDbLine
 10
114.665284
 20
224.602429
 30
0.0
 11
237.665283
 21
224.602429
 31
0.0
  0
LINE
  5
244
100
AcDbEntity
  8
3
370
    30
  6
Continuous
 62
    94
100
AcDbLine
 10
114.665284
 20
225.602429
 30
0.0
 11
114.665284
 21
172.602999
 31
0.0
  0
LINE
  5
245
100
AcDbEntity
  8
3
370
    30
  6
Continuous
 62
    94
100
AcDbLine
 10
237.665283
 20
225.602429
 30
0.0
 11
237.665283
 21
172.602999
 31
0.0
  0
LINE
  5
246
100
AcDbEntity
  8
3
370
    30
  6
Continuous
 62
    94
100
AcDbLine
 10
114.665284
 20
224.602429
 30
0.0
 11
116.597136
 21
225.120067
 31
0.0
  0
LINE
  5
247
100
AcDbEntity
  8
3
370
    30
  6
Continuous
 62
    94
100
AcDbLine
 10
114.665284
 20
224.602429
 30
0.0
 11
116.597136
 21
224.084791
 31
0.0
  0
LINE
  5
248
100
AcDbEntity
  8
3
370
    30
  6
Continuous
 62
    94
100
AcDbLine
 10
237.665283
 20
224.602429
 30
0.0
 11
235.733432
 21
224.084791
 31
0.0
  0
LINE
  5
249
100
AcDbEntity
  8
3
370
    30
  6
Continuous
 62
    94
100
AcDbLine
 10
237.665283
 20
224.602429
 30
0.0
 11
235.733432
 21
225.120067
 31
0.0
  0
TEXT
  5
24A
100
AcDbEntity
  8
3
370
    30
  6
Continuous
 62
    94
100
AcDbText
 10
171.165284
 20
224.602429
 30
0.0
 40
4.0
  1
(123)
 41
0.5
 11
171.165284
 21
224.602429
 31
0.0
100
AcDbText
 73
     1
  0
ENDBLK
  5
24B
100
AcDbEntity
  8
3
370
    30
  6
Continuous
 62
    94
100
AcDbBlockEnd
  0
BLOCK
  5
24E
100
AcDbEntity
  8
3
370
    30
  6
Continuous
 62
    94
100
AcDbBlockBegin
  2
*D2
 70
     0
 10
0.0
 20
0.0
 30
0.0
  3
*D2
  1

  0
LINE
  5
24F
100
AcDbEntity
  8
3
370
    30
  6
Continuous
 62
    94
100
AcDbLine
 10
107.668131
 20
152.602999
 30
0.0
 11
107.668131
 21
180.603
 31
0.0
  0
LINE
  5
250
100
AcDbEntity
  8
3
370
    30
  6
Continuous
 62
    94
100
AcDbLine
 10
106.668131
 20
152.602999
 30
0.0
 11
124.582229
 21
152.602999
 31
0.0
  0
LINE
  5
251
100
AcDbEntity
  8
3
370
    30
  6
Continuous
 62
    94
100
AcDbLine
 10
106.668131
 20
180.603
 30
0.0
 11
124.582229
 21
180.603
 31
0.0
  0
LINE
  5
252
100
AcDbEntity
  8
3
370
    30
  6
Continuous
 62
    94
100
AcDbLine
 10
107.668131
 20
152.602999
 30
0.0
 11
107.150493
 21
154.53485
 31
0.0
  0
LINE
  5
253
100
AcDbEntity
  8
3
370
    30
  6
Continuous
 62
    94
100
AcDbLine
 10
107.668131
 20
152.602999
 30
0.0
 11
108.185769
 21
154.53485
 31
0.0
  0
LINE
  5
254
100
AcDbEntity
  8
3
370
    30
  6
Continuous
 62
    94
100
AcDbLine
 10
107.668131
 20
180.603
 30
0.0
 11
108.185769
 21
178.671148
 31
0.0
  0
LINE
  5
255
100
AcDbEntity
  8
3
370
    30
  6
Continuous
 62
    94
100
AcDbLine
 10
107.668131
 20
180.603
 30
0.0
 11
107.150493
 21
178.671148
 31
0.0
  0
TEXT
  5
256
100
AcDbEntity
  8
3
370
    30
  6
Continuous
 62
    94
100
AcDbText
 10
107.668131
 20
162.602999
 30
0.0
 40
4.0
  1
%%c28
 50
90.0
 41
0.666667
 11
107.668131
 21
162.602999
 31
0.0
100
AcDbText
 73
     1
  0
ENDBLK
  5
257
100
AcDbEntity
  8
3
370
    30
  6
Continuous
 62
    94
100
AcDbBlockEnd
  0
BLOCK
  5
263
100
AcDbEntity
  8
0
370
     9
  6
Continuous
 62
     7
100
AcDbBlockBegin
  2
*G3
 70
     0
 10
0.0
 20
0.0
 30
0.0
  3
*G3
  1

  0
LINE
  5
264
100
AcDbEntity
  8
2
370
    30
  6
Continuous
 62
     5
100
AcDbLine
 10
171.265284
 20
124.924999
 30
0.0
 11
171.525124
 21
125.225074
 31
0.0
  0
LINE
  5
265
100
AcDbEntity
  8
2
370
    30
  6
Continuous
 62
     5
100
AcDbLine
 10
171.525124
 20
125.225074
 30
0.0
 11
171.818564
 21
125.457246
 31
0.0
  0
LINE
  5
266
100
AcDbEntity
  8
2
370
    30
  6
Continuous
 62
     5
100
AcDbLine
 10
171.818564
 20
125.457246
 30
0.0
 11
172.142524
 21
125.627709
 31
0.0
  0
LINE
  5
267
100
AcDbEntity
  8
2
370
    30
  6
Continuous
 62
     5
100
AcDbLine
 10
172.142524
 20
125.627709
 30
0.0
 11
172.493922
 21
125.742649
 31
0.0
  0
LINE
  5
268
100
AcDbEntity
  8
2
370
    30
  6
Continuous
 62
     5
100
AcDbLine
 10
172.493922
 20
125.742649
 30
0.0
 11
172.869678
 21
125.80826
 31
0.0
  0
LINE
  5
269
100
AcDbEntity
  8
2
370
    30
  6
Continuous
 62
     5
100
AcDbLine
 10
172.869678
 20
125.80826
 30
0.0
 11
173.266711
 21
125.830728
 31
0.0
  0
LINE
  5
26A
100
AcDbEntity
  8
2
370
    30
  6
Continuous
 62
     5
100
AcDbLine
 10
173.266711
 20
125.830728
 30
0.0
 11
173.681941
 21
125.816244
 31
0.0
  0
LINE
  5
26B
100
AcDbEntity
  8
2
370
    30
  6
Continuous
 62
     5
100
AcDbLine
 10
173.681941
 20
125.816244
 30
0.0
 11
174.112286
 21
125.771
 31
0.0
  0
LINE
  5
26C
100
AcDbEntity
  8
2
370
    30
  6
Continuous
 62
     5
100
AcDbLine
 10
174.112286
 20
125.771
 30
0.0
 11
174.577257
 21
125.65579
 31
0.0
  0
LINE
  5
26D
100
AcDbEntity
  8
2
370
    30
  6
Continuous
 62
     5
100
AcDbLine
 10
174.577257
 20
125.65579
 30
0.0
 11
175.088153
 21
125.447921
 31
0.0
  0
LINE
  5
26E
100
AcDbEntity
  8
2
370
    30
  6
Continuous
 62
     5
100
AcDbLine
 10
175.088153
 20
125.447921
 30
0.0
 11
175.629567
 21
125.178341
 31
0.0
  0
LINE
  5
26F
100
AcDbEntity
  8
2
370
    30
  6
Continuous
 62
     5
100
AcDbLine
 10
175.629567
 20
125.178341
 30
0.0
 11
176.186098
 21
124.878
 31
0.0
  0
LINE
  5
270
100
AcDbEntity
  8
2
370
    30
  6
Continuous
 62
     5
100
AcDbLine
 10
176.186098
 20
124.878
 30
0.0
 11
176.742338
 21
124.577846
 31
0.0
  0
LINE
  5
271
100
AcDbEntity
  8
2
370
    30
  6
Continuous
 62
     5
100
AcDbLine
 10
176.742338
 20
124.577846
 30
0.0
 11
177.282887
 21
124.308828
 31
0.0
  0
LINE
  5
272
100
AcDbEntity
  8
2
370
    30
  6
Continuous
 62
     5
100
AcDbLine
 10
177.282887
 20
124.308828
 30
0.0
 11
177.792337
 21
124.101896
 31
0.0
  0
LINE
  5
273
100
AcDbEntity
  8
2
370
    30
  6
Continuous
 62
     5
100
AcDbLine
 10
177.792337
 20
124.101896
 30
0.0
 11
178.255285
 21
123.988
 31
0.0
  0
LINE
  5
274
100
AcDbEntity
  8
2
370
    30
  6
Continuous
 62
     5
100
AcDbLine
 10
178.255285
 20
123.988
 30
0.0
 11
178.683028
 21
123.944443
 31
0.0
  0
LINE
  5
275
100
AcDbEntity
  8
2
370
    30
  6
Continuous
 62
     5
100
AcDbLine
 10
178.683028
 20
123.944443
 30
0.0
 11
179.095078
 21
123.932021
 31
0.0
  0
LINE
  5
276
100
AcDbEntity
  8
2
370
    30
  6
Continuous
 62
     5
100
AcDbLine
 10
179.095078
 20
123.932021
 30
0.0
 11
179.488352
 21
123.956927
 31
0.0
  0
LINE
  5
277
100
AcDbEntity
  8
2
370
    30
  6
Continuous
 62
     5
100
AcDbLine
 10
179.488352
 20
123.956927
 30
0.0
 11
179.859772
 21
124.02535
 31
0.0
  0
LINE
  5
278
100
AcDbEntity
  8
2
370
    30
  6
Continuous
 62
     5
100
AcDbLine
 10
179.859772
 20
124.02535
 30
0.0
 11
180.206256
 21
124.143479
 31
0.0
  0
LINE
  5
279
100
AcDbEntity
  8
2
370
    30
  6
Continuous
 62
     5
100
AcDbLine
 10
180.206256
 20
124.143479
 30
0.0
 11
180.524723
 21
124.317502
 31
0.0
  0
LINE
  5
27A
100
AcDbEntity
  8
2
370
    30
  6
Continuous
 62
     5
100
AcDbLine
 10
180.524723
 20
124.317502
 30
0.0
 11
180.812094
 21
124.553613
 31
0.0
  0
LINE
  5
27B
100
AcDbEntity
  8
2
370
    30
  6
Continuous
 62
     5
100
AcDbLine
 10
180.812094
 20
124.553613
 30
0.0
 11
181.065284
 21
124.857999
 31
0.0
  0
ENDBLK
  5
27C
100
AcDbEntity
  8
0
100
AcDbBlockEnd
  0
BLOCK
  5
27F
100
AcDbEntity
  8
0
370
     9
  6
Continuous
 62
     7
100
AcDbBlockBegin
  2
*G4
 70
     0
 10
0.0
 20
0.0
 30
0.0
  3
*G4
  1

  0
LINE
  5
280
100
AcDbEntity
  8
2
370
    30
  6
Continuous
 62
     5
100
AcDbLine
 10
171.265284
 20
202.557999
 30
0.0
 11
171.461849
 21
202.817565
 31
0.0
  0
LINE
  5
281
100
AcDbEntity
  8
2
370
    30
  6
Continuous
 62
     5
100
AcDbLine
 10
171.461849
 20
202.817565
 30
0.0
 11
171.70861
 21
203.019277
 31
0.0
  0
LINE
  5
282
100
AcDbEntity
  8
2
370
    30
  6
Continuous
 62
     5
100
AcDbLine
 10
171.70861
 20
203.019277
 30
0.0
 11
172.000838
 21
203.168481
 31
0.0
  0
LINE
  5
283
100
AcDbEntity
  8
2
370
    30
  6
Continuous
 62
     5
100
AcDbLine
 10
172.000838
 20
203.168481
 30
0.0
 11
172.333797
 21
203.270524
 31
0.0
  0
LINE
  5
284
100
AcDbEntity
  8
2
370
    30
  6
Continuous
 62
     5
100
AcDbLine
 10
172.333797
 20
203.270524
 30
0.0
 11
172.702754
 21
203.330751
 31
0.0
  0
LINE
  5
285
100
AcDbEntity
  8
2
370
    30
  6
Continuous
 62
     5
100
AcDbLine
 10
172.702754
 20
203.330751
 30
0.0
 11
173.102978
 21
203.354508
 31
0.0
  0
LINE
  5
286
100
AcDbEntity
  8
2
370
    30
  6
Continuous
 62
     5
100
AcDbLine
 10
173.102978
 20
203.354508
 30
0.0
 11
173.529731
 21
203.347142
 31
0.0
  0
LINE
  5
287
100
AcDbEntity
  8
2
370
    30
  6
Continuous
 62
     5
100
AcDbLine
 10
173.529731
 20
203.347142
 30
0.0
 11
173.978285
 21
203.314
 31
0.0
  0
LINE
  5
288
100
AcDbEntity
  8
2
370
    30
  6
Continuous
 62
     5
100
AcDbLine
 10
173.978285
 20
203.314
 30
0.0
 11
174.478614
 21
203.22122
 31
0.0
  0
LINE
  5
289
100
AcDbEntity
  8
2
370
    30
  6
Continuous
 62
     5
100
AcDbLine
 10
174.478614
 20
203.22122
 30
0.0
 11
175.048073
 21
203.049202
 31
0.0
  0
LINE
  5
28A
100
AcDbEntity
  8
2
370
    30
  6
Continuous
 62
     5
100
AcDbLine
 10
175.048073
 20
203.049202
 30
0.0
 11
175.663
 21
202.824677
 31
0.0
  0
LINE
  5
28B
100
AcDbEntity
  8
2
370
    30
  6
Continuous
 62
     5
100
AcDbLine
 10
175.663
 20
202.824677
 30
0.0
 11
176.299722
 21
202.574375
 31
0.0
  0
LINE
  5
28C
100
AcDbEntity
  8
2
370
    30
  6
Continuous
 62
     5
100
AcDbLine
 10
176.299722
 20
202.574375
 30
0.0
 11
176.934579
 21
202.325025
 31
0.0
  0
LINE
  5
28D
100
AcDbEntity
  8
2
370
    30
  6
Continuous
 62
     5
100
AcDbLine
 10
176.934579
 20
202.325025
 30
0.0
 11
177.543902
 21
202.103359
 31
0.0
  0
LINE
  5
28E
100
AcDbEntity
  8
2
370
    30
  6
Continuous
 62
     5
100
AcDbLine
 10
177.543902
 20
202.103359
 30
0.0
 11
178.104026
 21
201.936107
 31
0.0
  0
LINE
  5
28F
100
AcDbEntity
  8
2
370
    30
  6
Continuous
 62
     5
100
AcDbLine
 10
178.104026
 20
201.936107
 30
0.0
 11
178.591285
 21
201.849999
 31
0.0
  0
LINE
  5
290
100
AcDbEntity
  8
2
370
    30
  6
Continuous
 62
     5
100
AcDbLine
 10
178.591285
 20
201.849999
 30
0.0
 11
179.023033
 21
201.825435
 31
0.0
  0
LINE
  5
291
100
AcDbEntity
  8
2
370
    30
  6
Continuous
 62
     5
100
AcDbLine
 10
179.023033
 20
201.825435
 30
0.0
 11
179.429249
 21
201.828553
 31
0.0
  0
LINE
  5
292
100
AcDbEntity
  8
2
370
    30
  6
Continuous
 62
     5
100
AcDbLine
 10
179.429249
 20
201.828553
 30
0.0
 11
179.805198
 21
201.864701
 31
0.0
  0
LINE
  5
293
100
AcDbEntity
  8
2
370
    30
  6
Continuous
 62
     5
100
AcDbLine
 10
179.805198
 20
201.864701
 30
0.0
 11
180.146147
 21
201.939223
 31
0.0
  0
LINE
  5
294
100
AcDbEntity
  8
2
370
    30
  6
Continuous
 62
     5
100
AcDbLine
 10
180.146147
 20
201.939223
 30
0.0
 11
180.447363
 21
202.05747
 31
0.0
  0
LINE
  5
295
100
AcDbEntity
  8
2
370
    30
  6
Continuous
 62
     5
100
AcDbLine
 10
180.447363
 20
202.05747
 30
0.0
 11
180.704114
 21
202.224783
 31
0.0
  0
LINE
  5
296
100
AcDbEntity
  8
2
370
    30
  6
Continuous
 62
     5
100
AcDbLine
 10
180.704114
 20
202.224783
 30
0.0
 11
180.911665
 21
202.44651
 31
0.0
  0
LINE
  5
297
100
AcDbEntity
  8
2
370
    30
  6
Continuous
 62
     5
100
AcDbLine
 10
180.911665
 20
202.44651
 30
0.0
 11
181.065284
 21
202.727998
 31
0.0
  0
ENDBLK
  5
298
100
AcDbEntity
  8
0
100
AcDbBlockEnd
  0
BLOCK
  5
2A4
100
AcDbEntity
  8
3
370
    30
  6
Continuous
 62
    94
100
AcDbBlockBegin
  2
*D5
 70
     0
 10
0.0
 20
0.0
 30
0.0
  3
*D5
  1

  0
LINE
  5
2A5
100
AcDbEntity
  8
3
370
    30
  6
Continuous
 62
    94
100
AcDbLine
 10
244.665283
 20
107.603
 30
0.0
 11
244.665283
 21
166.602999
 31
0.0
  0
LINE
  5
2A6
100
AcDbEntity
  8
3
370
    30
  6
Continuous
 62
    94
100
AcDbLine
 10
245.665283
 20
107.603
 30
0.0
 11
201.044285
 21
107.603
 31
0.0
  0
LINE
  5
2A7
100
AcDbEntity
  8
3
370
    30
  6
Continuous
 62
    94
100
AcDbLine
 10
244.665283
 20
107.603
 30
0.0
 11
244.147645
 21
109.534851
 31
0.0
  0
LINE
  5
2A8
100
AcDbEntity
  8
3
370
    30
  6
Continuous
 62
    94
100
AcDbLine
 10
244.665283
 20
107.603
 30
0.0
 11
245.182921
 21
109.534851
 31
0.0
  0
LINE
  5
2A9
100
AcDbEntity
  8
3
370
    30
  6
Continuous
 62
    94
100
AcDbLine
 10
244.665283
 20
166.602999
 30
0.0
 11
245.182921
 21
164.671148
 31
0.0
  0
LINE
  5
2AA
100
AcDbEntity
  8
3
370
    30
  6
Continuous
 62
    94
100
AcDbLine
 10
244.665283
 20
166.602999
 30
0.0
 11
244.147645
 21
164.671148
 31
0.0
  0
TEXT
  5
2AB
100
AcDbEntity
  8
3
370
    30
  6
Continuous
 62
    94
100
AcDbText
 10
244.665283
 20
135.102999
 30
0.0
 40
4.0
  1
59
 50
90.0
 41
0.5
 11
244.665283
 21
135.102999
 31
0.0
100
AcDbText
 73
     1
  0
ENDBLK
  5
2AC
100
AcDbEntity
  8
3
370
    30
  6
Continuous
 62
    94
100
AcDbBlockEnd
  0
BLOCK
  5
2AF
100
AcDbEntity
  8
3
370
    30
  6
Continuous
 62
    94
100
AcDbBlockBegin
  2
*D6
 70
     0
 10
0.0
 20
0.0
 30
0.0
  3
*D6
  1

  0
LINE
  5
2B0
100
AcDbEntity
  8
3
370
    30
  6
Continuous
 62
    94
100
AcDbLine
 10
251.665284
 20
95.602999
 30
0.0
 11
251.665284
 21
166.602999
 31
0.0
  0
LINE
  5
2B1
100
AcDbEntity
  8
3
370
    30
  6
Continuous
 62
    94
100
AcDbLine
 10
252.665284
 20
95.602999
 30
0.0
 11
183.940285
 21
95.602999
 31
0.0
  0
LINE
  5
2B2
100
AcDbEntity
  8
3
370
    30
  6
Continuous
 62
    94
100
AcDbLine
 10
252.665284
 20
166.602999
 30
0.0
 11
245.165283
 21
166.602999
 31
0.0
  0
LINE
  5
2B3
100
AcDbEntity
  8
3
370
    30
  6
Continuous
 62
    94
100
AcDbLine
 10
251.665284
 20
95.602999
 30
0.0
 11
251.147646
 21
97.53485
 31
0.0
  0
LINE
  5
2B4
100
AcDbEntity
  8
3
370
    30
  6
Continuous
 62
    94
100
AcDbLine
 10
251.665284
 20
95.602999
 30
0.0
 11
252.182922
 21
97.53485
 31
0.0
  0
LINE
  5
2B5
100
AcDbEntity
  8
3
370
    30
  6
Continuous
 62
    94
100
AcDbLine
 10
251.665284
 20
166.602999
 30
0.0
 11
252.182922
 21
164.671148
 31
0.0
  0
LINE
  5
2B6
100
AcDbEntity
  8
3
370
    30
  6
Continuous
 62
    94
100
AcDbLine
 10
251.665284
 20
166.602999
 30
0.0
 11
251.147646
 21
164.671148
 31
0.0
  0
TEXT
  5
2B7
100
AcDbEntity
  8
3
370
    30
  6
Continuous
 62
    94
100
AcDbText
 10
251.665284
 20
129.102999
 30
0.0
 40
4.0
  1
71
 50
90.0
 41
0.5
 11
251.665284
 21
129.102999
 31
0.0
100
AcDbText
 73
     1
  0
ENDBLK
  5
2B8
100
AcDbEntity
  8
3
370
    30
  6
Continuous
 62
    94
100
AcDbBlockEnd
  0
BLOCK
  5
2BB
100
AcDbEntity
  8
3
370
    30
  6
Continuous
 62
    94
100
AcDbBlockBegin
  2
*D7
 70
     0
 10
0.0
 20
0.0
 30
0.0
  3
*D7
  1

  0
LINE
  5
2BC
100
AcDbEntity
  8
3
370
    30
  6
Continuous
 62
    94
100
AcDbLine
 10
168.165284
 20
89.858546
 30
0.0
 11
200.456617
 21
89.858546
 31
0.0
  0
LINE
  5
2BD
100
AcDbEntity
  8
3
370
    30
  6
Continuous
 62
    94
100
AcDbLine
 10
192.165284
 20
88.858546
 30
0.0
 11
192.165284
 21
104.496499
 31
0.0
  0
LINE
  5
2BE
100
AcDbEntity
  8
3
370
    30
  6
Continuous
 62
    94
100
AcDbLine
 10
176.165284
 20
89.858546
 30
0.0
 11
174.233432
 21
89.340908
 31
0.0
  0
LINE
  5
2BF
100
AcDbEntity
  8
3
370
    30
  6
Continuous
 62
    94
100
AcDbLine
 10
176.165284
 20
89.858546
 30
0.0
 11
174.233432
 21
90.376184
 31
0.0
  0
LINE
  5
2C0
100
AcDbEntity
  8
3
370
    30
  6
Continuous
 62
    94
100
AcDbLine
 10
192.165284
 20
89.858546
 30
0.0
 11
194.097136
 21
90.376184
 31
0.0
  0
LINE
  5
2C1
100
AcDbEntity
  8
3
370
    30
  6
Continuous
 62
    94
100
AcDbLine
 10
192.165284
 20
89.858546
 30
0.0
 11
194.097136
 21
89.340908
 31
0.0
  0
TEXT
  5
2C2
100
AcDbEntity
  8
3
370
    30
  6
Continuous
 62
    94
100
AcDbText
 10
196.456617
 20
89.858546
 30
0.0
 40
4.0
  1
16
 41
0.5
 11
196.456617
 21
89.858546
 31
0.0
100
AcDbText
 73
     1
  0
ENDBLK
  5
2C3
100
AcDbEntity
  8
3
370
    30
  6
Continuous
 62
    94
100
AcDbBlockEnd
  0
BLOCK
  5
2C6
100
AcDbEntity
  8
3
370
    30
  6
Continuous
 62
    94
100
AcDbBlockBegin
  2
*D8
 70
     0
 10
0.0
 20
0.0
 30
0.0
  3
*D8
  1

  0
LINE
  5
2C7
100
AcDbEntity
  8
3
370
    30
  6
Continuous
 62
    94
100
AcDbLine
 10
151.715239
 20
89.858546
 30
0.0
 11
184.165284
 21
89.858546
 31
0.0
  0
LINE
  5
2C8
100
AcDbEntity
  8
3
370
    30
  6
Continuous
 62
    94
100
AcDbLine
 10
160.165283
 20
88.858546
 30
0.0
 11
160.165283
 21
104.496499
 31
0.0
  0
LINE
  5
2C9
100
AcDbEntity
  8
3
370
    30
  6
Continuous
 62
    94
100
AcDbLine
 10
176.165284
 20
88.858546
 30
0.0
 11
176.165284
 21
92.522499
 31
0.0
  0
LINE
  5
2CA
100
AcDbEntity
  8
3
370
    30
  6
Continuous
 62
    94
100
AcDbLine
 10
160.165283
 20
89.858546
 30
0.0
 11
158.233432
 21
89.340908
 31
0.0
  0
LINE
  5
2CB
100
AcDbEntity
  8
3
370
    30
  6
Continuous
 62
    94
100
AcDbLine
 10
160.165283
 20
89.858546
 30
0.0
 11
158.233432
 21
90.376184
 31
0.0
  0
LINE
  5
2CC
100
AcDbEntity
  8
3
370
    30
  6
Continuous
 62
    94
100
AcDbLine
 10
176.165284
 20
89.858546
 30
0.0
 11
178.097136
 21
90.376184
 31
0.0
  0
LINE
  5
2CD
100
AcDbEntity
  8
3
370
    30
  6
Continuous
 62
    94
100
AcDbLine
 10
176.165284
 20
89.858546
 30
0.0
 11
178.097136
 21
89.340908
 31
0.0
  0
TEXT
  5
2CE
100
AcDbEntity
  8
3
370
    30
  6
Continuous
 62
    94
100
AcDbText
 10
151.715239
 20
89.858546
 30
0.0
 40
4.0
  1
16
 41
0.5
 11
151.715239
 21
89.858546
 31
0.0
100
AcDbText
 73
     1
  0
ENDBLK
  5
2CF
100
AcDbEntity
  8
3
370
    30
  6
Continuous
 62
    94
100
AcDbBlockEnd
  0
BLOCK
  5
2D2
100
AcDbEntity
  8
3
370
    30
  6
Continuous
 62
    94
100
AcDbBlockBegin
  2
*D9
 70
     0
 10
0.0
 20
0.0
 30
0.0
  3
*D9
  1

  0
LINE
  5
2D3
100
AcDbEntity
  8
3
370
    30
  6
Continuous
 62
    94
100
AcDbLine
 10
101.289321
 20
166.602999
 30
0.0
 11
101.289321
 21
217.602999
 31
0.0
  0
LINE
  5
2D4
100
AcDbEntity
  8
3
370
    30
  6
Continuous
 62
    94
100
AcDbLine
 10
102.289321
 20
166.602999
 30
0.0
 11
76.151965
 21
166.602999
 31
0.0
  0
LINE
  5
2D5
100
AcDbEntity
  8
3
370
    30
  6
Continuous
 62
    94
100
AcDbLine
 10
102.289321
 20
217.602999
 30
0.0
 11
72.772978
 21
217.602999
 31
0.0
  0
LINE
  5
2D6
100
AcDbEntity
  8
3
370
    30
  6
Continuous
 62
    94
100
AcDbLine
 10
101.289321
 20
166.602999
 30
0.0
 11
100.771683
 21
168.534851
 31
0.0
  0
LINE
  5
2D7
100
AcDbEntity
  8
3
370
    30
  6
Continuous
 62
    94
100
AcDbLine
 10
101.289321
 20
166.602999
 30
0.0
 11
101.806959
 21
168.534851
 31
0.0
  0
LINE
  5
2D8
100
AcDbEntity
  8
3
370
    30
  6
Continuous
 62
    94
100
AcDbLine
 10
101.289321
 20
217.602999
 30
0.0
 11
101.806959
 21
215.671148
 31
0.0
  0
LINE
  5
2D9
100
AcDbEntity
  8
3
370
    30
  6
Continuous
 62
    94
100
AcDbLine
 10
101.289321
 20
217.602999
 30
0.0
 11
100.771683
 21
215.671148
 31
0.0
  0
TEXT
  5
2DA
100
AcDbEntity
  8
3
370
    30
  6
Continuous
 62
    94
100
AcDbText
 10
101.289321
 20
190.102999
 30
0.0
 40
4.0
  1
51
 50
90.0
 41
0.5
 11
101.289321
 21
190.102999
 31
0.0
100
AcDbText
 73
     1
  0
ENDBLK
  5
2DB
100
AcDbEntity
  8
3
370
    30
  6
Continuous
 62
    94
100
AcDbBlockEnd
  0
BLOCK
  5
2DE
100
AcDbEntity
  8
3
370
    30
  6
Continuous
 62
    94
100
AcDbBlockBegin
  2
*D10
 70
     0
 10
0.0
 20
0.0
 30
0.0
  3
*D10
  1

  0
LINE
  5
2DF
100
AcDbEntity
  8
3
370
    30
  6
Continuous
 62
    94
100
AcDbLine
 10
101.289321
 20
98.602999
 30
0.0
 11
101.289321
 21
166.602999
 31
0.0
  0
LINE
  5
2E0
100
AcDbEntity
  8
3
370
    30
  6
Continuous
 62
    94
100
AcDbLine
 10
102.289321
 20
98.602999
 30
0.0
 11
92.583278
 21
98.602999
 31
0.0
  0
LINE
  5
2E1
100
AcDbEntity
  8
3
370
    30
  6
Continuous
 62
    94
100
AcDbLine
 10
101.289321
 20
98.602999
 30
0.0
 11
100.771683
 21
100.53485
 31
0.0
  0
LINE
  5
2E2
100
AcDbEntity
  8
3
370
    30
  6
Continuous
 62
    94
100
AcDbLine
 10
101.289321
 20
98.602999
 30
0.0
 11
101.806959
 21
100.53485
 31
0.0
  0
LINE
  5
2E3
100
AcDbEntity
  8
3
370
    30
  6
Continuous
 62
    94
100
AcDbLine
 10
101.289321
 20
166.602999
 30
0.0
 11
101.806959
 21
164.671148
 31
0.0
  0
LINE
  5
2E4
100
AcDbEntity
  8
3
370
    30
  6
Continuous
 62
    94
100
AcDbLine
 10
101.289321
 20
166.602999
 30
0.0
 11
100.771683
 21
164.671148
 31
0.0
  0
TEXT
  5
2E5
100
AcDbEntity
  8
3
370
    30
  6
Continuous
 62
    94
100
AcDbText
 10
101.289321
 20
130.602999
 30
0.0
 40
4.0
  1
68
 50
90.0
 41
0.5
 11
101.289321
 21
130.602999
 31
0.0
100
AcDbText
 73
     1
  0
ENDBLK
  5
2E6
100
AcDbEntity
  8
3
370
    30
  6
Continuous
 62
    94
100
AcDbBlockEnd
  0
BLOCK
  5
2E9
100
AcDbEntity
  8
3
370
    30
  6
Continuous
 62
    94
100
AcDbBlockBegin
  2
*D11
 70
     0
 10
0.0
 20
0.0
 30
0.0
  3
*D11
  1

  0
LINE
  5
2EA
100
AcDbEntity
  8
3
370
    30
  6
Continuous
 62
    94
100
AcDbLine
 10
34.433278
 20
89.858546
 30
0.0
 11
86.433278
 21
89.858546
 31
0.0
  0
LINE
  5
2EB
100
AcDbEntity
  8
3
370
    30
  6
Continuous
 62
    94
100
AcDbLine
 10
34.433278
 20
88.858546
 30
0.0
 11
34.433278
 21
90.806301
 31
0.0
  0
LINE
  5
2EC
100
AcDbEntity
  8
3
370
    30
  6
Continuous
 62
    94
100
AcDbLine
 10
86.433278
 20
88.858546
 30
0.0
 11
86.433278
 21
93.809398
 31
0.0
  0
LINE
  5
2ED
100
AcDbEntity
  8
3
370
    30
  6
Continuous
 62
    94
100
AcDbLine
 10
34.433278
 20
89.858546
 30
0.0
 11
36.365129
 21
90.376184
 31
0.0
  0
LINE
  5
2EE
100
AcDbEntity
  8
3
370
    30
  6
Continuous
 62
    94
100
AcDbLine
 10
34.433278
 20
89.858546
 30
0.0
 11
36.365129
 21
89.340908
 31
0.0
  0
LINE
  5
2EF
100
AcDbEntity
  8
3
370
    30
  6
Continuous
 62
    94
100
AcDbLine
 10
86.433278
 20
89.858546
 30
0.0
 11
84.501426
 21
89.340908
 31
0.0
  0
LINE
  5
2F0
100
AcDbEntity
  8
3
370
    30
  6
Continuous
 62
    94
100
AcDbLine
 10
86.433278
 20
89.858546
 30
0.0
 11
84.501426
 21
90.376184
 31
0.0
  0
TEXT
  5
2F1
100
AcDbEntity
  8
3
370
    30
  6
Continuous
 62
    94
100
AcDbText
 10
58.433278
 20
89.858546
 30
0.0
 40
4.0
  1
52
 41
0.5
 11
58.433278
 21
89.858546
 31
0.0
100
AcDbText
 73
     1
  0
ENDBLK
  5
2F2
100
AcDbEntity
  8
3
370
    30
  6
Continuous
 62
    94
100
AcDbBlockEnd
  0
ENDSEC
  0
SECTION
  2
ENTITIES
  0
INSERT
  5
AE
100
AcDbEntity
  8
0
  6
Continuous
 62
     7
100
AcDbBlockReference
  2
*G0
 10
0.0
 20
0.0
 30
0.0
  0
ARC
  5
AF
100
AcDbEntity
  8
1
370
    30
  6
Continuous
 62
     7
100
AcDbCircle
 10
34.433278
 20
157.641521
 30
0.0
 40
1.595833
100
AcDbArc
 50
41.23973
 51
138.76027
  0
ARC
  5
B0
100
AcDbEntity
  8
1
370
    30
  6
Continuous
 62
     7
100
AcDbCircle
 10
34.433278
 20
166.602999
 30
0.0
 40
8.0
100
AcDbArc
 50
-81.373078
 51
-98.626922
  0
ARC
  5
B1
100
AcDbEntity
  8
1
370
    30
  6
Continuous
 62
     7
100
AcDbCircle
 10
34.433278
 20
166.602999
 30
0.0
 40
14.000001
100
AcDbArc
 50
-85.082903
 51
-94.917097
  0
LINE
  5
B2
100
AcDbEntity
  8
1
370
    30
  6
Continuous
 62
     7
100
AcDbLine
 10
39.193278
 20
194.176
 30
0.0
 11
39.135344
 21
194.163004
 31
0.0
  0
LINE
  5
B3
100
AcDbEntity
  8
1
370
    30
  6
Continuous
 62
     7
100
AcDbLine
 10
39.135344
 20
194.163004
 30
0.0
 11
39.07736
 21
194.135287
 31
0.0
  0
LINE
  5
B4
100
AcDbEntity
  8
1
370
    30
  6
Continuous
 62
     7
100
AcDbLine
 10
39.07736
 20
194.135287
 30
0.0
 11
39.019724
 21
194.094064
 31
0.0
  0
LINE
  5
B5
100
AcDbEntity
  8
1
370
    30
  6
Continuous
 62
     7
100
AcDbLine
 10
39.019724
 20
194.094064
 30
0.0
 11
38.962833
 21
194.040552
 31
0.0
  0
LINE
  5
B6
100
AcDbEntity
  8
1
370
    30
  6
Continuous
 62
     7
100
AcDbLine
 10
38.962833
 20
194.040552
 30
0.0
 11
38.907083
 21
193.975968
 31
0.0
  0
LINE
  5
B7
100
AcDbEntity
  8
1
370
    30
  6
Continuous
 62
     7
100
AcDbLine
 10
38.907083
 20
193.975968
 30
0.0
 11
38.85287
 21
193.901526
 31
0.0
  0
LINE
  5
B8
100
AcDbEntity
  8
1
370
    30
  6
Continuous
 62
     7
100
AcDbLine
 10
38.85287
 20
193.901526
 30
0.0
 11
38.800588
 21
193.818445
 31
0.0
  0
LINE
  5
B9
100
AcDbEntity
  8
1
370
    30
  6
Continuous
 62
     7
100
AcDbLine
 10
38.800588
 20
193.818445
 30
0.0
 11
38.750636
 21
193.727939
 31
0.0
  0
LINE
  5
BA
100
AcDbEntity
  8
1
370
    30
  6
Continuous
 62
     7
100
AcDbLine
 10
38.750636
 20
193.727939
 30
0.0
 11
38.700504
 21
193.622307
 31
0.0
  0
LINE
  5
BB
100
AcDbEntity
  8
1
370
    30
  6
Continuous
 62
     7
100
AcDbLine
 10
38.700504
 20
193.622307
 30
0.0
 11
38.648738
 21
193.497088
 31
0.0
  0
LINE
  5
BC
100
AcDbEntity
  8
1
370
    30
  6
Continuous
 62
     7
100
AcDbLine
 10
38.648738
 20
193.497088
 30
0.0
 11
38.597323
 21
193.358364
 31
0.0
  0
LINE
  5
BD
100
AcDbEntity
  8
1
370
    30
  6
Continuous
 62
     7
100
AcDbLine
 10
38.597323
 20
193.358364
 30
0.0
 11
38.548235
 21
193.212216
 31
0.0
  0
LINE
  5
BE
100
AcDbEntity
  8
1
370
    30
  6
Continuous
 62
     7
100
AcDbLine
 10
38.548235
 20
193.212216
 30
0.0
 11
38.503457
 21
193.064724
 31
0.0
  0
LINE
  5
BF
100
AcDbEntity
  8
1
370
    30
  6
Continuous
 62
     7
100
AcDbLine
 10
38.503457
 20
193.064724
 30
0.0
 11
38.464969
 21
192.921971
 31
0.0
  0
LINE
  5
C0
100
AcDbEntity
  8
1
370
    30
  6
Continuous
 62
     7
100
AcDbLine
 10
38.464969
 20
192.921971
 30
0.0
 11
38.434751
 21
192.790034
 31
0.0
  0
LINE
  5
C1
100
AcDbEntity
  8
1
370
    30
  6
Continuous
 62
     7
100
AcDbLine
 10
38.434751
 20
192.790034
 30
0.0
 11
38.414785
 21
192.674998
 31
0.0
  0
LINE
  5
C2
100
AcDbEntity
  8
1
370
    30
  6
Continuous
 62
     7
100
AcDbLine
 10
38.414785
 20
192.674998
 30
0.0
 11
38.406626
 21
192.575041
 31
0.0
  0
LINE
  5
C3
100
AcDbEntity
  8
1
370
    30
  6
Continuous
 62
     7
100
AcDbLine
 10
38.406626
 20
192.575041
 30
0.0
 11
38.409054
 21
192.48359
 31
0.0
  0
LINE
  5
C4
100
AcDbEntity
  8
1
370
    30
  6
Continuous
 62
     7
100
AcDbLine
 10
38.409054
 20
192.48359
 30
0.0
 11
38.419889
 21
192.399603
 31
0.0
  0
LINE
  5
C5
100
AcDbEntity
  8
1
370
    30
  6
Continuous
 62
     7
100
AcDbLine
 10
38.419889
 20
192.399603
 30
0.0
 11
38.436945
 21
192.322031
 31
0.0
  0
LINE
  5
C6
100
AcDbEntity
  8
1
370
    30
  6
Continuous
 62
     7
100
AcDbLine
 10
38.436945
 20
192.322031
 30
0.0
 11
38.458042
 21
192.249828
 31
0.0
  0
LINE
  5
C7
100
AcDbEntity
  8
1
370
    30
  6
Continuous
 62
     7
100
AcDbLine
 10
38.458042
 20
192.249828
 30
0.0
 11
38.480997
 21
192.18195
 31
0.0
  0
LINE
  5
C8
100
AcDbEntity
  8
1
370
    30
  6
Continuous
 62
     7
100
AcDbLine
 10
38.480997
 20
192.18195
 30
0.0
 11
38.503626
 21
192.11735
 31
0.0
  0
LINE
  5
C9
100
AcDbEntity
  8
1
370
    30
  6
Continuous
 62
     7
100
AcDbLine
 10
38.503626
 20
192.11735
 30
0.0
 11
38.523747
 21
192.054984
 31
0.0
  0
LINE
  5
CA
100
AcDbEntity
  8
1
370
    30
  6
Continuous
 62
     7
100
AcDbLine
 10
38.523747
 20
192.054984
 30
0.0
 11
38.543123
 21
191.996029
 31
0.0
  0
LINE
  5
CB
100
AcDbEntity
  8
1
370
    30
  6
Continuous
 62
     7
100
AcDbLine
 10
38.543123
 20
191.996029
 30
0.0
 11
38.564587
 21
191.941989
 31
0.0
  0
LINE
  5
CC
100
AcDbEntity
  8
1
370
    30
  6
Continuous
 62
     7
100
AcDbLine
 10
38.564587
 20
191.941989
 30
0.0
 11
38.587563
 21
191.892298
 31
0.0
  0
LINE
  5
CD
100
AcDbEntity
  8
1
370
    30
  6
Continuous
 62
     7
100
AcDbLine
 10
38.587563
 20
191.892298
 30
0.0
 11
38.611479
 21
191.846395
 31
0.0
  0
LINE
  5
CE
100
AcDbEntity
  8
1
370
    30
  6
Continuous
 62
     7
100
AcDbLine
 10
38.611479
 20
191.846395
 30
0.0
 11
38.635757
 21
191.803718
 31
0.0
  0
LINE
  5
CF
100
AcDbEntity
  8
1
370
    30
  6
Continuous
 62
     7
100
AcDbLine
 10
38.635757
 20
191.803718
 30
0.0
 11
38.659824
 21
191.763705
 31
0.0
  0
LINE
  5
D0
100
AcDbEntity
  8
1
370
    30
  6
Continuous
 62
     7
100
AcDbLine
 10
38.659824
 20
191.763705
 30
0.0
 11
38.683107
 21
191.725792
 31
0.0
  0
LINE
  5
D1
100
AcDbEntity
  8
1
370
    30
  6
Continuous
 62
     7
100
AcDbLine
 10
38.683107
 20
191.725792
 30
0.0
 11
38.705029
 21
191.689418
 31
0.0
  0
LINE
  5
D2
100
AcDbEntity
  8
1
370
    30
  6
Continuous
 62
     7
100
AcDbLine
 10
38.705029
 20
191.689418
 30
0.0
 11
38.724502
 21
191.656566
 31
0.0
  0
LINE
  5
D3
100
AcDbEntity
  8
1
370
    30
  6
Continuous
 62
     7
100
AcDbLine
 10
38.724502
 20
191.656566
 30
0.0
 11
38.74161
 21
191.628623
 31
0.0
  0
LINE
  5
D4
100
AcDbEntity
  8
1
370
    30
  6
Continuous
 62
     7
100
AcDbLine
 10
38.74161
 20
191.628623
 30
0.0
 11
38.757528
 21
191.604127
 31
0.0
  0
LINE
  5
D5
100
AcDbEntity
  8
1
370
    30
  6
Continuous
 62
     7
100
AcDbLine
 10
38.757528
 20
191.604127
 30
0.0
 11
38.773437
 21
191.581622
 31
0.0
  0
LINE
  5
D6
100
AcDbEntity
  8
1
370
    30
  6
Continuous
 62
     7
100
AcDbLine
 10
38.773437
 20
191.581622
 30
0.0
 11
38.790515
 21
191.559647
 31
0.0
  0
LINE
  5
D7
100
AcDbEntity
  8
1
370
    30
  6
Continuous
 62
     7
100
AcDbLine
 10
38.790515
 20
191.559647
 30
0.0
 11
38.809941
 21
191.536741
 31
0.0
  0
LINE
  5
D8
100
AcDbEntity
  8
1
370
    30
  6
Continuous
 62
     7
100
AcDbLine
 10
38.809941
 20
191.536741
 30
0.0
 11
38.832894
 21
191.511444
 31
0.0
  0
LINE
  5
D9
100
AcDbEntity
  8
1
370
    30
  6
Continuous
 62
     7
100
AcDbLine
 10
38.832894
 20
191.511444
 30
0.0
 11
38.860552
 21
191.482298
 31
0.0
  0
LINE
  5
DA
100
AcDbEntity
  8
1
370
    30
  6
Continuous
 62
     7
100
AcDbLine
 10
38.860552
 20
191.482298
 30
0.0
 11
38.892051
 21
191.450374
 31
0.0
  0
LINE
  5
DB
100
AcDbEntity
  8
1
370
    30
  6
Continuous
 62
     7
100
AcDbLine
 10
38.892051
 20
191.450374
 30
0.0
 11
38.925899
 21
191.417517
 31
0.0
  0
LINE
  5
DC
100
AcDbEntity
  8
1
370
    30
  6
Continuous
 62
     7
100
AcDbLine
 10
38.925899
 20
191.417517
 30
0.0
 11
38.962329
 21
191.383439
 31
0.0
  0
LINE
  5
DD
100
AcDbEntity
  8
1
370
    30
  6
Continuous
 62
     7
100
AcDbLine
 10
38.962329
 20
191.383439
 30
0.0
 11
39.001578
 21
191.347847
 31
0.0
  0
LINE
  5
DE
100
AcDbEntity
  8
1
370
    30
  6
Continuous
 62
     7
100
AcDbLine
 10
39.001578
 20
191.347847
 30
0.0
 11
39.043884
 21
191.310449
 31
0.0
  0
LINE
  5
DF
100
AcDbEntity
  8
1
370
    30
  6
Continuous
 62
     7
100
AcDbLine
 10
39.043884
 20
191.310449
 30
0.0
 11
39.08948
 21
191.270954
 31
0.0
  0
LINE
  5
E0
100
AcDbEntity
  8
1
370
    30
  6
Continuous
 62
     7
100
AcDbLine
 10
39.08948
 20
191.270954
 30
0.0
 11
39.138603
 21
191.229067
 31
0.0
  0
LINE
  5
E1
100
AcDbEntity
  8
1
370
    30
  6
Continuous
 62
     7
100
AcDbLine
 10
39.138603
 20
191.229067
 30
0.0
 11
39.191487
 21
191.184499
 31
0.0
  0
LINE
  5
E2
100
AcDbEntity
  8
1
370
    30
  6
Continuous
 62
     7
100
AcDbLine
 10
28.083278
 20
154.125919
 30
0.0
 11
28.083278
 21
118.705148
 31
0.0
  0
LINE
  5
E3
100
AcDbEntity
  8
1
370
    30
  6
Continuous
 62
     7
100
AcDbLine
 10
28.083278
 20
118.705148
 30
0.0
 11
27.158277
 21
117.102999
 31
0.0
  0
LINE
  5
E4
100
AcDbEntity
  8
1
370
    30
  6
Continuous
 62
     7
100
AcDbLine
 10
27.158277
 20
117.102999
 30
0.0
 11
27.158277
 21
107.603
 31
0.0
  0
LINE
  5
E5
100
AcDbEntity
  8
1
370
    30
  6
Continuous
 62
     7
100
AcDbLine
 10
27.158277
 20
107.603
 30
0.0
 11
41.708278
 21
107.603
 31
0.0
  0
LINE
  5
E6
100
AcDbEntity
  8
1
370
    30
  6
Continuous
 62
     7
100
AcDbLine
 10
41.708278
 20
107.603
 30
0.0
 11
41.708278
 21
117.102999
 31
0.0
  0
LINE
  5
E7
100
AcDbEntity
  8
1
370
    30
  6
Continuous
 62
     7
100
AcDbLine
 10
41.708278
 20
117.102999
 30
0.0
 11
40.783277
 21
118.705148
 31
0.0
  0
LINE
  5
E8
100
AcDbEntity
  8
1
370
    30
  6
Continuous
 62
     7
100
AcDbLine
 10
28.083278
 20
117.102999
 30
0.0
 11
40.783277
 21
117.102999
 31
0.0
  0
LINE
  5
E9
100
AcDbEntity
  8
1
370
    30
  6
Continuous
 62
     7
100
AcDbLine
 10
40.783277
 20
118.497001
 30
0.0
 11
28.083278
 21
118.497001
 31
0.0
  0
LINE
  5
EA
100
AcDbEntity
  8
1
370
    30
  6
Continuous
 62
     7
100
AcDbLine
 10
28.083278
 20
107.603
 30
0.0
 11
28.083278
 21
106.797399
 31
0.0
  0
LINE
  5
EB
100
AcDbEntity
  8
1
370
    30
  6
Continuous
 62
     7
100
AcDbLine
 10
28.083278
 20
106.797399
 30
0.0
 11
27.158277
 21
105.102998
 31
0.0
  0
LINE
  5
EC
100
AcDbEntity
  8
1
370
    30
  6
Continuous
 62
     7
100
AcDbLine
 10
27.158277
 20
105.102998
 30
0.0
 11
27.158277
 21
95.602999
 31
0.0
  0
LINE
  5
ED
100
AcDbEntity
  8
1
370
    30
  6
Continuous
 62
     7
100
AcDbLine
 10
27.158277
 20
95.602999
 30
0.0
 11
41.708278
 21
95.602999
 31
0.0
  0
LINE
  5
EE
100
AcDbEntity
  8
1
370
    30
  6
Continuous
 62
     7
100
AcDbLine
 10
41.708278
 20
95.602999
 30
0.0
 11
41.708278
 21
105.102998
 31
0.0
  0
LINE
  5
EF
100
AcDbEntity
  8
1
370
    30
  6
Continuous
 62
     7
100
AcDbLine
 10
41.708278
 20
105.102998
 30
0.0
 11
40.730016
 21
106.797399
 31
0.0
  0
LINE
  5
F0
100
AcDbEntity
  8
1
370
    30
  6
Continuous
 62
     7
100
AcDbLine
 10
40.730016
 20
106.797399
 30
0.0
 11
40.783277
 21
107.603
 31
0.0
  0
LINE
  5
F1
100
AcDbEntity
  8
1
370
    30
  6
Continuous
 62
     7
100
AcDbLine
 10
27.560978
 20
105.102998
 30
0.0
 11
41.223978
 21
105.102998
 31
0.0
  0
LINE
  5
F2
100
AcDbEntity
  8
1
370
    30
  6
Continuous
 62
     7
100
AcDbLine
 10
40.405477
 20
106.797399
 30
0.0
 11
28.442378
 21
106.797399
 31
0.0
  0
LINE
  5
F3
100
AcDbEntity
  8
1
370
    30
  6
Continuous
 62
     7
100
AcDbLine
 10
40.783277
 20
118.705148
 30
0.0
 11
40.783277
 21
142.912259
 31
0.0
  0
LINE
  5
F4
100
AcDbEntity
  8
1
370
    30
  6
Continuous
 62
     7
100
AcDbLine
 10
40.783277
 20
146.379003
 30
0.0
 11
40.783277
 21
154.125919
 31
0.0
  0
LINE
  5
F5
100
AcDbEntity
  8
1
370
    30
  6
Continuous
 62
     7
100
AcDbLine
 10
40.873277
 20
183.147
 30
0.0
 11
27.993278
 21
183.147
 31
0.0
  0
LINE
  5
F6
100
AcDbEntity
  8
1
370
    30
  6
Continuous
 62
     7
100
AcDbLine
 10
40.873277
 20
183.147
 30
0.0
 11
40.873277
 21
179.033866
 31
0.0
  0
LINE
  5
F7
100
AcDbEntity
  8
1
370
    30
  6
Continuous
 62
     7
100
AcDbLine
 10
27.993278
 20
183.147
 30
0.0
 11
27.993278
 21
179.033866
 31
0.0
  0
LINE
  5
F8
100
AcDbEntity
  8
1
370
    30
  6
Continuous
 62
     7
100
AcDbLine
 10
91.266961
 20
109.5169
 30
0.0
 11
92.083278
 21
108.102998
 31
0.0
  0
LINE
  5
F9
100
AcDbEntity
  8
1
370
    30
  6
Continuous
 62
     7
100
AcDbLine
 10
92.083278
 20
108.102998
 30
0.0
 11
92.083278
 21
98.602999
 31
0.0
  0
LINE
  5
FA
100
AcDbEntity
  8
1
370
    30
  6
Continuous
 62
     7
100
AcDbLine
 10
92.083278
 20
98.602999
 30
0.0
 11
80.783278
 21
98.602999
 31
0.0
  0
LINE
  5
FB
100
AcDbEntity
  8
1
370
    30
  6
Continuous
 62
     7
100
AcDbLine
 10
80.783278
 20
98.602999
 30
0.0
 11
80.783278
 21
108.102998
 31
0.0
  0
LINE
  5
FC
100
AcDbEntity
  8
1
370
    30
  6
Continuous
 62
     7
100
AcDbLine
 10
80.783278
 20
108.102998
 30
0.0
 11
81.533278
 21
109.5169
 31
0.0
  0
ARC
  5
FD
100
AcDbEntity
  8
1
370
    30
  6
Continuous
 62
     7
100
AcDbCircle
 10
53.433278
 20
193.702999
 30
0.0
 40
23.9
100
AcDbArc
 50
90.0
 51
180.0
  0
LINE
  5
FE
100
AcDbEntity
  8
1
370
    30
  6
Continuous
 62
     7
100
AcDbLine
 10
29.533278
 20
183.147
 30
0.0
 11
29.533278
 21
193.702999
 31
0.0
  0
ARC
  5
FF
100
AcDbEntity
  8
1
370
    30
  6
Continuous
 62
     7
100
AcDbCircle
 10
67.418609
 20
193.702999
 30
0.0
 40
23.9
100
AcDbArc
 50
-0.035154
 51
90.0
  0
LINE
  5
100
100
AcDbEntity
  8
1
370
    30
  6
Continuous
 62
     7
100
AcDbLine
 10
53.433278
 20
217.602999
 30
0.0
 11
67.418609
 21
217.602999
 31
0.0
  0
LINE
  5
101
100
AcDbEntity
  8
1
370
    30
  6
Continuous
 62
     7
100
AcDbLine
 10
91.318605
 20
193.688335
 30
0.0
 11
91.266961
 21
109.5169
 31
0.0
  0
ARC
  5
102
100
AcDbEntity
  8
1
370
    30
  6
Continuous
 62
     7
100
AcDbCircle
 10
67.433277
 20
193.702999
 30
0.0
 40
14.1
100
AcDbArc
 50
0.0
 51
90.0
  0
LINE
  5
103
100
AcDbEntity
  8
1
370
    30
  6
Continuous
 62
     7
100
AcDbLine
 10
81.533278
 20
109.5169
 30
0.0
 11
81.533278
 21
193.702999
 31
0.0
  0
LINE
  5
104
100
AcDbEntity
  8
1
370
    30
  6
Continuous
 62
     7
100
AcDbLine
 10
67.433277
 20
207.802999
 30
0.0
 11
53.433278
 21
207.802999
 31
0.0
  0
LINE
  5
105
100
AcDbEntity
  8
1
370
    30
  6
Continuous
 62
     7
100
AcDbLine
 10
39.333278
 20
183.147
 30
0.0
 11
39.333278
 21
191.183017
 31
0.0
  0
ARC
  5
106
100
AcDbEntity
  8
1
370
    30
  6
Continuous
 62
     7
100
AcDbCircle
 10
53.433278
 20
193.702999
 30
0.0
 40
14.1
100
AcDbArc
 50
90.0
 51
178.078667
  0
LINE
  5
107
100
AcDbEntity
  8
1
370
    30
  6
Continuous
 62
     7
100
AcDbLine
 10
81.823177
 20
109.5169
 30
0.0
 11
90.961478
 21
109.5169
 31
0.0
  0
LINE
  5
108
100
AcDbEntity
  8
1
370
    30
  6
Continuous
 62
     7
100
AcDbLine
 10
91.552779
 20
108.102998
 30
0.0
 11
81.124378
 21
108.102998
 31
0.0
  0
ARC
  5
109
100
AcDbEntity
  8
1
370
    30
  6
Continuous
 62
     7
100
AcDbCircle
 10
117.165284
 20
172.102999
 30
0.0
 40
2.5
100
AcDbArc
 50
90.0
 51
180.0
  0
LINE
  5
10A
100
AcDbEntity
  8
1
370
    30
  6
Continuous
 62
     7
100
AcDbLine
 10
120.865283
 20
174.602999
 30
0.0
 11
117.165284
 21
174.602999
 31
0.0
  0
ARC
  5
10B
100
AcDbEntity
  8
1
370
    30
  6
Continuous
 62
     7
100
AcDbCircle
 10
117.165284
 20
161.103
 30
0.0
 40
2.5
100
AcDbArc
 50
180.0
 51
-90.0
  0
LINE
  5
10C
100
AcDbEntity
  8
1
370
    30
  6
Continuous
 62
     7
100
AcDbLine
 10
114.665284
 20
172.102999
 30
0.0
 11
114.665284
 21
161.103
 31
0.0
  0
ARC
  5
10D
100
AcDbEntity
  8
1
370
    30
  6
Continuous
 62
     7
100
AcDbCircle
 10
235.165283
 20
172.102999
 30
0.0
 40
2.5
100
AcDbArc
 50
0.0
 51
90.0
  0
LINE
  5
10E
100
AcDbEntity
  8
1
370
    30
  6
Continuous
 62
     7
100
AcDbLine
 10
231.465284
 20
174.602999
 30
0.0
 11
235.165283
 21
174.602999
 31
0.0
  0
ARC
  5
10F
100
AcDbEntity
  8
1
370
    30
  6
Continuous
 62
     7
100
AcDbCircle
 10
235.165283
 20
161.103
 30
0.0
 40
2.5
100
AcDbArc
 50
-90.0
 51
0.0
  0
LINE
  5
110
100
AcDbEntity
  8
1
370
    30
  6
Continuous
 62
     7
100
AcDbLine
 10
237.665283
 20
172.102999
 30
0.0
 11
237.665283
 21
161.103
 31
0.0
  0
ARC
  5
111
100
AcDbEntity
  8
1
370
    30
  6
Continuous
 62
     7
100
AcDbCircle
 10
227.248339
 20
162.602998
 30
0.0
 40
9.999999
100
AcDbArc
 50
-90.0
 51
-65.000011
  0
LINE
  5
112
100
AcDbEntity
  8
1
370
    30
  6
Continuous
 62
     7
100
AcDbLine
 10
231.465284
 20
153.53562
 30
0.0
 11
231.465284
 21
179.670385
 31
0.0
  0
ARC
  5
113
100
AcDbEntity
  8
1
370
    30
  6
Continuous
 62
     7
100
AcDbCircle
 10
227.248339
 20
170.603001
 30
0.0
 40
9.999999
100
AcDbArc
 50
65.000011
 51
90.0
  0
ARC
  5
114
100
AcDbEntity
  8
1
370
    30
  6
Continuous
 62
     7
100
AcDbCircle
 10
125.082229
 20
170.603001
 30
0.0
 40
9.999999
100
AcDbArc
 50
90.0
 51
114.999989
  0
LINE
  5
115
100
AcDbEntity
  8
1
370
    30
  6
Continuous
 62
     7
100
AcDbLine
 10
120.865283
 20
153.535613
 30
0.0
 11
120.865283
 21
179.670385
 31
0.0
  0
ARC
  5
116
100
AcDbEntity
  8
1
370
    30
  6
Continuous
 62
     7
100
AcDbCircle
 10
125.082229
 20
162.602998
 30
0.0
 40
9.999999
100
AcDbArc
 50
-114.999989
 51
-90.0
  0
LINE
  5
117
100
AcDbEntity
  8
1
370
    30
  6
Continuous
 62
     7
100
AcDbLine
 10
120.856049
 20
153.539919
 30
0.0
 11
122.865283
 21
152.602999
 31
0.0
  0
LINE
  5
118
100
AcDbEntity
  8
1
370
    30
  6
Continuous
 62
     7
100
AcDbLine
 10
125.082229
 20
152.602999
 30
0.0
 11
133.265838
 21
152.602999
 31
0.0
  0
ARC
  5
119
100
AcDbEntity
  8
1
370
    30
  6
Continuous
 62
     7
100
AcDbCircle
 10
160.165283
 20
137.019666
 30
0.0
 40
17.083332
100
AcDbArc
 50
65.810486
 51
114.189514
  0
LINE
  5
11A
100
AcDbEntity
  8
1
370
    30
  6
Continuous
 62
     7
100
AcDbLine
 10
134.51044
 20
152.602999
 30
0.0
 11
153.165284
 21
152.602999
 31
0.0
  0
ARC
  5
11B
100
AcDbEntity
  8
1
370
    30
  6
Continuous
 62
     7
100
AcDbCircle
 10
119.165284
 20
157.503865
 30
0.0
 40
1.627298
100
AcDbArc
 50
42.488004
 51
137.511996
  0
LINE
  5
11C
100
AcDbEntity
  8
1
370
    30
  6
Continuous
 62
     7
100
AcDbLine
 10
117.165284
 20
158.603
 30
0.0
 11
117.965285
 21
158.603
 31
0.0
  0
LINE
  5
11D
100
AcDbEntity
  8
1
370
    30
  6
Continuous
 62
     7
100
AcDbLine
 10
120.339361
 20
158.603
 30
0.0
 11
120.865283
 21
158.603
 31
0.0
  0
ARC
  5
11E
100
AcDbEntity
  8
1
370
    30
  6
Continuous
 62
     7
100
AcDbCircle
 10
233.165284
 20
157.50244
 30
0.0
 40
1.62826
100
AcDbArc
 50
42.524985
 51
137.475015
  0
LINE
  5
11F
100
AcDbEntity
  8
1
370
    30
  6
Continuous
 62
     7
100
AcDbLine
 10
235.165283
 20
158.603
 30
0.0
 11
234.339324
 21
158.603
 31
0.0
  0
LINE
  5
120
100
AcDbEntity
  8
1
370
    30
  6
Continuous
 62
     7
100
AcDbLine
 10
231.991243
 20
158.603
 30
0.0
 11
231.465284
 21
158.603
 31
0.0
  0
LINE
  5
121
100
AcDbEntity
  8
1
370
    30
  6
Continuous
 62
     7
100
AcDbLine
 10
170.371002
 20
180.320451
 30
0.0
 11
170.486587
 21
180.236842
 31
0.0
  0
LINE
  5
122
100
AcDbEntity
  8
1
370
    30
  6
Continuous
 62
     7
100
AcDbLine
 10
170.486587
 20
180.236842
 30
0.0
 11
170.607263
 21
180.153841
 31
0.0
  0
LINE
  5
123
100
AcDbEntity
  8
1
370
    30
  6
Continuous
 62
     7
100
AcDbLine
 10
170.607263
 20
180.153841
 30
0.0
 11
170.732566
 21
180.071622
 31
0.0
  0
LINE
  5
124
100
AcDbEntity
  8
1
370
    30
  6
Continuous
 62
     7
100
AcDbLine
 10
170.732566
 20
180.071622
 30
0.0
 11
170.862032
 21
179.99036
 31
0.0
  0
LINE
  5
125
100
AcDbEntity
  8
1
370
    30
  6
Continuous
 62
     7
100
AcDbLine
 10
170.862032
 20
179.99036
 30
0.0
 11
170.995197
 21
179.910231
 31
0.0
  0
LINE
  5
126
100
AcDbEntity
  8
1
370
    30
  6
Continuous
 62
     7
100
AcDbLine
 10
170.995197
 20
179.910231
 30
0.0
 11
171.131595
 21
179.831411
 31
0.0
  0
LINE
  5
127
100
AcDbEntity
  8
1
370
    30
  6
Continuous
 62
     7
100
AcDbLine
 10
171.131595
 20
179.831411
 30
0.0
 11
171.270762
 21
179.754074
 31
0.0
  0
LINE
  5
128
100
AcDbEntity
  8
1
370
    30
  6
Continuous
 62
     7
100
AcDbLine
 10
171.270762
 20
179.754074
 30
0.0
 11
171.412233
 21
179.678396
 31
0.0
  0
LINE
  5
129
100
AcDbEntity
  8
1
370
    30
  6
Continuous
 62
     7
100
AcDbLine
 10
171.412233
 20
179.678396
 30
0.0
 11
171.558951
 21
179.603266
 31
0.0
  0
LINE
  5
12A
100
AcDbEntity
  8
1
370
    30
  6
Continuous
 62
     7
100
AcDbLine
 10
171.558951
 20
179.603266
 30
0.0
 11
171.71262
 21
179.528044
 31
0.0
  0
LINE
  5
12B
100
AcDbEntity
  8
1
370
    30
  6
Continuous
 62
     7
100
AcDbLine
 10
171.71262
 20
179.528044
 30
0.0
 11
171.870916
 21
179.453602
 31
0.0
  0
LINE
  5
12C
100
AcDbEntity
  8
1
370
    30
  6
Continuous
 62
     7
100
AcDbLine
 10
171.870916
 20
179.453602
 30
0.0
 11
172.031515
 21
179.380819
 31
0.0
  0
LINE
  5
12D
100
AcDbEntity
  8
1
370
    30
  6
Continuous
 62
     7
100
AcDbLine
 10
172.031515
 20
179.380819
 30
0.0
 11
172.192099
 21
179.310572
 31
0.0
  0
LINE
  5
12E
100
AcDbEntity
  8
1
370
    30
  6
Continuous
 62
     7
100
AcDbLine
 10
172.192099
 20
179.310572
 30
0.0
 11
172.350338
 21
179.243738
 31
0.0
  0
LINE
  5
12F
100
AcDbEntity
  8
1
370
    30
  6
Continuous
 62
     7
100
AcDbLine
 10
172.350338
 20
179.243738
 30
0.0
 11
172.503915
 21
179.181192
 31
0.0
  0
LINE
  5
130
100
AcDbEntity
  8
1
370
    30
  6
Continuous
 62
     7
100
AcDbLine
 10
172.503915
 20
179.181192
 30
0.0
 11
172.650506
 21
179.123813
 31
0.0
  0
LINE
  5
131
100
AcDbEntity
  8
1
370
    30
  6
Continuous
 62
     7
100
AcDbLine
 10
172.650506
 20
179.123813
 30
0.0
 11
172.79034
 21
179.071899
 31
0.0
  0
LINE
  5
132
100
AcDbEntity
  8
1
370
    30
  6
Continuous
 62
     7
100
AcDbLine
 10
172.79034
 20
179.071899
 30
0.0
 11
172.925725
 21
179.024742
 31
0.0
  0
LINE
  5
133
100
AcDbEntity
  8
1
370
    30
  6
Continuous
 62
     7
100
AcDbLine
 10
172.925725
 20
179.024742
 30
0.0
 11
173.057461
 21
178.981712
 31
0.0
  0
LINE
  5
134
100
AcDbEntity
  8
1
370
    30
  6
Continuous
 62
     7
100
AcDbLine
 10
173.057461
 20
178.981712
 30
0.0
 11
173.18635
 21
178.942176
 31
0.0
  0
LINE
  5
135
100
AcDbEntity
  8
1
370
    30
  6
Continuous
 62
     7
100
AcDbLine
 10
173.18635
 20
178.942176
 30
0.0
 11
173.313189
 21
178.905501
 31
0.0
  0
LINE
  5
136
100
AcDbEntity
  8
1
370
    30
  6
Continuous
 62
     7
100
AcDbLine
 10
173.313189
 20
178.905501
 30
0.0
 11
173.438777
 21
178.871054
 31
0.0
  0
LINE
  5
137
100
AcDbEntity
  8
1
370
    30
  6
Continuous
 62
     7
100
AcDbLine
 10
173.438777
 20
178.871054
 30
0.0
 11
173.563912
 21
178.838207
 31
0.0
  0
LINE
  5
138
100
AcDbEntity
  8
1
370
    30
  6
Continuous
 62
     7
100
AcDbLine
 10
173.563912
 20
178.838207
 30
0.0
 11
173.689396
 21
178.806323
 31
0.0
  0
LINE
  5
139
100
AcDbEntity
  8
1
370
    30
  6
Continuous
 62
     7
100
AcDbLine
 10
173.689396
 20
178.806323
 30
0.0
 11
173.814641
 21
178.775867
 31
0.0
  0
LINE
  5
13A
100
AcDbEntity
  8
1
370
    30
  6
Continuous
 62
     7
100
AcDbLine
 10
173.814641
 20
178.775867
 30
0.0
 11
173.938636
 21
178.747642
 31
0.0
  0
LINE
  5
13B
100
AcDbEntity
  8
1
370
    30
  6
Continuous
 62
     7
100
AcDbLine
 10
173.938636
 20
178.747642
 30
0.0
 11
174.061539
 21
178.721517
 31
0.0
  0
LINE
  5
13C
100
AcDbEntity
  8
1
370
    30
  6
Continuous
 62
     7
100
AcDbLine
 10
174.061539
 20
178.721517
 30
0.0
 11
174.18351
 21
178.69737
 31
0.0
  0
LINE
  5
13D
100
AcDbEntity
  8
1
370
    30
  6
Continuous
 62
     7
100
AcDbLine
 10
174.18351
 20
178.69737
 30
0.0
 11
174.304712
 21
178.675074
 31
0.0
  0
LINE
  5
13E
100
AcDbEntity
  8
1
370
    30
  6
Continuous
 62
     7
100
AcDbLine
 10
174.304712
 20
178.675074
 30
0.0
 11
174.425301
 21
178.6545
 31
0.0
  0
LINE
  5
13F
100
AcDbEntity
  8
1
370
    30
  6
Continuous
 62
     7
100
AcDbLine
 10
174.425301
 20
178.6545
 30
0.0
 11
174.545439
 21
178.635524
 31
0.0
  0
LINE
  5
140
100
AcDbEntity
  8
1
370
    30
  6
Continuous
 62
     7
100
AcDbLine
 10
174.545439
 20
178.635524
 30
0.0
 11
174.665284
 21
178.618017
 31
0.0
  0
LINE
  5
141
100
AcDbEntity
  8
1
370
    30
  6
Continuous
 62
     7
100
AcDbLine
 10
177.665284
 20
178.658211
 30
0.0
 11
177.887498
 21
178.704103
 31
0.0
  0
LINE
  5
142
100
AcDbEntity
  8
1
370
    30
  6
Continuous
 62
     7
100
AcDbLine
 10
177.887498
 20
178.704103
 30
0.0
 11
178.101665
 21
178.751084
 31
0.0
  0
LINE
  5
143
100
AcDbEntity
  8
1
370
    30
  6
Continuous
 62
     7
100
AcDbLine
 10
178.101665
 20
178.751084
 30
0.0
 11
178.308171
 21
178.799219
 31
0.0
  0
LINE
  5
144
100
AcDbEntity
  8
1
370
    30
  6
Continuous
 62
     7
100
AcDbLine
 10
178.308171
 20
178.799219
 30
0.0
 11
178.507404
 21
178.848571
 31
0.0
  0
LINE
  5
145
100
AcDbEntity
  8
1
370
    30
  6
Continuous
 62
     7
100
AcDbLine
 10
178.507404
 20
178.848571
 30
0.0
 11
178.699748
 21
178.899205
 31
0.0
  0
LINE
  5
146
100
AcDbEntity
  8
1
370
    30
  6
Continuous
 62
     7
100
AcDbLine
 10
178.699748
 20
178.899205
 30
0.0
 11
178.885592
 21
178.951185
 31
0.0
  0
LINE
  5
147
100
AcDbEntity
  8
1
370
    30
  6
Continuous
 62
     7
100
AcDbLine
 10
178.885592
 20
178.951185
 30
0.0
 11
179.065322
 21
179.004574
 31
0.0
  0
LINE
  5
148
100
AcDbEntity
  8
1
370
    30
  6
Continuous
 62
     7
100
AcDbLine
 10
179.065322
 20
179.004574
 30
0.0
 11
179.239323
 21
179.059438
 31
0.0
  0
LINE
  5
149
100
AcDbEntity
  8
1
370
    30
  6
Continuous
 62
     7
100
AcDbLine
 10
179.239323
 20
179.059438
 30
0.0
 11
179.405148
 21
179.11537
 31
0.0
  0
LINE
  5
14A
100
AcDbEntity
  8
1
370
    30
  6
Continuous
 62
     7
100
AcDbLine
 10
179.405148
 20
179.11537
 30
0.0
 11
179.56138
 21
179.172133
 31
0.0
  0
LINE
  5
14B
100
AcDbEntity
  8
1
370
    30
  6
Continuous
 62
     7
100
AcDbLine
 10
179.56138
 20
179.172133
 30
0.0
 11
179.70995
 21
179.230052
 31
0.0
  0
LINE
  5
14C
100
AcDbEntity
  8
1
370
    30
  6
Continuous
 62
     7
100
AcDbLine
 10
179.70995
 20
179.230052
 30
0.0
 11
179.852794
 21
179.289444
 31
0.0
  0
LINE
  5
14D
100
AcDbEntity
  8
1
370
    30
  6
Continuous
 62
     7
100
AcDbLine
 10
179.852794
 20
179.289444
 30
0.0
 11
179.991842
 21
179.35063
 31
0.0
  0
LINE
  5
14E
100
AcDbEntity
  8
1
370
    30
  6
Continuous
 62
     7
100
AcDbLine
 10
179.991842
 20
179.35063
 30
0.0
 11
180.12903
 21
179.413931
 31
0.0
  0
LINE
  5
14F
100
AcDbEntity
  8
1
370
    30
  6
Continuous
 62
     7
100
AcDbLine
 10
180.12903
 20
179.413931
 30
0.0
 11
180.266288
 21
179.479667
 31
0.0
  0
LINE
  5
150
100
AcDbEntity
  8
1
370
    30
  6
Continuous
 62
     7
100
AcDbLine
 10
180.266288
 20
179.479667
 30
0.0
 11
180.405552
 21
179.54816
 31
0.0
  0
LINE
  5
151
100
AcDbEntity
  8
1
370
    30
  6
Continuous
 62
     7
100
AcDbLine
 10
180.405552
 20
179.54816
 30
0.0
 11
180.549502
 21
179.62221
 31
0.0
  0
LINE
  5
152
100
AcDbEntity
  8
1
370
    30
  6
Continuous
 62
     7
100
AcDbLine
 10
180.549502
 20
179.62221
 30
0.0
 11
180.697448
 21
179.702715
 31
0.0
  0
LINE
  5
153
100
AcDbEntity
  8
1
370
    30
  6
Continuous
 62
     7
100
AcDbLine
 10
180.697448
 20
179.702715
 30
0.0
 11
180.84626
 21
179.787133
 31
0.0
  0
LINE
  5
154
100
AcDbEntity
  8
1
370
    30
  6
Continuous
 62
     7
100
AcDbLine
 10
180.84626
 20
179.787133
 30
0.0
 11
180.992814
 21
179.872925
 31
0.0
  0
LINE
  5
155
100
AcDbEntity
  8
1
370
    30
  6
Continuous
 62
     7
100
AcDbLine
 10
180.992814
 20
179.872925
 30
0.0
 11
181.13398
 21
179.957557
 31
0.0
  0
LINE
  5
156
100
AcDbEntity
  8
1
370
    30
  6
Continuous
 62
     7
100
AcDbLine
 10
181.13398
 20
179.957557
 30
0.0
 11
181.266634
 21
180.038486
 31
0.0
  0
LINE
  5
157
100
AcDbEntity
  8
1
370
    30
  6
Continuous
 62
     7
100
AcDbLine
 10
181.266634
 20
180.038486
 30
0.0
 11
181.387646
 21
180.113175
 31
0.0
  0
LINE
  5
158
100
AcDbEntity
  8
1
370
    30
  6
Continuous
 62
     7
100
AcDbLine
 10
181.387646
 20
180.113175
 30
0.0
 11
181.49389
 21
180.179083
 31
0.0
  0
LINE
  5
159
100
AcDbEntity
  8
1
370
    30
  6
Continuous
 62
     7
100
AcDbLine
 10
181.49389
 20
180.179083
 30
0.0
 11
181.58766
 21
180.238074
 31
0.0
  0
LINE
  5
15A
100
AcDbEntity
  8
1
370
    30
  6
Continuous
 62
     7
100
AcDbLine
 10
181.58766
 20
180.238074
 30
0.0
 11
181.672916
 21
180.293364
 31
0.0
  0
LINE
  5
15B
100
AcDbEntity
  8
1
370
    30
  6
Continuous
 62
     7
100
AcDbLine
 10
181.672916
 20
180.293364
 30
0.0
 11
181.749033
 21
180.344443
 31
0.0
  0
LINE
  5
15C
100
AcDbEntity
  8
1
370
    30
  6
Continuous
 62
     7
100
AcDbLine
 10
181.749033
 20
180.344443
 30
0.0
 11
181.815386
 21
180.390806
 31
0.0
  0
LINE
  5
15D
100
AcDbEntity
  8
1
370
    30
  6
Continuous
 62
     7
100
AcDbLine
 10
181.815386
 20
180.390806
 30
0.0
 11
181.871349
 21
180.431943
 31
0.0
  0
LINE
  5
15E
100
AcDbEntity
  8
1
370
    30
  6
Continuous
 62
     7
100
AcDbLine
 10
181.871349
 20
180.431943
 30
0.0
 11
181.916296
 21
180.467349
 31
0.0
  0
LINE
  5
15F
100
AcDbEntity
  8
1
370
    30
  6
Continuous
 62
     7
100
AcDbLine
 10
181.916296
 20
180.467349
 30
0.0
 11
181.949602
 21
180.496512
 31
0.0
  0
LINE
  5
160
100
AcDbEntity
  8
1
370
    30
  6
Continuous
 62
     7
100
AcDbLine
 10
181.949602
 20
180.496512
 30
0.0
 11
181.970643
 21
180.518928
 31
0.0
  0
LINE
  5
161
100
AcDbEntity
  8
1
370
    30
  6
Continuous
 62
     7
100
AcDbLine
 10
198.456617
 20
118.497001
 30
0.0
 11
199.440285
 21
117.103001
 31
0.0
  0
LINE
  5
162
100
AcDbEntity
  8
1
370
    30
  6
Continuous
 62
     7
100
AcDbLine
 10
199.440285
 20
117.103001
 30
0.0
 11
199.440285
 21
107.603
 31
0.0
  0
LINE
  5
163
100
AcDbEntity
  8
1
370
    30
  6
Continuous
 62
     7
100
AcDbLine
 10
199.440285
 20
107.603
 30
0.0
 11
184.890284
 21
107.603
 31
0.0
  0
LINE
  5
164
100
AcDbEntity
  8
1
370
    30
  6
Continuous
 62
     7
100
AcDbLine
 10
184.890284
 20
107.603
 30
0.0
 11
184.890284
 21
117.103001
 31
0.0
  0
LINE
  5
165
100
AcDbEntity
  8
1
370
    30
  6
Continuous
 62
     7
100
AcDbLine
 10
184.890284
 20
117.103001
 30
0.0
 11
185.815285
 21
118.497001
 31
0.0
  0
LINE
  5
166
100
AcDbEntity
  8
1
370
    30
  6
Continuous
 62
     7
100
AcDbLine
 10
166.515283
 20
118.497001
 30
0.0
 11
167.440284
 21
117.103001
 31
0.0
  0
LINE
  5
167
100
AcDbEntity
  8
1
370
    30
  6
Continuous
 62
     7
100
AcDbLine
 10
167.440284
 20
117.103001
 30
0.0
 11
167.440284
 21
107.603
 31
0.0
  0
LINE
  5
168
100
AcDbEntity
  8
1
370
    30
  6
Continuous
 62
     7
100
AcDbLine
 10
167.440284
 20
107.603
 30
0.0
 11
152.890283
 21
107.603
 31
0.0
  0
LINE
  5
169
100
AcDbEntity
  8
1
370
    30
  6
Continuous
 62
     7
100
AcDbLine
 10
152.890283
 20
107.603
 30
0.0
 11
152.890283
 21
117.103001
 31
0.0
  0
LINE
  5
16A
100
AcDbEntity
  8
1
370
    30
  6
Continuous
 62
     7
100
AcDbLine
 10
152.890283
 20
117.103001
 30
0.0
 11
153.695108
 21
118.497001
 31
0.0
  0
LINE
  5
16B
100
AcDbEntity
  8
1
370
    30
  6
Continuous
 62
     7
100
AcDbLine
 10
183.440285
 20
105.102998
 30
0.0
 11
183.440285
 21
95.602999
 31
0.0
  0
LINE
  5
16C
100
AcDbEntity
  8
1
370
    30
  6
Continuous
 62
     7
100
AcDbLine
 10
183.440285
 20
95.602999
 30
0.0
 11
168.890283
 21
95.602999
 31
0.0
  0
LINE
  5
16D
100
AcDbEntity
  8
1
370
    30
  6
Continuous
 62
     7
100
AcDbLine
 10
168.890283
 20
95.602999
 30
0.0
 11
168.890283
 21
105.102998
 31
0.0
  0
LINE
  5
16E
100
AcDbEntity
  8
1
370
    30
  6
Continuous
 62
     7
100
AcDbLine
 10
185.815285
 20
118.497001
 30
0.0
 11
185.815285
 21
129.336975
 31
0.0
  0
LINE
  5
16F
100
AcDbEntity
  8
1
370
    30
  6
Continuous
 62
     7
100
AcDbLine
 10
185.815285
 20
131.867976
 30
0.0
 11
185.815285
 21
149.602999
 31
0.0
  0
LINE
  5
170
100
AcDbEntity
  8
1
370
    30
  6
Continuous
 62
     7
100
AcDbLine
 10
166.515283
 20
152.878977
 30
0.0
 11
166.515283
 21
131.867976
 31
0.0
  0
LINE
  5
171
100
AcDbEntity
  8
1
370
    30
  6
Continuous
 62
     7
100
AcDbLine
 10
166.515283
 20
129.336975
 30
0.0
 11
166.515283
 21
118.497001
 31
0.0
  0
LINE
  5
172
100
AcDbEntity
  8
1
370
    30
  6
Continuous
 62
     7
100
AcDbLine
 10
185.815285
 20
118.522
 30
0.0
 11
198.456617
 21
118.522
 31
0.0
  0
LINE
  5
173
100
AcDbEntity
  8
1
370
    30
  6
Continuous
 62
     7
100
AcDbLine
 10
198.853284
 20
116.924
 30
0.0
 11
184.890284
 21
116.924
 31
0.0
  0
LINE
  5
174
100
AcDbEntity
  8
1
370
    30
  6
Continuous
 62
     7
100
AcDbLine
 10
167.440284
 20
116.924
 30
0.0
 11
152.890283
 21
116.924
 31
0.0
  0
LINE
  5
175
100
AcDbEntity
  8
1
370
    30
  6
Continuous
 62
     7
100
AcDbLine
 10
153.695196
 20
118.522
 30
0.0
 11
166.515283
 21
118.522
 31
0.0
  0
LINE
  5
176
100
AcDbEntity
  8
1
370
    30
  6
Continuous
 62
     7
100
AcDbLine
 10
182.605283
 20
183.147
 30
0.0
 11
177.665284
 21
183.147
 31
0.0
  0
ARC
  5
177
100
AcDbEntity
  8
1
370
    30
  6
Continuous
 62
     7
100
AcDbCircle
 10
183.105283
 20
181.103
 30
0.0
 40
0.5
100
AcDbArc
 50
180.0
 51
-90.0
  0
LINE
  5
178
100
AcDbEntity
  8
1
370
    30
  6
Continuous
 62
     7
100
AcDbLine
 10
182.605283
 20
183.147
 30
0.0
 11
182.605283
 21
181.103
 31
0.0
  0
LINE
  5
179
100
AcDbEntity
  8
1
370
    30
  6
Continuous
 62
     7
100
AcDbLine
 10
227.248339
 20
180.603
 30
0.0
 11
183.105283
 21
180.603
 31
0.0
  0
ARC
  5
17A
100
AcDbEntity
  8
1
370
    30
  6
Continuous
 62
     7
100
AcDbCircle
 10
169.225284
 20
181.115913
 30
0.0
 40
0.5
100
AcDbArc
 50
-89.983241
 51
0.0
  0
LINE
  5
17B
100
AcDbEntity
  8
1
370
    30
  6
Continuous
 62
     7
100
AcDbLine
 10
169.725284
 20
183.147
 30
0.0
 11
169.725284
 21
181.115913
 31
0.0
  0
LINE
  5
17C
100
AcDbEntity
  8
1
370
    30
  6
Continuous
 62
     7
100
AcDbLine
 10
125.082229
 20
180.603
 30
0.0
 11
169.22543
 21
180.615913
 31
0.0
  0
LINE
  5
17D
100
AcDbEntity
  8
1
370
    30
  6
Continuous
 62
     7
100
AcDbLine
 10
174.665284
 20
183.147
 30
0.0
 11
169.725284
 21
183.147
 31
0.0
  0
ARC
  5
17E
100
AcDbEntity
  8
1
370
    30
  6
Continuous
 62
     7
100
AcDbCircle
 10
176.165284
 20
212.702999
 30
0.0
 40
4.9
100
AcDbArc
 50
0.0
 51
180.0
  0
LINE
  5
17F
100
AcDbEntity
  8
1
370
    30
  6
Continuous
 62
     7
100
AcDbLine
 10
181.065284
 20
183.147
 30
0.0
 11
181.065284
 21
213.085743
 31
0.0
  0
LINE
  5
180
100
AcDbEntity
  8
1
370
    30
  6
Continuous
 62
     7
100
AcDbLine
 10
171.265284
 20
183.147
 30
0.0
 11
171.265284
 21
212.702999
 31
0.0
  0
LINE
  5
181
100
AcDbEntity
  8
1
370
    30
  6
Continuous
 62
     7
100
AcDbLine
 10
171.265284
 20
124.924999
 30
0.0
 11
171.265284
 21
109.5169
 31
0.0
  0
LINE
  5
182
100
AcDbEntity
  8
1
370
    30
  6
Continuous
 62
     7
100
AcDbLine
 10
171.614285
 20
109.5169
 30
0.0
 11
180.475285
 21
109.5169
 31
0.0
  0
LINE
  5
183
100
AcDbEntity
  8
1
370
    30
  6
Continuous
 62
     7
100
AcDbLine
 10
153.695108
 20
118.497001
 30
0.0
 11
153.748814
 21
133.862159
 31
0.0
  0
LINE
  5
184
100
AcDbEntity
  8
1
370
    30
  6
Continuous
 62
     7
100
AcDbLine
 10
153.760636
 20
137.244449
 30
0.0
 11
153.815284
 21
152.878977
 31
0.0
  0
LINE
  5
185
100
AcDbEntity
  8
1
370
    30
  6
Continuous
 62
     7
100
AcDbLine
 10
198.456617
 20
151.402999
 30
0.0
 11
198.456617
 21
137.131134
 31
0.0
  0
LINE
  5
186
100
AcDbEntity
  8
1
370
    30
  6
Continuous
 62
     7
100
AcDbLine
 10
198.456617
 20
133.737022
 30
0.0
 11
198.456617
 21
118.497001
 31
0.0
  0
LINE
  5
187
100
AcDbEntity
  8
1
370
    30
  6
Continuous
 62
     7
100
AcDbLine
 10
181.811937
 20
98.602999
 30
0.0
 11
170.511936
 21
98.602999
 31
0.0
  0
LINE
  5
188
100
AcDbEntity
  8
1
370
    30
  6
Continuous
 62
     7
100
AcDbLine
 10
181.065284
 20
109.5169
 30
0.0
 11
181.806237
 21
108.102998
 31
0.0
  0
LINE
  5
189
100
AcDbEntity
  8
1
370
    30
  6
Continuous
 62
     7
100
AcDbLine
 10
181.811937
 20
98.602999
 30
0.0
 11
181.806237
 21
108.102998
 31
0.0
  0
LINE
  5
18A
100
AcDbEntity
  8
1
370
    30
  6
Continuous
 62
     7
100
AcDbLine
 10
171.265284
 20
109.5169
 30
0.0
 11
170.506236
 21
108.102998
 31
0.0
  0
LINE
  5
18B
100
AcDbEntity
  8
1
370
    30
  6
Continuous
 62
     7
100
AcDbLine
 10
170.511936
 20
98.602999
 30
0.0
 11
170.506236
 21
108.102998
 31
0.0
  0
LINE
  5
18C
100
AcDbEntity
  8
1
370
    30
  6
Continuous
 62
     7
100
AcDbLine
 10
181.806237
 20
108.102998
 30
0.0
 11
170.506236
 21
108.102998
 31
0.0
  0
LINE
  5
18D
100
AcDbEntity
  8
1
370
    30
  6
Continuous
 62
     7
100
AcDbLine
 10
183.440285
 20
105.102998
 30
0.0
 11
182.465503
 21
106.9672
 31
0.0
  0
LINE
  5
18E
100
AcDbEntity
  8
1
370
    30
  6
Continuous
 62
     7
100
AcDbLine
 10
182.493158
 20
130.944228
 30
0.0
 11
182.465752
 21
106.966723
 31
0.0
  0
LINE
  5
18F
100
AcDbEntity
  8
1
370
    30
  6
Continuous
 62
     7
100
AcDbLine
 10
168.890283
 20
105.102998
 30
0.0
 11
169.815285
 21
106.811098
 31
0.0
  0
LINE
  5
190
100
AcDbEntity
  8
1
370
    30
  6
Continuous
 62
     7
100
AcDbLine
 10
169.815285
 20
130.928602
 30
0.0
 11
169.815285
 21
106.811098
 31
0.0
  0
LINE
  5
191
100
AcDbEntity
  8
1
370
    30
  6
Continuous
 62
     7
100
AcDbLine
 10
169.815285
 20
106.904699
 30
0.0
 11
170.506954
 21
106.904699
 31
0.0
  0
LINE
  5
192
100
AcDbEntity
  8
1
370
    30
  6
Continuous
 62
     7
100
AcDbLine
 10
181.806955
 20
106.904699
 30
0.0
 11
182.465503
 21
106.904699
 31
0.0
  0
LINE
  5
193
100
AcDbEntity
  8
1
370
    30
  6
Continuous
 62
     7
100
AcDbLine
 10
183.440285
 20
104.996499
 30
0.0
 11
181.808101
 21
104.996499
 31
0.0
  0
LINE
  5
194
100
AcDbEntity
  8
1
370
    30
  6
Continuous
 62
     7
100
AcDbLine
 10
168.890283
 20
104.996499
 30
0.0
 11
170.508099
 21
104.996499
 31
0.0
  0
LINE
  5
195
100
AcDbEntity
  8
1
370
    30
  6
Continuous
 62
     7
100
AcDbLine
 10
181.065284
 20
109.5169
 30
0.0
 11
181.065284
 21
124.857999
 31
0.0
  0
LINE
  5
196
100
AcDbEntity
  8
1
370
    30
  6
Continuous
 62
     7
100
AcDbLine
 10
58.033278
 20
163.811202
 30
0.0
 11
58.033278
 21
150.394794
 31
0.0
  0
ARC
  5
197
100
AcDbEntity
  8
1
370
    30
  6
Continuous
 62
     7
100
AcDbCircle
 10
64.033277
 20
157.102998
 30
0.0
 40
8.999999
100
AcDbArc
 50
-131.810313
 51
131.810313
  0
LINE
  5
198
100
AcDbEntity
  8
1
370
    30
  6
Continuous
 62
     7
100
AcDbLine
 10
64.033277
 20
168.202999
 30
0.0
 11
61.033277
 21
168.202999
 31
0.0
  0
LINE
  5
199
100
AcDbEntity
  8
1
370
    30
  6
Continuous
 62
     7
100
AcDbLine
 10
61.033277
 20
168.202999
 30
0.0
 11
56.033278
 21
173.126786
 31
0.0
  0
ARC
  5
19A
100
AcDbEntity
  8
1
370
    30
  6
Continuous
 62
     7
100
AcDbCircle
 10
72.755423
 20
161.113506
 30
0.0
 40
1.5
100
AcDbArc
 50
-74.295987
 51
24.693314
  0
LINE
  5
19B
100
AcDbEntity
  8
1
370
    30
  6
Continuous
 62
     7
100
AcDbLine
 10
73.161425
 20
159.669498
 30
0.0
 11
72.697332
 21
159.539011
 31
0.0
  0
ARC
  5
19C
100
AcDbEntity
  8
1
370
    30
  6
Continuous
 62
     7
100
AcDbCircle
 10
64.033276
 20
157.103
 30
0.0
 40
11.100001
100
AcDbArc
 50
24.693312
 51
89.999992
  0
ARC
  5
19D
100
AcDbEntity
  8
1
370
    30
  6
Continuous
 62
     7
100
AcDbCircle
 10
72.70055
 20
152.975246
 30
0.0
 40
1.5
100
AcDbArc
 50
-25.465937
 51
73.523359
  0
LINE
  5
19E
100
AcDbEntity
  8
1
370
    30
  6
Continuous
 62
     7
100
AcDbLine
 10
73.125987
 20
154.413648
 30
0.0
 11
72.663696
 21
154.55038
 31
0.0
  0
ARC
  5
19F
100
AcDbEntity
  8
1
370
    30
  6
Continuous
 62
     7
100
AcDbCircle
 10
64.033276
 20
157.103
 30
0.0
 40
11.100001
100
AcDbArc
 50
-89.999992
 51
-23.582331
  0
ARC
  5
1A0
100
AcDbEntity
  8
1
370
    30
  6
Continuous
 62
     7
100
AcDbCircle
 10
50.802855
 20
146.502998
 30
0.0
 40
0.5
100
AcDbArc
 50
-168.000003
 51
-90.0
  0
LINE
  5
1A1
100
AcDbEntity
  8
1
370
    30
  6
Continuous
 62
     7
100
AcDbLine
 10
50.802855
 20
146.002998
 30
0.0
 11
64.033276
 21
146.002998
 31
0.0
  0
ARC
  5
1A2
100
AcDbEntity
  8
1
370
    30
  6
Continuous
 62
     7
100
AcDbCircle
 10
50.353323
 20
148.61788
 30
0.0
 40
0.5
100
AcDbArc
 50
102.00002
 51
-167.999991
  0
LINE
  5
1A3
100
AcDbEntity
  8
1
370
    30
  6
Continuous
 62
     7
100
AcDbLine
 10
50.313782
 20
146.399043
 30
0.0
 11
49.86425
 21
148.513923
 31
0.0
  0
ARC
  5
1A4
100
AcDbEntity
  8
1
370
    30
  6
Continuous
 62
     7
100
AcDbCircle
 10
50.341041
 20
149.63761
 30
0.0
 40
0.5
100
AcDbArc
 50
-78.000019
 51
11.999995
  0
LINE
  5
1A5
100
AcDbEntity
  8
1
370
    30
  6
Continuous
 62
     7
100
AcDbLine
 10
50.249368
 20
149.106954
 30
0.0
 11
50.444996
 21
149.148535
 31
0.0
  0
ARC
  5
1A6
100
AcDbEntity
  8
1
370
    30
  6
Continuous
 62
     7
100
AcDbCircle
 10
47.418601
 20
158.576878
 30
0.0
 40
1.5
100
AcDbArc
 50
12.0
 51
90.000079
  0
LINE
  5
1A7
100
AcDbEntity
  8
1
370
    30
  6
Continuous
 62
     7
100
AcDbLine
 10
50.830115
 20
149.741566
 30
0.0
 11
48.885822
 21
158.888745
 31
0.0
  0
LINE
  5
1A8
100
AcDbEntity
  8
1
370
    30
  6
Continuous
 62
     7
100
AcDbLine
 10
61.033277
 20
146.002998
 30
0.0
 11
61.033277
 21
145.999299
 31
0.0
  0
LINE
  5
1A9
100
AcDbEntity
  8
1
370
    30
  6
Continuous
 62
     7
100
AcDbLine
 10
63.533277
 20
146.002998
 30
0.0
 11
63.533277
 21
145.915388
 31
0.0
  0
LINE
  5
1AA
100
AcDbEntity
  8
1
370
    30
  6
Continuous
 62
     7
100
AcDbLine
 10
62.333276
 20
146.002998
 30
0.0
 11
62.333276
 21
144.90847
 31
0.0
  0
ARC
  5
1AB
100
AcDbEntity
  8
1
370
    30
  6
Continuous
 62
     7
100
AcDbCircle
 10
49.533278
 20
178.18825
 30
0.0
 40
12.999999
100
AcDbArc
 50
0.0
 51
90.0
  0
LINE
  5
1AC
100
AcDbEntity
  8
1
370
    30
  6
Continuous
 62
     7
100
AcDbLine
 10
62.533277
 20
168.202999
 30
0.0
 11
62.533277
 21
178.18825
 31
0.0
  0
ARC
  5
1AD
100
AcDbEntity
  8
1
370
    30
  6
Continuous
 62
     7
100
AcDbCircle
 10
49.533277
 20
178.188249
 30
0.0
 40
16.000001
100
AcDbArc
 50
0.0
 51
90.0
  0
LINE
  5
1AE
100
AcDbEntity
  8
1
370
    30
  6
Continuous
 62
     7
100
AcDbLine
 10
65.533277
 20
168.101183
 30
0.0
 11
65.533277
 21
178.188249
 31
0.0
  0
LINE
  5
1AF
100
AcDbEntity
  8
1
370
    30
  6
Continuous
 62
     7
100
AcDbLine
 10
35.633277
 20
158.693512
 30
0.0
 11
35.633277
 21
151.284604
 31
0.0
  0
ARC
  5
1B0
100
AcDbEntity
  8
1
370
    30
  6
Continuous
 62
     7
100
AcDbCircle
 10
34.433278
 20
151.284604
 30
0.0
 40
1.199999
100
AcDbArc
 50
180.0
 51
0.0
  0
ARC
  5
1B1
100
AcDbEntity
  8
1
370
    30
  6
Continuous
 62
     7
100
AcDbCircle
 10
57.333278
 20
136.307256
 30
0.0
 40
5.0
100
AcDbArc
 50
-136.279444
 51
0.00001
  0
LINE
  5
1B2
100
AcDbEntity
  8
1
370
    30
  6
Continuous
 62
     7
100
AcDbLine
 10
35.633277
 20
151.7643
 30
0.0
 11
53.719682
 21
132.851548
 31
0.0
  0
LINE
  5
1B3
100
AcDbEntity
  8
1
370
    30
  6
Continuous
 62
     7
100
AcDbLine
 10
62.333276
 20
144.90847
 30
0.0
 11
62.333278
 21
136.307258
 31
0.0
  0
ARC
  5
1B4
100
AcDbEntity
  8
1
370
    30
  6
Continuous
 62
     7
100
AcDbCircle
 10
57.333277
 20
136.308078
 30
0.0
 40
7.4
100
AcDbArc
 50
-136.291543
 51
0.0
  0
LINE
  5
1B5
100
AcDbEntity
  8
1
370
    30
  6
Continuous
 62
     7
100
AcDbLine
 10
51.984074
 20
131.194757
 30
0.0
 11
33.493891
 21
150.537912
 31
0.0
  0
LINE
  5
1B6
100
AcDbEntity
  8
1
370
    30
  6
Continuous
 62
     7
100
AcDbLine
 10
64.733277
 20
146.002998
 30
0.0
 11
64.733277
 21
136.308078
 31
0.0
  0
ARC
  5
1B7
100
AcDbEntity
  8
1
370
    30
  6
Continuous
 62
     7
100
AcDbCircle
 10
58.283278
 20
136.396699
 30
0.0
 40
8.0
100
AcDbArc
 50
-90.0
 51
0.0
  0
LINE
  5
1B8
100
AcDbEntity
  8
1
370
    30
  6
Continuous
 62
     7
100
AcDbLine
 10
66.283277
 20
136.396699
 30
0.0
 11
66.283277
 21
146.233432
 31
0.0
  0
ARC
  5
1B9
100
AcDbEntity
  8
1
370
    30
  6
Continuous
 62
     7
100
AcDbCircle
 10
34.433278
 20
157.641521
 30
0.0
 40
1.595833
100
AcDbArc
 50
41.23973
 51
138.76027
  0
LINE
  5
1BA
100
AcDbEntity
  8
1
370
    30
  6
Continuous
 62
     7
100
AcDbLine
 10
33.233278
 20
158.693512
 30
0.0
 11
33.233278
 21
151.284604
 31
0.0
  0
LINE
  5
1BB
100
AcDbEntity
  8
1
370
    30
  6
Continuous
 62
     7
100
AcDbLine
 10
56.033278
 20
173.126786
 30
0.0
 11
46.833498
 21
173.126786
 31
0.0
  0
LINE
  5
1BC
100
AcDbEntity
  8
1
370
    30
  6
Continuous
 62
     7
100
AcDbLine
 10
46.833498
 20
160.076878
 30
0.0
 11
47.493277
 21
160.076878
 31
0.0
  0
LINE
  5
1BD
100
AcDbEntity
  8
1
370
    30
  6
Continuous
 62
     7
100
AcDbLine
 10
46.833498
 20
173.126786
 30
0.0
 11
46.833498
 21
174.515489
 31
0.0
  0
LINE
  5
1BE
100
AcDbEntity
  8
1
370
    30
  6
Continuous
 62
     7
100
AcDbLine
 10
46.833498
 20
174.515489
 30
0.0
 11
47.833498
 21
174.515489
 31
0.0
  0
LINE
  5
1BF
100
AcDbEntity
  8
1
370
    30
  6
Continuous
 62
     7
100
AcDbLine
 10
47.833498
 20
174.515489
 30
0.0
 11
47.833498
 21
173.126786
 31
0.0
  0
LINE
  5
1C0
100
AcDbEntity
  8
1
370
    30
  6
Continuous
 62
     7
100
AcDbLine
 10
46.833498
 20
160.076878
 30
0.0
 11
46.833498
 21
158.63065
 31
0.0
  0
LINE
  5
1C1
100
AcDbEntity
  8
1
370
    30
  6
Continuous
 62
     7
100
AcDbLine
 10
46.833498
 20
158.63065
 30
0.0
 11
47.833498
 21
158.63065
 31
0.0
  0
LINE
  5
1C2
100
AcDbEntity
  8
1
370
    30
  6
Continuous
 62
     7
100
AcDbLine
 10
47.833498
 20
158.63065
 30
0.0
 11
47.833498
 21
160.018357
 31
0.0
  0
LINE
  5
1C3
100
AcDbEntity
  8
1
370
    30
  6
Continuous
 62
     7
100
AcDbLine
 10
49.533278
 20
191.188249
 30
0.0
 11
39.193278
 21
191.183
 31
0.0
  0
LINE
  5
1C4
100
AcDbEntity
  8
1
370
    30
  6
Continuous
 62
     7
100
AcDbLine
 10
49.867678
 20
194.176
 30
0.0
 11
39.193278
 21
194.176
 31
0.0
  0
LINE
  5
1C5
100
AcDbEntity
  8
1
370
    30
  6
Continuous
 62
     7
100
AcDbLine
 10
39.193278
 20
194.176
 30
0.0
 11
39.135344
 21
194.163004
 31
0.0
  0
LINE
  5
1C6
100
AcDbEntity
  8
1
370
    30
  6
Continuous
 62
     7
100
AcDbLine
 10
39.135344
 20
194.163004
 30
0.0
 11
39.07736
 21
194.135287
 31
0.0
  0
LINE
  5
1C7
100
AcDbEntity
  8
1
370
    30
  6
Continuous
 62
     7
100
AcDbLine
 10
39.07736
 20
194.135287
 30
0.0
 11
39.019724
 21
194.094064
 31
0.0
  0
LINE
  5
1C8
100
AcDbEntity
  8
1
370
    30
  6
Continuous
 62
     7
100
AcDbLine
 10
39.019724
 20
194.094064
 30
0.0
 11
38.962833
 21
194.040552
 31
0.0
  0
LINE
  5
1C9
100
AcDbEntity
  8
1
370
    30
  6
Continuous
 62
     7
100
AcDbLine
 10
38.962833
 20
194.040552
 30
0.0
 11
38.907083
 21
193.975968
 31
0.0
  0
LINE
  5
1CA
100
AcDbEntity
  8
1
370
    30
  6
Continuous
 62
     7
100
AcDbLine
 10
38.907083
 20
193.975968
 30
0.0
 11
38.85287
 21
193.901526
 31
0.0
  0
LINE
  5
1CB
100
AcDbEntity
  8
1
370
    30
  6
Continuous
 62
     7
100
AcDbLine
 10
38.85287
 20
193.901526
 30
0.0
 11
38.800588
 21
193.818445
 31
0.0
  0
LINE
  5
1CC
100
AcDbEntity
  8
1
370
    30
  6
Continuous
 62
     7
100
AcDbLine
 10
38.800588
 20
193.818445
 30
0.0
 11
38.750636
 21
193.727939
 31
0.0
  0
LINE
  5
1CD
100
AcDbEntity
  8
1
370
    30
  6
Continuous
 62
     7
100
AcDbLine
 10
38.750636
 20
193.727939
 30
0.0
 11
38.700504
 21
193.622307
 31
0.0
  0
LINE
  5
1CE
100
AcDbEntity
  8
1
370
    30
  6
Continuous
 62
     7
100
AcDbLine
 10
38.700504
 20
193.622307
 30
0.0
 11
38.648738
 21
193.497088
 31
0.0
  0
LINE
  5
1CF
100
AcDbEntity
  8
1
370
    30
  6
Continuous
 62
     7
100
AcDbLine
 10
38.648738
 20
193.497088
 30
0.0
 11
38.597323
 21
193.358364
 31
0.0
  0
LINE
  5
1D0
100
AcDbEntity
  8
1
370
    30
  6
Continuous
 62
     7
100
AcDbLine
 10
38.597323
 20
193.358364
 30
0.0
 11
38.548235
 21
193.212216
 31
0.0
  0
LINE
  5
1D1
100
AcDbEntity
  8
1
370
    30
  6
Continuous
 62
     7
100
AcDbLine
 10
38.548235
 20
193.212216
 30
0.0
 11
38.503457
 21
193.064724
 31
0.0
  0
LINE
  5
1D2
100
AcDbEntity
  8
1
370
    30
  6
Continuous
 62
     7
100
AcDbLine
 10
38.503457
 20
193.064724
 30
0.0
 11
38.464969
 21
192.921971
 31
0.0
  0
LINE
  5
1D3
100
AcDbEntity
  8
1
370
    30
  6
Continuous
 62
     7
100
AcDbLine
 10
38.464969
 20
192.921971
 30
0.0
 11
38.434751
 21
192.790034
 31
0.0
  0
LINE
  5
1D4
100
AcDbEntity
  8
1
370
    30
  6
Continuous
 62
     7
100
AcDbLine
 10
38.434751
 20
192.790034
 30
0.0
 11
38.414785
 21
192.674998
 31
0.0
  0
LINE
  5
1D5
100
AcDbEntity
  8
1
370
    30
  6
Continuous
 62
     7
100
AcDbLine
 10
38.414785
 20
192.674998
 30
0.0
 11
38.406626
 21
192.575041
 31
0.0
  0
LINE
  5
1D6
100
AcDbEntity
  8
1
370
    30
  6
Continuous
 62
     7
100
AcDbLine
 10
38.406626
 20
192.575041
 30
0.0
 11
38.409054
 21
192.48359
 31
0.0
  0
LINE
  5
1D7
100
AcDbEntity
  8
1
370
    30
  6
Continuous
 62
     7
100
AcDbLine
 10
38.409054
 20
192.48359
 30
0.0
 11
38.419889
 21
192.399603
 31
0.0
  0
LINE
  5
1D8
100
AcDbEntity
  8
1
370
    30
  6
Continuous
 62
     7
100
AcDbLine
 10
38.419889
 20
192.399603
 30
0.0
 11
38.436945
 21
192.322031
 31
0.0
  0
LINE
  5
1D9
100
AcDbEntity
  8
1
370
    30
  6
Continuous
 62
     7
100
AcDbLine
 10
38.436945
 20
192.322031
 30
0.0
 11
38.458042
 21
192.249828
 31
0.0
  0
LINE
  5
1DA
100
AcDbEntity
  8
1
370
    30
  6
Continuous
 62
     7
100
AcDbLine
 10
38.458042
 20
192.249828
 30
0.0
 11
38.480997
 21
192.18195
 31
0.0
  0
LINE
  5
1DB
100
AcDbEntity
  8
1
370
    30
  6
Continuous
 62
     7
100
AcDbLine
 10
38.480997
 20
192.18195
 30
0.0
 11
38.503626
 21
192.11735
 31
0.0
  0
LINE
  5
1DC
100
AcDbEntity
  8
1
370
    30
  6
Continuous
 62
     7
100
AcDbLine
 10
38.503626
 20
192.11735
 30
0.0
 11
38.523747
 21
192.054984
 31
0.0
  0
LINE
  5
1DD
100
AcDbEntity
  8
1
370
    30
  6
Continuous
 62
     7
100
AcDbLine
 10
38.523747
 20
192.054984
 30
0.0
 11
38.543123
 21
191.996029
 31
0.0
  0
LINE
  5
1DE
100
AcDbEntity
  8
1
370
    30
  6
Continuous
 62
     7
100
AcDbLine
 10
38.543123
 20
191.996029
 30
0.0
 11
38.564587
 21
191.941989
 31
0.0
  0
LINE
  5
1DF
100
AcDbEntity
  8
1
370
    30
  6
Continuous
 62
     7
100
AcDbLine
 10
38.564587
 20
191.941989
 30
0.0
 11
38.587563
 21
191.892298
 31
0.0
  0
LINE
  5
1E0
100
AcDbEntity
  8
1
370
    30
  6
Continuous
 62
     7
100
AcDbLine
 10
38.587563
 20
191.892298
 30
0.0
 11
38.611479
 21
191.846395
 31
0.0
  0
LINE
  5
1E1
100
AcDbEntity
  8
1
370
    30
  6
Continuous
 62
     7
100
AcDbLine
 10
38.611479
 20
191.846395
 30
0.0
 11
38.635757
 21
191.803718
 31
0.0
  0
LINE
  5
1E2
100
AcDbEntity
  8
1
370
    30
  6
Continuous
 62
     7
100
AcDbLine
 10
38.635757
 20
191.803718
 30
0.0
 11
38.659824
 21
191.763705
 31
0.0
  0
LINE
  5
1E3
100
AcDbEntity
  8
1
370
    30
  6
Continuous
 62
     7
100
AcDbLine
 10
38.659824
 20
191.763705
 30
0.0
 11
38.683107
 21
191.725792
 31
0.0
  0
LINE
  5
1E4
100
AcDbEntity
  8
1
370
    30
  6
Continuous
 62
     7
100
AcDbLine
 10
38.683107
 20
191.725792
 30
0.0
 11
38.705029
 21
191.689418
 31
0.0
  0
LINE
  5
1E5
100
AcDbEntity
  8
1
370
    30
  6
Continuous
 62
     7
100
AcDbLine
 10
38.705029
 20
191.689418
 30
0.0
 11
38.724502
 21
191.656566
 31
0.0
  0
LINE
  5
1E6
100
AcDbEntity
  8
1
370
    30
  6
Continuous
 62
     7
100
AcDbLine
 10
38.724502
 20
191.656566
 30
0.0
 11
38.74161
 21
191.628623
 31
0.0
  0
LINE
  5
1E7
100
AcDbEntity
  8
1
370
    30
  6
Continuous
 62
     7
100
AcDbLine
 10
38.74161
 20
191.628623
 30
0.0
 11
38.757528
 21
191.604127
 31
0.0
  0
LINE
  5
1E8
100
AcDbEntity
  8
1
370
    30
  6
Continuous
 62
     7
100
AcDbLine
 10
38.757528
 20
191.604127
 30
0.0
 11
38.773437
 21
191.581622
 31
0.0
  0
LINE
  5
1E9
100
AcDbEntity
  8
1
370
    30
  6
Continuous
 62
     7
100
AcDbLine
 10
38.773437
 20
191.581622
 30
0.0
 11
38.790515
 21
191.559647
 31
0.0
  0
LINE
  5
1EA
100
AcDbEntity
  8
1
370
    30
  6
Continuous
 62
     7
100
AcDbLine
 10
38.790515
 20
191.559647
 30
0.0
 11
38.809941
 21
191.536741
 31
0.0
  0
LINE
  5
1EB
100
AcDbEntity
  8
1
370
    30
  6
Continuous
 62
     7
100
AcDbLine
 10
38.809941
 20
191.536741
 30
0.0
 11
38.832894
 21
191.511444
 31
0.0
  0
LINE
  5
1EC
100
AcDbEntity
  8
1
370
    30
  6
Continuous
 62
     7
100
AcDbLine
 10
38.832894
 20
191.511444
 30
0.0
 11
38.860552
 21
191.482298
 31
0.0
  0
LINE
  5
1ED
100
AcDbEntity
  8
1
370
    30
  6
Continuous
 62
     7
100
AcDbLine
 10
38.860552
 20
191.482298
 30
0.0
 11
38.892051
 21
191.450374
 31
0.0
  0
LINE
  5
1EE
100
AcDbEntity
  8
1
370
    30
  6
Continuous
 62
     7
100
AcDbLine
 10
38.892051
 20
191.450374
 30
0.0
 11
38.925899
 21
191.417517
 31
0.0
  0
LINE
  5
1EF
100
AcDbEntity
  8
1
370
    30
  6
Continuous
 62
     7
100
AcDbLine
 10
38.925899
 20
191.417517
 30
0.0
 11
38.962329
 21
191.383439
 31
0.0
  0
LINE
  5
1F0
100
AcDbEntity
  8
1
370
    30
  6
Continuous
 62
     7
100
AcDbLine
 10
38.962329
 20
191.383439
 30
0.0
 11
39.001578
 21
191.347847
 31
0.0
  0
LINE
  5
1F1
100
AcDbEntity
  8
1
370
    30
  6
Continuous
 62
     7
100
AcDbLine
 10
39.001578
 20
191.347847
 30
0.0
 11
39.043884
 21
191.310449
 31
0.0
  0
LINE
  5
1F2
100
AcDbEntity
  8
1
370
    30
  6
Continuous
 62
     7
100
AcDbLine
 10
39.043884
 20
191.310449
 30
0.0
 11
39.08948
 21
191.270954
 31
0.0
  0
LINE
  5
1F3
100
AcDbEntity
  8
1
370
    30
  6
Continuous
 62
     7
100
AcDbLine
 10
39.08948
 20
191.270954
 30
0.0
 11
39.138603
 21
191.229067
 31
0.0
  0
LINE
  5
1F4
100
AcDbEntity
  8
1
370
    30
  6
Continuous
 62
     7
100
AcDbLine
 10
39.138603
 20
191.229067
 30
0.0
 11
39.191487
 21
191.184499
 31
0.0
  0
LINE
  5
1F5
100
AcDbEntity
  8
1
370
    30
  6
Continuous
 62
     7
100
AcDbLine
 10
52.395191
 20
130.796698
 30
0.0
 11
40.783277
 21
130.782
 31
0.0
  0
LINE
  5
1F6
100
AcDbEntity
  8
1
370
    30
  6
Continuous
 62
     7
100
AcDbLine
 10
58.283278
 20
128.3967
 30
0.0
 11
40.783277
 21
128.408999
 31
0.0
  0
LINE
  5
1F7
100
AcDbEntity
  8
1
370
    30
  6
Continuous
 62
     7
100
AcDbLine
 10
177.665284
 20
168.102999
 30
0.0
 11
178.008141
 21
166.602999
 31
0.0
  0
LINE
  5
1F8
100
AcDbEntity
  8
1
370
    30
  6
Continuous
 62
     7
100
AcDbLine
 10
178.008141
 20
166.602999
 30
0.0
 11
178.122427
 21
166.102999
 31
0.0
  0
LINE
  5
1F9
100
AcDbEntity
  8
1
370
    30
  6
Continuous
 62
     7
100
AcDbLine
 10
174.665284
 20
168.102999
 30
0.0
 11
174.208141
 21
166.102999
 31
0.0
  0
LINE
  5
1FA
100
AcDbEntity
  8
1
370
    30
  6
Continuous
 62
     7
100
AcDbLine
 10
174.665284
 20
174.602999
 30
0.0
 11
173.165284
 21
174.602999
 31
0.0
  0
LINE
  5
1FB
100
AcDbEntity
  8
1
370
    30
  6
Continuous
 62
     7
100
AcDbLine
 10
173.165284
 20
174.602999
 30
0.0
 11
173.165284
 21
173.102999
 31
0.0
  0
LINE
  5
1FC
100
AcDbEntity
  8
1
370
    30
  6
Continuous
 62
     7
100
AcDbLine
 10
173.165284
 20
173.102999
 30
0.0
 11
168.265284
 21
173.102999
 31
0.0
  0
LINE
  5
1FD
100
AcDbEntity
  8
1
370
    30
  6
Continuous
 62
     7
100
AcDbLine
 10
177.665284
 20
174.602999
 30
0.0
 11
179.165284
 21
174.602999
 31
0.0
  0
LINE
  5
1FE
100
AcDbEntity
  8
1
370
    30
  6
Continuous
 62
     7
100
AcDbLine
 10
179.165284
 20
173.102999
 30
0.0
 11
179.165284
 21
174.602999
 31
0.0
  0
LINE
  5
1FF
100
AcDbEntity
  8
1
370
    30
  6
Continuous
 62
     7
100
AcDbLine
 10
179.165284
 20
173.102999
 30
0.0
 11
184.065284
 21
173.102999
 31
0.0
  0
LINE
  5
200
100
AcDbEntity
  8
1
370
    30
  6
Continuous
 62
     7
100
AcDbLine
 10
169.265284
 20
166.102999
 30
0.0
 11
183.065284
 21
166.102999
 31
0.0
  0
LINE
  5
201
100
AcDbEntity
  8
1
370
    30
  6
Continuous
 62
     7
100
AcDbLine
 10
168.265284
 20
173.102999
 30
0.0
 11
168.265284
 21
146.002999
 31
0.0
  0
LINE
  5
202
100
AcDbEntity
  8
1
370
    30
  6
Continuous
 62
     7
100
AcDbLine
 10
168.265284
 20
146.002999
 30
0.0
 11
169.265284
 21
146.002999
 31
0.0
  0
LINE
  5
203
100
AcDbEntity
  8
1
370
    30
  6
Continuous
 62
     7
100
AcDbLine
 10
169.265284
 20
146.002999
 30
0.0
 11
169.265284
 21
173.102999
 31
0.0
  0
LINE
  5
204
100
AcDbEntity
  8
1
370
    30
  6
Continuous
 62
     7
100
AcDbLine
 10
183.065284
 20
146.002999
 30
0.0
 11
183.065284
 21
173.102999
 31
0.0
  0
LINE
  5
205
100
AcDbEntity
  8
1
370
    30
  6
Continuous
 62
     7
100
AcDbLine
 10
169.265284
 20
148.102999
 30
0.0
 11
183.065284
 21
148.102999
 31
0.0
  0
LINE
  5
206
100
AcDbEntity
  8
1
370
    30
  6
Continuous
 62
     7
100
AcDbLine
 10
168.265284
 20
166.102999
 30
0.0
 11
167.165284
 21
166.102999
 31
0.0
  0
LINE
  5
207
100
AcDbEntity
  8
1
370
    30
  6
Continuous
 62
     7
100
AcDbLine
 10
167.165284
 20
166.102999
 30
0.0
 11
167.165284
 21
148.102999
 31
0.0
  0
LINE
  5
208
100
AcDbEntity
  8
1
370
    30
  6
Continuous
 62
     7
100
AcDbLine
 10
167.165284
 20
148.102999
 30
0.0
 11
168.265284
 21
148.102999
 31
0.0
  0
LINE
  5
209
100
AcDbEntity
  8
1
370
    30
  6
Continuous
 62
     7
100
AcDbLine
 10
168.265284
 20
168.202999
 30
0.0
 11
169.265284
 21
168.202999
 31
0.0
  0
LINE
  5
20A
100
AcDbEntity
  8
1
370
    30
  6
Continuous
 62
     7
100
AcDbLine
 10
183.065284
 20
168.202999
 30
0.0
 11
184.065284
 21
168.202999
 31
0.0
  0
LINE
  5
20B
100
AcDbEntity
  8
1
370
    30
  6
Continuous
 62
     7
100
AcDbLine
 10
168.265284
 20
160.103
 30
0.0
 11
169.265284
 21
160.103
 31
0.0
  0
LINE
  5
20C
100
AcDbEntity
  8
1
370
    30
  6
Continuous
 62
     7
100
AcDbLine
 10
183.065284
 20
160.103
 30
0.0
 11
184.065284
 21
160.103
 31
0.0
  0
LINE
  5
20D
100
AcDbEntity
  8
1
370
    30
  6
Continuous
 62
     7
100
AcDbLine
 10
168.265284
 20
154.103
 30
0.0
 11
169.265284
 21
154.103
 31
0.0
  0
LINE
  5
20E
100
AcDbEntity
  8
1
370
    30
  6
Continuous
 62
     7
100
AcDbLine
 10
183.065284
 20
154.103
 30
0.0
 11
184.065284
 21
154.103
 31
0.0
  0
LINE
  5
20F
100
AcDbEntity
  8
1
370
    30
  6
Continuous
 62
     7
100
AcDbLine
 10
184.065284
 20
173.102999
 30
0.0
 11
184.065284
 21
160.103
 31
0.0
  0
LINE
  5
210
100
AcDbEntity
  8
1
370
    30
  6
Continuous
 62
     7
100
AcDbLine
 10
184.065284
 20
154.103
 30
0.0
 11
184.065284
 21
146.002999
 31
0.0
  0
LINE
  5
211
100
AcDbEntity
  8
1
370
    30
  6
Continuous
 62
     7
100
AcDbLine
 10
184.065284
 20
164.602999
 30
0.0
 11
193.165284
 21
164.602999
 31
0.0
  0
LINE
  5
212
100
AcDbEntity
  8
1
370
    30
  6
Continuous
 62
     7
100
AcDbLine
 10
193.165284
 20
164.602999
 30
0.0
 11
193.165284
 21
149.602999
 31
0.0
  0
LINE
  5
213
100
AcDbEntity
  8
1
370
    30
  6
Continuous
 62
     7
100
AcDbLine
 10
193.165284
 20
149.602999
 30
0.0
 11
184.065284
 21
149.602999
 31
0.0
  0
ARC
  5
214
100
AcDbEntity
  8
1
370
    30
  6
Continuous
 62
     7
100
AcDbCircle
 10
176.165284
 20
141.540499
 30
0.0
 40
8.5625
100
AcDbArc
 50
50.033787
 51
129.966213
  0
LINE
  5
215
100
AcDbEntity
  8
1
370
    30
  6
Continuous
 62
     7
100
AcDbLine
 10
183.065284
 20
146.002999
 30
0.0
 11
184.065284
 21
146.002999
 31
0.0
  0
LINE
  5
216
100
AcDbEntity
  8
1
370
    30
  6
Continuous
 62
     7
100
AcDbLine
 10
174.665284
 20
168.102999
 30
0.0
 11
177.665284
 21
168.102999
 31
0.0
  0
LINE
  5
217
100
AcDbEntity
  8
1
370
    30
  6
Continuous
 62
     7
100
AcDbLine
 10
217.665285
 20
162.802999
 30
0.0
 11
217.665285
 21
151.402999
 31
0.0
  0
LINE
  5
218
100
AcDbEntity
  8
1
370
    30
  6
Continuous
 62
     7
100
AcDbLine
 10
193.165284
 20
162.802999
 30
0.0
 11
219.866249
 21
162.799147
 31
0.0
  0
ARC
  5
219
100
AcDbEntity
  8
1
370
    30
  6
Continuous
 62
     7
100
AcDbCircle
 10
176.165284
 20
129.603
 30
0.0
 40
1.199999
100
AcDbArc
 50
180.0
 51
0.0
  0
LINE
  5
21A
100
AcDbEntity
  8
1
370
    30
  6
Continuous
 62
     7
100
AcDbLine
 10
174.965285
 20
148.102999
 30
0.0
 11
174.965285
 21
129.603
 31
0.0
  0
LINE
  5
21B
100
AcDbEntity
  8
1
370
    30
  6
Continuous
 62
     7
100
AcDbLine
 10
177.365283
 20
129.603
 30
0.0
 11
177.365283
 21
148.102999
 31
0.0
  0
LINE
  5
21C
100
AcDbEntity
  8
1
370
    30
  6
Continuous
 62
     7
100
AcDbLine
 10
193.165284
 20
151.402999
 30
0.0
 11
219.866249
 21
151.402999
 31
0.0
  0
LINE
  5
21D
100
AcDbEntity
  8
1
370
    30
  6
Continuous
 62
     7
100
AcDbLine
 10
219.866249
 20
162.799147
 30
0.0
 11
219.866249
 21
151.402999
 31
0.0
  0
ARC
  5
21E
100
AcDbEntity
  8
1
370
    30
  6
Continuous
 62
     7
100
AcDbCircle
 10
231.465283
 20
153.102998
 30
0.0
 40
2.9
100
AcDbArc
 50
-90.0
 51
0.0
  0
LINE
  5
21F
100
AcDbEntity
  8
1
370
    30
  6
Continuous
 62
     7
100
AcDbLine
 10
234.365283
 20
158.603
 30
0.0
 11
234.365283
 21
153.102998
 31
0.0
  0
ARC
  5
220
100
AcDbEntity
  8
1
370
    30
  6
Continuous
 62
     7
100
AcDbCircle
 10
231.465284
 20
153.102998
 30
0.0
 40
0.5
100
AcDbArc
 50
-90.0
 51
0.0
  0
ARC
  5
221
100
AcDbEntity
  8
1
370
    30
  6
Continuous
 62
     7
100
AcDbCircle
 10
231.465284
 20
153.102998
 30
0.0
 40
0.5
100
AcDbArc
 50
-90.0
 51
0.0
  0
LINE
  5
222
100
AcDbEntity
  8
1
370
    30
  6
Continuous
 62
     7
100
AcDbLine
 10
231.965284
 20
158.603
 30
0.0
 11
231.965284
 21
153.102998
 31
0.0
  0
ARC
  5
223
100
AcDbEntity
  8
1
370
    30
  6
Continuous
 62
     7
100
AcDbCircle
 10
120.865285
 20
153.102998
 30
0.0
 40
2.9
100
AcDbArc
 50
180.0
 51
-90.0
  0
LINE
  5
224
100
AcDbEntity
  8
1
370
    30
  6
Continuous
 62
     7
100
AcDbLine
 10
117.965285
 20
158.603
 30
0.0
 11
117.965285
 21
153.102998
 31
0.0
  0
ARC
  5
225
100
AcDbEntity
  8
1
370
    30
  6
Continuous
 62
     7
100
AcDbCircle
 10
120.865283
 20
153.102998
 30
0.0
 40
0.5
100
AcDbArc
 50
180.0
 51
-90.0
  0
LINE
  5
226
100
AcDbEntity
  8
1
370
    30
  6
Continuous
 62
     7
100
AcDbLine
 10
120.365283
 20
158.603
 30
0.0
 11
120.365283
 21
153.102998
 31
0.0
  0
LINE
  5
227
100
AcDbEntity
  8
1
370
    30
  6
Continuous
 62
     7
100
AcDbLine
 10
120.865283
 20
152.602999
 30
0.0
 11
125.082229
 21
152.602999
 31
0.0
  0
ARC
  5
228
100
AcDbEntity
  8
1
370
    30
  6
Continuous
 62
     7
100
AcDbCircle
 10
163.365284
 20
140.084881
 30
0.0
 40
8.8
100
AcDbArc
 50
-135.0
 51
0.0
  0
LINE
  5
229
100
AcDbEntity
  8
1
370
    30
  6
Continuous
 62
     7
100
AcDbLine
 10
172.165284
 20
148.102999
 30
0.0
 11
172.165284
 21
140.084881
 31
0.0
  0
ARC
  5
22A
100
AcDbEntity
  8
1
370
    30
  6
Continuous
 62
     7
100
AcDbCircle
 10
163.365282
 20
140.084882
 30
0.0
 40
11.2
100
AcDbArc
 50
-135.0
 51
0.0
  0
LINE
  5
22B
100
AcDbEntity
  8
1
370
    30
  6
Continuous
 62
     7
100
AcDbLine
 10
174.565283
 20
148.102999
 30
0.0
 11
174.565283
 21
140.084882
 31
0.0
  0
ARC
  5
22C
100
AcDbEntity
  8
1
370
    30
  6
Continuous
 62
     7
100
AcDbCircle
 10
188.965284
 20
140.084881
 30
0.0
 40
8.8
100
AcDbArc
 50
180.0
 51
-45.0
  0
LINE
  5
22D
100
AcDbEntity
  8
1
370
    30
  6
Continuous
 62
     7
100
AcDbLine
 10
180.165284
 20
148.102999
 30
0.0
 11
180.165284
 21
140.084881
 31
0.0
  0
ARC
  5
22E
100
AcDbEntity
  8
1
370
    30
  6
Continuous
 62
     7
100
AcDbCircle
 10
188.965285
 20
140.084882
 30
0.0
 40
11.2
100
AcDbArc
 50
180.0
 51
-45.0
  0
LINE
  5
22F
100
AcDbEntity
  8
1
370
    30
  6
Continuous
 62
     7
100
AcDbLine
 10
177.765285
 20
148.102999
 30
0.0
 11
177.765285
 21
140.084882
 31
0.0
  0
ARC
  5
230
100
AcDbEntity
  8
1
370
    30
  6
Continuous
 62
     7
100
AcDbCircle
 10
219.064729
 20
140.202999
 30
0.0
 40
9.999999
100
AcDbArc
 50
90.0
 51
135.0
  0
LINE
  5
231
100
AcDbEntity
  8
1
370
    30
  6
Continuous
 62
     7
100
AcDbLine
 10
211.993661
 20
147.274067
 30
0.0
 11
196.884882
 21
132.165287
 31
0.0
  0
LINE
  5
232
100
AcDbEntity
  8
1
370
    30
  6
Continuous
 62
     7
100
AcDbLine
 10
219.064729
 20
150.202998
 30
0.0
 11
231.465283
 21
150.202998
 31
0.0
  0
LINE
  5
233
100
AcDbEntity
  8
1
370
    30
  6
Continuous
 62
     7
100
AcDbLine
 10
195.187824
 20
133.862342
 30
0.0
 11
210.296605
 21
148.971123
 31
0.0
  0
ARC
  5
234
100
AcDbEntity
  8
1
370
    30
  6
Continuous
 62
     7
100
AcDbCircle
 10
219.064729
 20
140.202999
 30
0.0
 40
12.4
100
AcDbArc
 50
115.414611
 51
135.0
  0
ARC
  5
235
100
AcDbEntity
  8
1
370
    30
  6
Continuous
 62
     7
100
AcDbCircle
 10
133.265838
 20
140.202999
 30
0.0
 40
9.999999
100
AcDbArc
 50
45.0
 51
90.0
  0
LINE
  5
236
100
AcDbEntity
  8
1
370
    30
  6
Continuous
 62
     7
100
AcDbLine
 10
120.865285
 20
150.202998
 30
0.0
 11
133.265838
 21
150.202998
 31
0.0
  0
LINE
  5
237
100
AcDbEntity
  8
1
370
    30
  6
Continuous
 62
     7
100
AcDbLine
 10
140.336906
 20
147.274067
 30
0.0
 11
155.445686
 21
132.165287
 31
0.0
  0
ARC
  5
238
100
AcDbEntity
  8
1
370
    30
  6
Continuous
 62
     7
100
AcDbCircle
 10
133.265838
 20
140.202999
 30
0.0
 40
12.4
100
AcDbArc
 50
45.0
 51
90.0
  0
LINE
  5
239
100
AcDbEntity
  8
1
370
    30
  6
Continuous
 62
     7
100
AcDbLine
 10
125.082229
 20
152.602999
 30
0.0
 11
133.265838
 21
152.602999
 31
0.0
  0
LINE
  5
23A
100
AcDbEntity
  8
1
370
    30
  6
Continuous
 62
     7
100
AcDbLine
 10
142.033962
 20
148.971123
 30
0.0
 11
157.142743
 21
133.862342
 31
0.0
  0
LINE
  5
23B
100
AcDbEntity
  8
1
370
    30
  6
Continuous
 62
     7
100
AcDbLine
 10
174.665284
 20
168.102999
 30
0.0
 11
174.665284
 21
193.402878
 31
0.0
  0
LINE
  5
23C
100
AcDbEntity
  8
1
370
    30
  6
Continuous
 62
     7
100
AcDbLine
 10
177.665284
 20
168.102999
 30
0.0
 11
177.665284
 21
192.768
 31
0.0
  0
ARC
  5
23D
100
AcDbEntity
  8
1
370
    30
  6
Continuous
 62
     7
100
AcDbCircle
 10
176.165284
 20
192.768
 30
0.0
 40
1.493253
100
AcDbArc
 50
0.0
 51
180.0
  0
LINE
  5
23E
100
AcDbEntity
  8
1
370
    30
  6
Continuous
 62
     7
100
AcDbLine
 10
182.515283
 20
148.102999
 30
0.0
 11
182.497251
 21
134.117926
 31
0.0
  0
LINE
  5
23F
100
AcDbEntity
  8
1
370
    30
  6
Continuous
 62
     7
100
AcDbLine
 10
169.815285
 20
134.098439
 30
0.0
 11
169.815285
 21
148.102999
 31
0.0
  0
LINE
  5
240
100
AcDbEntity
  8
1
370
    30
  6
Continuous
 62
     7
100
AcDbLine
 10
231.543483
 20
152.606518
 30
0.0
 11
219.866249
 21
152.602999
 31
0.0
  0
DIMENSION
  5
24C
100
AcDbEntity
  8
3
370
    30
  6
Continuous
 62
    94
100
AcDbDimension
  2
*D1
 10
114.665284
 20
224.602429
 30
0.0
 11
176.165284
 21
224.602429
 31
0.0
 71
     5
 72
     1
 41
1.0
 42
0.0
  1
(123)
100
AcDbAlignedDimension
 13
114.665284
 23
172.602999
 33
0.0
 14
237.665283
 24
172.602999
 34
0.0
100
AcDbRotatedDimension
  0
DIMENSION
  5
258
100
AcDbEntity
  8
3
370
    30
  6
Continuous
 62
    94
100
AcDbDimension
  2
*D2
 10
107.668131
 20
152.602999
 30
0.0
 11
107.668131
 21
166.602999
 31
0.0
 71
     5
 72
     1
 41
1.0
 42
0.0
  1
φ28
100
AcDbAlignedDimension
 13
124.582229
 23
152.602999
 33
0.0
 14
124.582229
 24
180.603
 34
0.0
 50
90.0
100
AcDbRotatedDimension
  0
LINE
  5
259
100
AcDbEntity
  8
2
370
    30
  6
CENTER
 62
     5
100
AcDbLine
 10
165.598348
 20
157.102998
 30
0.0
 11
226.948997
 21
157.102998
 31
0.0
  0
LINE
  5
25A
100
AcDbEntity
  8
2
370
    30
  6
CENTER
 62
     5
100
AcDbLine
 10
53.337334
 20
157.103
 30
0.0
 11
75.534295
 21
157.103
 31
0.0
  0
LINE
  5
25B
100
AcDbEntity
  8
2
370
    30
  6
CENTER
 62
     5
100
AcDbLine
 10
64.033277
 20
140.286353
 30
0.0
 11
64.033277
 21
169.506794
 31
0.0
  0
LINE
  5
25C
100
AcDbEntity
  8
2
370
    30
  6
CENTER
 62
     5
100
AcDbLine
 10
111.957543
 20
166.602999
 30
0.0
 11
245.753252
 21
166.602999
 31
0.0
  0
LINE
  5
25D
100
AcDbEntity
  8
2
370
    30
  6
CENTER
 62
     5
100
AcDbLine
 10
18.122127
 20
166.602999
 30
0.0
 11
75.534295
 21
166.602999
 31
0.0
  0
TEXT
  5
25E
100
AcDbEntity
  8
2
370
    30
  6
Continuous
 62
     5
100
AcDbText
 10
164.804927
 20
93.001999
 30
0.0
 40
4.0
  1
S
 41
0.5
 11
164.804927
 21
93.001999
 31
0.0
100
AcDbText
 73
     1
  0
TEXT
  5
25F
100
AcDbEntity
  8
2
370
    30
  6
Continuous
 62
     5
100
AcDbText
 10
147.416929
 20
108.7855
 30
0.0
 40
4.0
  1
E
 41
0.5
 11
147.416929
 21
108.7855
 31
0.0
100
AcDbText
 73
     1
  0
TEXT
  5
260
100
AcDbEntity
  8
2
370
    30
  6
Continuous
 62
     5
100
AcDbText
 10
202.149286
 20
109.053
 30
0.0
 40
4.0
  1
C
 41
0.5
 11
202.149286
 21
109.053
 31
0.0
100
AcDbText
 73
     1
  0
TEXT
  5
261
100
AcDbEntity
  8
2
370
    30
  6
Continuous
 62
     5
100
AcDbText
 10
76.584793
 20
98.6199
 30
0.0
 40
4.0
  1
D
 41
0.5
 11
76.584793
 21
98.6199
 31
0.0
100
AcDbText
 73
     1
  0
INSERT
  5
27D
100
AcDbEntity
  8
0
370
     9
  6
Continuous
 62
     7
100
AcDbBlockReference
  2
*G3
 10
0.0
 20
0.0
 30
0.0
  0
INSERT
  5
299
100
AcDbEntity
  8
0
370
     9
  6
Continuous
 62
     7
100
AcDbBlockReference
  2
*G4
 10
0.0
 20
0.0
 30
0.0
  0
LINE
  5
29A
100
AcDbEntity
  8
2
370
    30
  6
CENTER
 62
     5
100
AcDbLine
 10
169.725284
 20
212.702999
 30
0.0
 11
182.605283
 21
212.702999
 31
0.0
  0
LINE
  5
29B
100
AcDbEntity
  8
2
370
    30
  6
CENTER
 62
     5
100
AcDbLine
 10
176.165284
 20
93.022499
 30
0.0
 11
176.089285
 21
219.694999
 31
0.0
  0
LINE
  5
29C
100
AcDbEntity
  8
2
370
    30
  6
CENTER
 62
     5
100
AcDbLine
 10
160.165283
 20
154.915998
 30
0.0
 11
160.165283
 21
104.996499
 31
0.0
  0
LINE
  5
29D
100
AcDbEntity
  8
2
370
    30
  6
CENTER
 62
     5
100
AcDbLine
 10
192.165284
 20
153.679998
 30
0.0
 11
192.165284
 21
104.996499
 31
0.0
  0
LINE
  5
29E
100
AcDbEntity
  8
2
370
    30
  6
CENTER
 62
     5
100
AcDbLine
 10
86.433278
 20
193.702999
 30
0.0
 11
86.433278
 21
94.309398
 31
0.0
  0
ARC
  5
29F
100
AcDbEntity
  8
2
370
    30
  6
CENTER
 62
     5
100
AcDbCircle
 10
67.433277
 20
193.702999
 30
0.0
 40
19.0
100
AcDbArc
 50
0.0
 51
90.0
  0
LINE
  5
2A0
100
AcDbEntity
  8
2
370
    30
  6
CENTER
 62
     5
100
AcDbLine
 10
34.433278
 20
193.702999
 30
0.0
 11
34.433278
 21
91.306301
 31
0.0
  0
LINE
  5
2A1
100
AcDbEntity
  8
2
370
    30
  6
CENTER
 62
     5
100
AcDbLine
 10
53.433278
 20
212.702999
 30
0.0
 11
67.433277
 21
212.702999
 31
0.0
  0
ARC
  5
2A2
100
AcDbEntity
  8
2
370
    30
  6
CENTER
 62
     5
100
AcDbCircle
 10
53.433278
 20
193.702999
 30
0.0
 40
19.0
100
AcDbArc
 50
90.0
 51
180.0
  0
DIMENSION
  5
2AD
100
AcDbEntity
  8
3
370
    30
  6
Continuous
 62
    94
100
AcDbDimension
  2
*D5
 10
244.665283
 20
107.603
 30
0.0
 11
244.665283
 21
137.102999
 31
0.0
 71
     5
 72
     1
 41
1.0
 42
0.0
  1
59
100
AcDbAlignedDimension
 13
201.044285
 23
107.603
 33
0.0
 14
244.665283
 24
166.602999
 34
0.0
 50
90.0
100
AcDbRotatedDimension
  0
DIMENSION
  5
2B9
100
AcDbEntity
  8
3
370
    30
  6
Continuous
 62
    94
100
AcDbDimension
  2
*D6
 10
251.665284
 20
95.602999
 30
0.0
 11
251.665284
 21
131.102999
 31
0.0
 71
     5
 72
     1
 41
1.0
 42
0.0
  1
71
100
AcDbAlignedDimension
 13
183.940285
 23
95.602999
 33
0.0
 14
245.165283
 24
166.602999
 34
0.0
 50
90.0
100
AcDbRotatedDimension
  0
DIMENSION
  5
2C4
100
AcDbEntity
  8
3
370
    30
  6
Continuous
 62
    94
100
AcDbDimension
  2
*D7
 10
176.165284
 20
89.858546
 30
0.0
 11
198.456617
 21
89.858546
 31
0.0
 71
     5
 72
     1
 41
1.0
 42
0.0
  1
16
100
AcDbAlignedDimension
 13
176.165284
 23
89.858546
 33
0.0
 14
192.165284
 24
104.496499
 34
0.0
100
AcDbRotatedDimension
  0
DIMENSION
  5
2D0
100
AcDbEntity
  8
3
370
    30
  6
Continuous
 62
    94
100
AcDbDimension
  2
*D8
 10
160.165283
 20
89.858546
 30
0.0
 11
153.715239
 21
89.858546
 31
0.0
 71
     5
 72
     1
 41
1.0
 42
0.0
  1
16
100
AcDbAlignedDimension
 13
160.165283
 23
104.496499
 33
0.0
 14
176.165284
 24
92.522499
 34
0.0
100
AcDbRotatedDimension
  0
DIMENSION
  5
2DC
100
AcDbEntity
  8
3
370
    30
  6
Continuous
 62
    94
100
AcDbDimension
  2
*D9
 10
101.289321
 20
166.602999
 30
0.0
 11
101.289321
 21
192.102999
 31
0.0
 71
     5
 72
     1
 41
1.0
 42
0.0
  1
51
100
AcDbAlignedDimension
 13
76.151965
 23
166.602999
 33
0.0
 14
72.772978
 24
217.602999
 34
0.0
 50
90.0
100
AcDbRotatedDimension
  0
DIMENSION
  5
2E7
100
AcDbEntity
  8
3
370
    30
  6
Continuous
 62
    94
100
AcDbDimension
  2
*D10
 10
101.289321
 20
98.602999
 30
0.0
 11
101.289321
 21
132.602999
 31
0.0
 71
     5
 72
     1
 41
1.0
 42
0.0
  1
68
100
AcDbAlignedDimension
 13
92.583278
 23
98.602999
 33
0.0
 14
101.289321
 24
166.602999
 34
0.0
 50
90.0
100
AcDbRotatedDimension
  0
DIMENSION
  5
2F3
100
AcDbEntity
  8
3
370
    30
  6
Continuous
 62
    94
100
AcDbDimension
  2
*D11
 10
34.433278
 20
89.858546
 30
0.0
 11
60.433278
 21
89.858546
 31
0.0
 71
     5
 72
     1
 41
1.0
 42
0.0
  1
52
100
AcDbAlignedDimension
 13
34.433278
 23
90.806301
 33
0.0
 14
86.433278
 24
93.809398
 34
0.0
100
AcDbRotatedDimension
  0
LINE
  5
2F4
100
AcDbEntity
  8
3
370
    30
  6
Continuous
 62
    94
100
AcDbLine
 10
86.433278
 20
98.602999
 30
0.0
 11
88.116189
 21
97.522347
 31
0.0
  0
LINE
  5
2F5
100
AcDbEntity
  8
3
370
    30
  6
Continuous
 62
    94
100
AcDbLine
 10
86.433278
 20
98.602999
 30
0.0
 11
87.350396
 21
96.825671
 31
0.0
  0
POLYLINE
  5
2F6
100
AcDbEntity
  8
3
370
    30
  6
Continuous
 62
    94
100
AcDb2dPolyline
 66
     1
 10
0.0
 20
0.0
 30
0.0
  0
VERTEX
  5
2F7
100
AcDbEntity
  8
3
370
    30
  6
Continuous
 62
    94
100
AcDbVertex
100
AcDb2dVertex
 10
86.433278
 20
98.602999
 30
0.0
  0
VERTEX
  5
2F8
100
AcDbEntity
  8
3
370
    30
  6
Continuous
 62
    94
100
AcDbVertex
100
AcDb2dVertex
 10
101.289321
 20
82.273084
 30
0.0
  0
VERTEX
  5
2F9
100
AcDbEntity
  8
3
370
    30
  6
Continuous
 62
    94
100
AcDbVertex
100
AcDb2dVertex
 10
76.818
 20
82.273084
 30
0.0
  0
SEQEND
  5
2FA
100
AcDbEntity
  8
3
370
    30
  6
Continuous
 62
    94
  0
TEXT
  5
2FB
100
AcDbEntity
  8
3
370
    30
  6
Continuous
 62
    94
100
AcDbText
 10
76.818
 20
82.273084
 30
0.0
 40
4.0
  1
I.D. 9.7  
 41
0.657895
 11
76.818
 21
82.273084
 31
0.0
100
AcDbText
 73
     1
  0
TEXT
  5
2FC
100
AcDbEntity
  8
3
370
    30
  6
Continuous
 62
    94
100
AcDbText
 10
181.952838
 20
72.109815
 30
0.0
 40
4.0
  1
DEPTH 9.5
 41
0.54878
 11
181.952838
 21
72.109815
 31
0.0
100
AcDbText
 73
     1
  0
TEXT
  5
2FD
100
AcDbEntity
  8
3
370
    30
  6
Continuous
 62
    94
100
AcDbText
 10
76.935
 20
77.74
 30
0.0
 40
4.0
  1
DEPTH 9.5
 41
0.54878
 11
76.935
 21
77.74
 31
0.0
100
AcDbText
 73
     1
  0
LINE
  5
2FE
100
AcDbEntity
  8
3
370
    30
  6
Continuous
 62
    94
100
AcDbLine
 10
192.165284
 20
107.603
 30
0.0
 11
191.735892
 21
105.649638
 31
0.0
  0
LINE
  5
2FF
100
AcDbEntity
  8
3
370
    30
  6
Continuous
 62
    94
100
AcDbLine
 10
192.165284
 20
107.603
 30
0.0
 11
190.816739
 21
106.126035
 31
0.0
  0
POLYLINE
  5
300
100
AcDbEntity
  8
3
370
    30
  6
Continuous
 62
    94
100
AcDb2dPolyline
 66
     1
 10
0.0
 20
0.0
 30
0.0
  0
VERTEX
  5
301
100
AcDbEntity
  8
3
370
    30
  6
Continuous
 62
    94
100
AcDbVertex
100
AcDb2dVertex
 10
192.165284
 20
107.603
 30
0.0
  0
VERTEX
  5
302
100
AcDbEntity
  8
3
370
    30
  6
Continuous
 62
    94
100
AcDbVertex
100
AcDb2dVertex
 10
176.163736
 20
76.729862
 30
0.0
  0
VERTEX
  5
303
100
AcDbEntity
  8
3
370
    30
  6
Continuous
 62
    94
100
AcDbVertex
100
AcDb2dVertex
 10
206.163736
 20
76.729862
 30
0.0
  0
SEQEND
  5
304
100
AcDbEntity
  8
3
370
    30
  6
Continuous
 62
    94
  0
TEXT
  5
305
100
AcDbEntity
  8
3
370
    30
  6
Continuous
 62
    94
100
AcDbText
 10
176.163736
 20
76.729862
 30
0.0
 40
4.0
  1
   3-I.D. 12.95
 41
0.614754
 11
176.163736
 21
76.729862
 31
0.0
100
AcDbText
 73
     1
  0
TEXT
  5
306
100
AcDbEntity
  8
2
370
    30
  6
Continuous
 62
     5
100
AcDbText
 10
261.922
 20
37.599
 30
0.0
 40
8.0
  1
1 : 1
 41
0.657895
 11
261.922
 21
37.599
 31
0.0
100
AcDbText
 73
     1
  0
TEXT
  5
307
100
AcDbEntity
  8
2
370
    30
  6
Continuous
 62
     5
100
AcDbText
 10
300.059
 20
37.599
 30
0.0
 40
8.0
  1
STF-0201Z,STF-0202Z
 41
0.510753
 11
300.059
 21
37.599
 31
0.0
100
AcDbText
 73
     1
  0
TEXT
  5
308
100
AcDbEntity
  8
2
370
    30
  6
Continuous
 62
     5
100
AcDbText
 10
300.059
 20
28.759
 30
0.0
 40
8.0
  1
STF-0201G,STF-0202G
 41
0.510753
 11
300.059
 21
28.759
 31
0.0
100
AcDbText
 73
     1
  0
ENDSEC
  0
SECTION
  2
OBJECTS
  0
DICTIONARY
  5
19
100
AcDbDictionary
280
     0
281
     1
  3
ACAD_GROUP
350
1A
  3
ACAD_MLINESTYLE
350
1B
  3
ACAD_LAYOUT
350
1E
  3
ACAD_PLOTSETTINGS
350
22
  3
ACAD_PLOTSTYLENAME
350
1F
  3
ACAD_WIPEOUT_VARS
350
23
  0
DICTIONARY
  5
1A
102
{ACAD_REACTORS
330
19
102
}
100
AcDbDictionary
280
     0
281
     1
  0
DICTIONARY
  5
1B
102
{ACAD_REACTORS
330
19
102
}
100
AcDbDictionary
280
     0
281
     1
  3
Standard
350
1C
  0
MLINESTYLE
  5
1C
102
{ACAD_REACTORS
330
1B
102
}
100
AcDbMlineStyle
  2
Standard
 70
     0
  3

 62
     0
 51
90.0
 52
90.0
 71
     2
 49
0.5
 62
   256
  6
ByLayer
 49
-0.5
 62
   256
  6
ByLayer
  0
ACDBDICTIONARYWDFLT
  5
1F
102
{ACAD_REACTORS
330
19
102
}
100
AcDbDictionary
281
     1
  3
Normal
350
1D
100
AcDbDictionaryWithDefault
340
1D
  0
ACDBPLACEHOLDER
  5
1D
102
{ACAD_REACTORS
330
1F
102
}
  0
LAYOUT
  5
20
102
{ACAD_REACTORS
330
1E
102
}
100
AcDbPlotSettings
  1

  2

  4

  6

 40
0.0
 41
0.0
 42
0.0
 43
0.0
 44
0.0
 45
0.0
 46
0.0
 47
0.0
 48
0.0
 49
0.0
140
0.0
141
0.0
142
1.0
143
1.0
 70
  1024
 72
     0
 73
     0
 74
     0
  7

 75
     0
147
1.0
148
0.0
149
0.0
100
AcDbLayout
  1
Model
 70
     0
 71
     0
 10
0.0
 20
0.0
 11
0.0
 21
0.0
 12
0.0
 22
0.0
 32
0.0
 14
0.0
 24
0.0
 34
0.0
 15
0.0
 25
0.0
 35
0.0
146
0.0
 13
0.0
 23
0.0
 33
0.0
 16
0.0
 26
0.0
 36
0.0
 17
0.0
 27
0.0
 37
0.0
 76
     0
330
A
331
0
345
0
346
0
  0
LAYOUT
  5
21
102
{ACAD_REACTORS
330
1E
102
}
100
AcDbPlotSettings
  1

  2

  4

  6

 40
0.0
 41
0.0
 42
0.0
 43
0.0
 44
0.0
 45
0.0
 46
0.0
 47
0.0
 48
0.0
 49
0.0
140
0.0
141
0.0
142
1.0
143
1.0
 70
     0
 72
     0
 73
     0
 74
     0
  7

 75
     0
147
1.0
148
0.0
149
0.0
100
AcDbLayout
  1
Layout1
 70
     0
 71
     0
 10
0.0
 20
0.0
 11
0.0
 21
0.0
 12
0.0
 22
0.0
 32
0.0
 14
0.0
 24
0.0
 34
0.0
 15
0.0
 25
0.0
 35
0.0
146
0.0
 13
0.0
 23
0.0
 33
0.0
 16
0.0
 26
0.0
 36
0.0
 17
0.0
 27
0.0
 37
0.0
 76
     0
330
B
331
0
345
0
346
0
  0
DICTIONARY
  5
1E
102
{ACAD_REACTORS
330
19
102
}
100
AcDbDictionary
280
     0
281
     1
  3
Layout1
350
21
  3
Model
350
20
  0
DICTIONARY
  5
22
102
{ACAD_REACTORS
330
19
102
}
100
AcDbDictionary
280
     0
281
     1
  0
WIPEOUTVARIABLES
  5
23
100
AcDbWipeoutVariables
 70
     1
  0
ENDSEC
  0
EOF
